BluRayCD Forum

 找回密码
 立即注册【分享大片】

QQ登录

只需一步,快速开始

查看: 10|回复: 0
收起左侧

[科幻恐怖] 断头台 Two on a Guillotine 1965 720p BluRaycd x264-SPECTACLE 5.12GB

[复制链接]

3897

主题

4271

帖子

3万

积分

Post Share

金币
7316 枚
体力
6584 点

卓越贡献勋章

mvods 发表于 2020-9-12 09:05:05 | 显示全部楼层 |阅读模式

5 \8 |' G- r( U; Y  |( n0 k
8 E1 X; t2 v# B/ [◎译  名 断头台* C+ e+ _9 l0 R/ K( p; m: s
◎片  名 Two on a Guillotine
$ G. O9 R# _, z. o0 ?) _! y0 c◎年  代 1965( [! K! E% U* ]  P& D% L: k' E
◎产  地 美国
' U2 {& Z$ {' l◎类  别 悬疑/恐怖
1 g( c1 `) R5 T  C. ^3 {◎语  言 英语
9 G: t% G5 u& S: D! o5 q◎上映日期 1965-01-13- n- j  x! M. ?
◎IMDb评分  6.1/10 from 857 users1 J2 z, N  N8 o) r
◎IMDb链接  https://www.imdb.com/title/tt0059837/
+ l  I' I. P7 G0 x0 L+ A◎豆瓣评分 0/10 from 0 users
! ~& ?, m& ]8 l3 x◎豆瓣链接 https://movie.douban.com/subject/3335900// S; \6 o* k. l5 x
◎片  长 1 h 47 min
) z3 ]3 [# ~: ]) A% a◎导  演 威廉姆·康拉德 William Conrad
, I% C! v" W  y: G% a◎编  剧 John Kneubuhl / Henry Slesar, O" F) p; f( {& `- o9 S
◎主  演 约翰·霍伊特 John Hoyt
2 w3 J2 F- E& b       康妮·史蒂文斯 Connie Stevens# C/ O9 x& W6 G8 Q& M
       迪恩·琼斯 Dean Jones
- u4 R0 j8 P; c7 h       恺撒·罗摩洛 Cesar Romero7 d* J% e! p! u6 `( s# L5 J  Y' C
       Jon Lormer, r& `5 C9 s0 \9 T" X
       德尔·穆尔 Del Moore1 t3 `- c$ ~5 P
       乔治·N·奈泽 George N. Neise
. y  L1 u9 `; N- Z. @) i5 e; f       拉塞尔·索尔森 Russell Thorson
/ `# e2 v- t* R4 e! C
; M1 B9 O$ ?8 @. l% Z◎标  签 悬疑 | 美国电影 | 美国 | 恐怖 | BDISO | 1965- c1 H) U' s5 }% A, H5 j1 `' b

& L1 U( P* g- o4 Q" B◎简  介  
2 b( S8 d# l- N% e2 F6 u# A0 O# M1 f5 i# _
  一个精神错乱的魔术师的女儿必须在他的豪宅里住上七个晚上才能继承他的财产。
. r+ x9 ~9 J: N- G
Video
0 F( k) B7 z- H2 s, L$ u* ZID                                       : 16 t$ _# w& d. `: v1 K; h
Format                                   : AVC9 W  J+ {$ H3 |% E3 q( `9 m- p% F
Format/Info                              : Advanced Video Codec8 r. `8 S: @5 J
Format profile                           : High@L4.1
& ~. f/ }8 M0 fFormat settings                          : CABAC / 11 Ref Frames
! ^* Q$ i' f1 j& L* a% z: N/ A* qFormat settings, CABAC                   : Yes
$ @/ @: c' }4 s- s9 u* x' fFormat settings, Reference frames        : 11 frames
7 G3 f2 N, b! q0 F( G. l- D% ]Codec ID                                 : V_MPEG4/ISO/AVC
: m$ H" J5 x2 k7 T9 UDuration                                 : 1 h 47 min1 _2 _& G$ g7 L# ~, ]8 P+ i5 U
Bit rate                                 : 6 049 kb/s
1 V3 P, x$ A: I: i" {  iWidth                                    : 1 280 pixels
4 f# x0 H$ b2 sHeight                                   : 546 pixels
, k" X! o& e1 M& }Display aspect ratio                     : 2.35:1: }0 q9 X1 x, w- E. K  K, N# i
Frame rate mode                          : Constant1 Q' |  P7 O- X: ?3 Y; j' O" P; i
Frame rate                               : 23.976 (24000/1001/37687) FPS9 Q' d' a2 v, X% j3 r. d3 q' i
Color space                              : YUV
3 G1 B% P: w  w- \8 ^3 XChroma subsampling                       : 4:2:0
4 W  }! \2 r8 ^Bit depth                                : 8 bits
5 j/ F4 K$ H2 s& D2 h) X8 G' L3 {Scan type                                : Progressive( N( z5 P7 I* T! g# N
Bits/(Pixel*Frame)                       : 0.361" R6 [# l! w. P6 y8 h+ E& z, y
Stream size                              : 4.54 GiB (89%)3 I/ n( `3 C: S3 K' q
Writing library                          : x264 core 160 r3000 33f9e14
+ p' \* E: T0 {% J' ~% g6 ~+ ~4 gEncoding settings                        : cabac=1 / ref=11 / deblock=1:-3:-3 / analyse=0x3:0x133 / me=umh / subme=10 / psy=1 / psy_rd=1.00:0.00 / mixed_ref=1 / me_range=32 / chroma_me=1 / trellis=2 / 8x8dct=1 / cqm=0 / deadzone=21,11 / fast_pskip=0 / chroma_qp_offset=-2 / threads=17 / lookahead_threads=2 / sliced_threads=0 / nr=0 / decimate=1 / interlaced=0 / bluray_compat=0 / constrained_intra=0 / bframes=8 / b_pyramid=2 / b_adapt=2 / b_bias=0 / direct=3 / weightb=1 / open_gop=0 / weightp=2 / keyint=250 / keyint_min=23 / scenecut=40 / intra_refresh=0 / rc_lookahead=60 / rc=crf / mbtree=0 / crf=17.0 / qcomp=0.60 / qpmin=0 / qpmax=69 / qpstep=4 / vbv_maxrate=50000 / vbv_bufsize=62500 / crf_max=0.0 / nal_hrd=none / filler=0 / ip_ratio=1.40 / pb_ratio=1.30 / aq=3:0.65) r  X+ Y$ Y- V5 _* k8 d) i2 q
Default                                  : Yes. @  w4 z+ k+ A2 @$ ]
Forced                                   : No# a8 i  _# \( C' \3 U, I4 z
Audio
" o$ X3 [( P3 N, }) p4 R; T7 eID                                       : 2
! k: V$ n& b* j+ |3 n' gFormat                                   : FLAC
% W, D1 q: A( q9 @Format/Info                              : Free Lossless Audio Codec$ b+ |% L0 ^' W& M; v5 e; ]: ]
Codec ID                                 : A_FLAC1 x* t# i* _/ R
Duration                                 : 1 h 47 min
  i+ N- k$ k! C+ ]4 l6 f0 e2 S  ABit rate mode                            : Variable
; @, b+ P/ l0 h& B1 M3 N9 Q4 ?Bit rate                                 : 763 kb/s) }' u8 U, {8 r* F% O
Channel(s)                               : 2 channels
$ a, g- H1 v! F' HChannel layout                           : L R
3 f5 e# g; x& I: z( {Sampling rate                            : 48.0 kHz
: v+ d& q) b5 Z) JFrame rate                               : 11.719 FPS (4096 SPF), q, g' M- B! c  ^: `
Bit depth                                : 24 bits; S6 y; ?( F& D0 E( p7 T
Compression mode                         : Lossless
: w7 |9 s: T- y- t& D  WStream size                              : 586 MiB (11%)
( {% w0 n0 _6 n1 B5 s) RTitle                                    : Flac 2.0
' P( \  B/ Z4 K0 S' yWriting library                          : libFLAC 1.2.1 (UTC 2007-09-17)1 |- O* l" T  o- K* A& g+ M
Language                                 : English
3 C$ H9 J' u# B/ f, u" e! }9 h4 jDefault                                  : Yes
6 V6 H( v7 q+ kForced                                   : No* j; V; m3 N2 ]; Z; U
Text #1
( L( s0 |9 ]- i6 Q% @ID                                       : 3
9 n& A4 L8 x4 U" G9 ?Format                                   : UTF-8
5 S# C% Q  L: U0 p4 [, J, ^Codec ID                                 : S_TEXT/UTF85 k( v/ }5 F, F% H
Codec ID/Info                            : UTF-8 Plain Text; R5 {% s  w( V# Q  b) u) e
Duration                                 : 1 h 46 min
' }0 f# ]6 m: n# o: ~# r* KBit rate                                 : 53 b/s6 d9 v5 ?- p9 p: x0 f% G
Count of elements                        : 1215
5 B( I0 g: Z3 SStream size                              : 41.3 KiB (0%)
& r- ]7 c; m+ Q: `1 QTitle                                    : Full SRT
( _8 j; _5 h( S3 X9 u& T. L7 {Language                                 : English# b- `7 h/ A: V) \% M
Default                                  : No
" q4 J. m, _- p6 d- r) e/ `Forced                                   : No
' ~6 l" v2 a. o5 |# J0 ~% K0 [Text #2  z3 ~( k4 n& q* e1 ?
ID                                       : 48 e+ Q3 N% u$ z2 O7 \4 r
Format                                   : UTF-8
+ {1 g) R$ u+ ]4 p6 E, }1 @& ]Codec ID                                 : S_TEXT/UTF83 |0 @; p# G5 G- U
Codec ID/Info                            : UTF-8 Plain Text) d" z7 A2 V0 Z
Duration                                 : 1 h 46 min7 I9 a9 _) T1 O- D  A+ Q
Bit rate                                 : 60 b/s0 x, m2 P$ R! X- S# @+ [- p6 H
Count of elements                        : 1454
7 a5 a4 S6 M) H0 Q$ z' WStream size                              : 47.0 KiB (0%)
! j3 D. U& v& s( S8 K0 dTitle                                    : SDH SRT: }# d& g7 p4 [3 U% u. f
Language                                 : English/ ?1 Y3 l: k' `4 C! X! @- b1 Y
Default                                  : No! {; a7 h( z  m3 T
Forced                                   : No
( V9 q4 {+ y# K- SText #3
6 s; M- z4 ~' s8 c1 L% MID                                       : 5& V8 g( Z) U: Y% B! z
Format                                   : PGS
5 m% T$ z' |: _! W8 HMuxing mode                              : zlib
0 P" c  t& m! i+ E8 W  aCodec ID                                 : S_HDMV/PGS5 F2 R7 H. }* j) f( X+ F
Codec ID/Info                            : Picture based subtitle format used on BDs/HD-DVDs
4 i7 }" ~$ f$ p, y" VDuration                                 : 1 h 46 min  L) @! f. \! V( U& P% _: v
Bit rate                                 : 32.2 kb/s
4 {: I; v. i) U, O1 f+ vCount of elements                        : 2908# _+ U6 d! p7 O! V
Stream size                              : 24.6 MiB (0%)
: ]; a8 F1 t2 J3 v/ _7 F0 BTitle                                    : English SDH6 W$ m) I3 }  v9 v1 U$ H, y$ i
Language                                 : English! V% e8 t* S$ ?, I
Default                                  : No
  u: O% ^! ^% bForced                                   : No4 ~( Y* P( B4 x8 `6 k- a5 k1 g2 I
Menu
; v5 s4 K. c; \" ?3 [00:00:00.000                             : en:Chapter 018 c+ b1 b) ?' r" o
00:01:56.575                             : en:Chapter 02$ N$ @( v$ }. A  ?6 V! p6 u1 `7 i
00:04:35.650                             : en:Chapter 03
7 j  ?1 K& G& M0 [00:05:44.970                             : en:Chapter 04$ A/ v0 Y$ f6 R2 v* l5 Z& C
00:07:16.519                             : en:Chapter 05: o* L  y; {# j' p9 i
00:11:00.952                             : en:Chapter 06
$ r+ I# e1 ]( X; e00:13:35.857                             : en:Chapter 07
$ C8 W8 J6 X. R; G0 ?% |00:18:28.899                             : en:Chapter 08
. E$ q0 N9 \* S& ?00:20:44.660                             : en:Chapter 090 Y1 i" J! F, P5 P  _7 o
00:23:29.325                             : en:Chapter 10
/ Z. u8 T. l# ?00:27:56.842                             : en:Chapter 11* l; {/ a0 a+ B. V
00:32:26.236                             : en:Chapter 12) J' x& Q: L" Z% B& A
00:37:55.648                             : en:Chapter 13' L! v% J. L: k& ~& z
00:40:38.853                             : en:Chapter 14: l. \% y+ |8 `% A3 m, e( U
00:45:45.076                             : en:Chapter 15
8 ]! L! w  G% v/ ~' [6 W00:48:06.634                             : en:Chapter 168 Z; u/ n* u7 _9 H( R
00:51:23.080                             : en:Chapter 17$ ]+ f& V, u' F2 L
00:54:23.302                             : en:Chapter 18
+ p+ W8 A) I' k8 m00:58:39.891                             : en:Chapter 19) m9 B  F: ^+ Z  c8 G6 `/ f
01:03:33.893                             : en:Chapter 20" J3 O! Y' b' h) {( a/ R5 P; N" z
01:06:26.316                             : en:Chapter 210 A- H+ g# q5 C* R
01:08:39.907                             : en:Chapter 22) v4 W6 }* D3 b6 Z2 [
01:11:34.916                             : en:Chapter 23: H- Y; R2 W5 N+ z  o2 f: W0 q/ i
01:14:06.025                             : en:Chapter 24
+ J( v7 e# o; a, e4 G  m7 \: N2 j01:18:34.126                             : en:Chapter 25$ `  J* \; y$ @/ w4 x% @9 J
01:22:01.458                             : en:Chapter 267 n" V' l9 b3 g' J
01:24:32.192                             : en:Chapter 27, K0 o' i) D6 z) O& J
01:29:51.886                             : en:Chapter 28
$ k! Z1 \' r6 X' h# x; @01:33:04.704                             : en:Chapter 290 c4 X9 Q% ~0 K, X
01:36:29.367                             : en:Chapter 300 b/ _& Q; A7 L  B/ D: S5 e
01:40:10.046                             : en:Chapter 31
' F! ?  d8 l0 n( z7 |01:44:09.827                             : en:Chapter 322 c) I% n! u" k/ n4 l0 r: F
01:47:02.458                             : en:Chapter 33

" B4 g  @7 h0 x; A
游客,查看本帖隐藏内容请回复 | 加入VIP贵宾组可免积分免回复下载 了解详情 | 还不是会员:点击获取邀请码 Invitation Code

本版积分规则

小黑屋|Archiver|蓝光电影资源网

GMT+8, 2020-10-29 04:06

快速回复 返回顶部 返回列表