BluRayCD Forum

 找回密码
 立即注册【分享大片】

QQ登录

只需一步,快速开始

查看: 17|回复: 0
收起左侧

[经典影片] 单车小子/拉德 [重制版] Rad 1986 REMASTERED 1080p BluRaycd x264 DTS-MaG 13.33GB & 15.03GB

[复制链接]

3897

主题

4271

帖子

3万

积分

Post Share

金币
7316 枚
体力
6584 点

卓越贡献勋章

mvods 发表于 2020-9-12 09:18:07 | 显示全部楼层 |阅读模式

- s+ G1 c1 K) O3 [% a1 r9 J8 V( ]8 m
◎译  名 单车小子/拉德, ~7 L7 K% s* C/ s9 G7 k% p( B
◎片  名 Rad
8 N% K! N2 r* F◎年  代 1986
/ O( P9 g( \5 Q" Q# Y. {" u◎产  地 美国( }$ H) i2 F0 O
◎类  别 剧情/运动
3 o( W) x5 N) s0 T◎语  言 英语
; _) ~- W! p5 i0 {& ]. I: u( M$ }: c( f* c◎上映日期 1986
6 P4 g( A0 n  ]◎IMDb评分  7.0/10 from 5,076 users
6 L% b  o/ x$ F◎IMDb链接  https://www.imdb.com/title/tt0091817/4 W) Y: |1 N: N: E
◎豆瓣评分 0/10 from 0 users
2 o8 R; w: i# S, n- i◎豆瓣链接 https://movie.douban.com/subject/5047986/+ P$ g% V: T  I' A; g) e+ m0 c7 T$ l1 E2 _
◎片  长 1 h 33 min
+ a/ G- b  E2 y$ t◎导  演 哈尔·尼达姆 Hal Needham7 \7 J( J+ S5 ?* G( }; B$ R
◎编  剧 Sam Bernard $ }! j: L( N  z; F7 {% Q
       杰弗里·爱德华兹 Geoffrey Edwards/ ?5 o" d: R+ G8 t; h
◎主  演 比尔·艾伦 Bill Allen, o6 o) W5 P) g
       洛莉·路格林 Lori Loughlin) X% a! E- k% U4 J7 f' {8 ~
       塔莉娅·夏尔 Talia Shire& g! j/ \" p$ T5 C; k. h7 ?
       雷·沃尔斯顿 Ray Walston
2 o$ |' P7 ?0 K& A* L# D       Alfie Wise
8 S8 Z& E, {' h       杰克韦斯顿 Jack Weston
! _. e( Q  f! k( Q* T  _       Bart Conner
5 Y1 u$ U2 `- o9 ]5 B       Marta Kober
8 s( l2 E' t8 f( R' J. _+ K* W       Jamie Clarke+ r, R" x  A1 i1 C$ S8 b
       Laura Jacoby) N  S+ V; P# M, \
       H.B.哈格蒂 H.B. Haggerty0 S  V, f8 y* F' M; E' Y
       查德·海斯 Chad Hayes( S$ p, U& d) Q+ f
       凯利·海斯 Carey Hayes% J2 V+ D4 z  V  W
       Kellie McQuiggin
2 X) z: `0 a7 ?. c       Beverley Hendry
+ a5 H7 l1 d4 K( |+ Y3 |5 d1 J- J       Jeff Kress
( A. G& h; F1 G: j1 I! R       Jack Goth9 n8 v5 L# }9 B5 J
       Ken Squier6 T$ u7 o3 E; \6 L4 S

! F4 l7 J5 E3 N* v0 b1 J' w◎标  签 美国 | 1986 | 剧情 | Movie | Hal_Needham | Bicycle9 T6 q0 z  \% L

2 x1 R  G% T' Z◎简  介  8 ?( n0 e2 r7 U
* F* _8 m. x9 \
  这个故事讲的是一个年轻人,克鲁·琼斯,他有赢得一场名为地狱赛道的小轮车比赛的热情和愿望。
0 p1 H1 f  _4 T, U! H7 d. U  The story of one young man, Cru Jones, who has the intensity and desire to win a BMX race called Helltrack.8 N; M# s+ x9 U0 ]  l" U
Video* Q4 c! W# X' p% z
ID                                       : 1
  L! }9 b% u" Q6 MFormat                                   : AVC
2 H- T2 P! N, W4 h2 O7 YFormat/Info                              : Advanced Video Codec- O/ {' P! [" V/ B+ _5 [/ N. ?, R. g  y
Format profile                           : High@L4.14 l" |' r2 e5 ~
Format settings                          : CABAC / 4 Ref Frames
! ?" d, J5 Z9 P$ kFormat settings, CABAC                   : Yes4 D) y" z7 ^, d2 u; J; a1 P( b3 Y6 U
Format settings, Reference frames        : 4 frames* _6 y5 w2 H4 a
Codec ID                                 : V_MPEG4/ISO/AVC
, E- R; s8 l# [- DDuration                                 : 1 h 33 min! U* N- p8 D- c/ T6 v
Bit rate                                 : 19.0 Mb/s8 }# E. O$ K2 u( m0 f; l
Width                                    : 1 920 pixels
+ k, d  D& ~/ T* s" F0 \2 bHeight                                   : 1 036 pixels5 T& F- n# d  m
Display aspect ratio                     : 1.85:1+ A% a2 X2 u: o3 S7 z% E# R; A
Frame rate mode                          : Constant
) g" B: k7 r3 l1 p% c$ AFrame rate                               : 23.976 (24000/1001/37687) FPS
/ z7 }3 S2 `- f0 D! j; aColor space                              : YUV
: u+ t3 F% i) L* }7 aChroma subsampling                       : 4:2:0
8 ?. R2 ~* }" F2 e# uBit depth                                : 8 bits
1 [' O9 F7 a# S6 \Scan type                                : Progressive
+ x7 j! m- q4 E4 XBits/(Pixel*Frame)                       : 0.398
6 e7 x0 o' l& `; dStream size                              : 12.3 GiB (93%)
% W( r  i% t& E; Y+ [' U& nWriting library                          : x264 core 157 r2935 545de2f
3 P. E- f* e1 }; t5 N4 l/ F9 EEncoding settings                        : cabac=1 / ref=4 / deblock=1:-3:-3 / analyse=0x3:0x133 / me=umh / subme=10 / psy=1 / psy_rd=1.00:0.00 / mixed_ref=1 / me_range=32 / chroma_me=1 / trellis=2 / 8x8dct=1 / cqm=0 / deadzone=21,11 / fast_pskip=0 / chroma_qp_offset=-2 / threads=24 / lookahead_threads=6 / sliced_threads=0 / nr=0 / decimate=1 / interlaced=0 / bluray_compat=0 / constrained_intra=0 / bframes=16 / b_pyramid=2 / b_adapt=2 / b_bias=0 / direct=3 / weightb=1 / open_gop=0 / weightp=2 / keyint=240 / keyint_min=24 / scenecut=40 / intra_refresh=0 / rc_lookahead=60 / rc=crf / mbtree=0 / crf=21.0 / qcomp=0.60 / qpmin=0 / qpmax=69 / qpstep=4 / vbv_maxrate=62500 / vbv_bufsize=78125 / crf_max=0.0 / nal_hrd=none / filler=0 / ip_ratio=1.40 / pb_ratio=1.30 / aq=3:1.00% m9 V9 b8 E6 u
Default                                  : Yes
! f. I5 F5 L+ r* y$ fForced                                   : No6 k& d/ ~3 `3 }; N7 Y" S& C! _
Color range                              : Limited
- }! B! ^; W9 X2 b( w  R9 zColor primaries                          : BT.709' X6 h) g' U2 ~. x
Transfer characteristics                 : BT.709! v1 @4 X' ^, l7 d9 a! s
Matrix coefficients                      : BT.709! R$ R- t, S; x2 K- [7 A/ s% P1 K

/ c- p7 y% e3 FAudio8 F" Y1 h+ F! }$ R1 i3 T. A
ID                                       : 2
7 p1 r+ A: U, i5 N2 n+ dFormat                                   : DTS
" {, }9 Y, }3 rFormat/Info                              : Digital Theater Systems+ Y/ F/ A0 s% [3 D- y
Codec ID                                 : A_DTS; i! w$ M/ q& L; w4 F0 `
Duration                                 : 1 h 33 min; w. ?" j/ X. U/ I; }
Bit rate mode                            : Constant" E  c% \8 l3 D
Bit rate                                 : 1 509 kb/s
; t) b; e7 \* n2 t6 ~, w& zChannel(s)                               : 6 channels, N# Y7 n# J" m. ?; {7 K& j
Channel layout                           : C L R Ls Rs LFE. V( X& L+ k# r) t( z& D/ i
Sampling rate                            : 48.0 kHz
! K( t1 P$ e( I3 [8 ?& o& C; y1 wFrame rate                               : 93.750 FPS (512 SPF)# O6 q8 e% W6 _$ O  @
Bit depth                                : 24 bits
7 q# s% h, G8 t1 P' w* U0 ZCompression mode                         : Lossy9 g6 \1 r; U7 D
Stream size                              : 1 005 MiB (7%)1 b( C  [& k7 W8 k. m+ ]0 X
Title                                    : DTS 5.1 Audio
  B8 B9 ^$ H/ w/ B  i6 ILanguage                                 : English
  R8 a0 n# k" _% {. RDefault                                  : Yes. w% X, N6 t! i+ w" W4 M: e+ Y
Forced                                   : No
" e, f; L8 |0 b+ V8 s; b/ f% p: F; x, d- Z6 }! E5 K
Text
9 _9 D2 i, Z* t! W& n" H4 L. iID                                       : 36 ?7 K# c9 V7 l$ I* i6 j$ @
Format                                   : UTF-8- D, g6 |: l) A
Codec ID                                 : S_TEXT/UTF8! x3 b. ^" U$ Z
Codec ID/Info                            : UTF-8 Plain Text
4 m! X/ H( @& J! M6 t# h: H( YDuration                                 : 1 h 29 min/ _, z+ w5 t7 z; ?* m: O
Bit rate                                 : 63 b/s
% e4 A, Q6 c8 j* t8 ?% d' hCount of elements                        : 1409' ]( m2 z6 \( \! |' Q
Stream size                              : 41.8 KiB (0%)6 X5 {3 l6 s8 f
Language                                 : English1 }8 [! n( @/ g5 o9 w
Default                                  : Yes1 p% w+ L/ W$ e! R! }* t
Forced                                   : No
( X# k7 L* \- f. _8 m' I% [$ v* v2 E* m+ m8 ], w& z
Menu
/ k5 k' ?& o- M00:00:00.000                             : :Reel 1$ e- q  n4 U1 d8 s4 q' Y
00:20:17.466                             : :Reel 2
3 U0 W7 D; r6 E% v* {" s00:40:25.965                             : :Reel 3! p5 c6 [& i) G: J/ f6 i& S! U
00:58:07.651                             : :Reel 4; Y, {" c) }2 e  R/ _8 v9 j. s
01:13:40.166                             : :Reel 5
Video
9 ~1 d9 W9 @& `# AID                                       : 1
) u1 `+ {* C/ x5 l: sFormat                                   : AVC* S+ Q& E- j! D6 s
Format/Info                              : Advanced Video Codec
) N3 M. M+ T. J% E5 AFormat profile                           : High@L4.10 [) p5 q. i  u$ Z  Y
Format settings                          : CABAC / 4 Ref Frames
5 c3 c3 }: M+ r9 M& N6 c3 P- O1 i; _Format settings, CABAC                   : Yes: [- F* Q) f( I; u1 x4 d3 h! B* z
Format settings, Reference frames        : 4 frames) c! c4 c2 D, Q0 N; l0 t9 s. p! y
Codec ID                                 : V_MPEG4/ISO/AVC: L$ O6 b0 ?* {5 E
Duration                                 : 1 h 33 min
& T7 k1 A3 n8 E6 K; JBit rate                                 : 19.3 Mb/s/ g2 f0 K$ x* H& E+ g5 a
Width                                    : 1 920 pixels
4 \  p5 W  b+ H, jHeight                                   : 1 036 pixels- H7 J8 ~: c9 R8 r1 Y5 m3 L) F
Display aspect ratio                     : 1.85:1: l! K8 h1 |7 ]; J, C3 h$ X$ x1 ?
Frame rate mode                          : Constant
/ q. ~# n& ]5 P4 v4 LFrame rate                               : 23.976 (24000/1001/37687) FPS
! a  T" O" U9 AColor space                              : YUV
, B  n4 ?9 _/ xChroma subsampling                       : 4:2:0
4 S; f1 _- c# S) cBit depth                                : 8 bits
9 z& }& J' d+ fScan type                                : Progressive
. c% n9 p. y' f4 _9 Y$ Q4 EBits/(Pixel*Frame)                       : 0.404
, V4 r& H. H( w, Z. r/ ?% CStream size                              : 12.5 GiB (83%)
& m4 Z7 m  x, F3 v: g% NWriting library                          : x264 core 160 r3000 33f9e14( U$ C9 Q+ a" z1 B! D
Encoding settings                        : cabac=1 / ref=4 / deblock=1:-3:-3 / analyse=0x3:0x133 / me=umh / subme=9 / psy=1 / psy_rd=1.00:0.00 / mixed_ref=1 / me_range=16 / chroma_me=1 / trellis=2 / 8x8dct=1 / cqm=0 / deadzone=21,11 / fast_pskip=1 / chroma_qp_offset=-2 / threads=32 / lookahead_threads=2 / sliced_threads=0 / nr=0 / decimate=1 / interlaced=0 / bluray_compat=0 / constrained_intra=0 / bframes=3 / b_pyramid=2 / b_adapt=2 / b_bias=0 / direct=3 / weightb=1 / open_gop=0 / weightp=2 / keyint=250 / keyint_min=23 / scenecut=40 / intra_refresh=0 / rc_lookahead=60 / rc=crf / mbtree=1 / crf=21.3 / qcomp=0.60 / qpmin=0 / qpmax=69 / qpstep=4 / ip_ratio=1.40 / aq=1:1.00, X; D. [9 O8 D$ S! w: A) Z6 ^
Language                                 : English
- f2 e& y9 f0 z6 |, X* [9 \Default                                  : Yes
# w  y9 ?/ c# a9 a) ?. fForced                                   : No
7 ^7 l& J" G7 E" c6 W& b6 vAudio #1
& I* R. J2 J4 @: J( s4 ?ID                                       : 2
4 W+ ~6 n& G# u; |( R9 C7 A3 CFormat                                   : DTS XLL1 y. L) N9 B( P5 w' |: G
Format/Info                              : Digital Theater Systems) X' x! W/ m& V; U/ z- u/ K" M
Commercial name                          : DTS-HD Master Audio0 v7 f! h! s' t
Codec ID                                 : A_DTS5 d, b7 z( A+ l6 r8 Y, R# C- ^6 c
Duration                                 : 1 h 33 min, M- ?# y- J8 A% U9 r! k2 r
Bit rate mode                            : Variable9 g* \# x0 k4 z3 }+ ]6 b
Bit rate                                 : 3 625 kb/s
5 V5 ?* J" Z7 F( j, N. Z' W5 \Channel(s)                               : 6 channels( Z2 _8 X$ ]; o1 O. v
Channel layout                           : C L R Ls Rs LFE
# ^( p1 H" e9 ~2 [/ E" M9 QSampling rate                            : 48.0 kHz
/ V0 P" F. C$ }- f$ o7 \4 d; xFrame rate                               : 93.750 FPS (512 SPF)
" g1 {, Q. f5 K+ B5 R3 }  g! O5 |Bit depth                                : 24 bits1 H) `2 N0 E' |: |  e+ U
Compression mode                         : Lossless
& \* Z7 E' y7 fStream size                              : 2.36 GiB (16%); a/ T2 }2 C  r
Language                                 : English. W5 `5 n" K  K6 Q
Default                                  : Yes
' b, B* [9 L( ^9 ~5 y( x4 b9 EForced                                   : No# l3 q; I/ ?6 E0 P5 O% ~
Audio #2( s# B3 _1 H  s' K- S' e
ID                                       : 3" R, V: |" z& H
Format                                   : AAC LC/ [$ m! q. j6 F
Format/Info                              : Advanced Audio Codec Low Complexity6 g. `* q5 v# L3 l# l3 x
Codec ID                                 : A_AAC-2
) a. a, i' \9 XDuration                                 : 1 h 33 min
8 j3 F7 L8 V* p( ]: [- iBit rate                                 : 61.8 kb/s2 w  t5 v/ @- O* L. u6 x3 B
Channel(s)                               : 1 channel
  _1 V* e* ~0 g, S1 w& f6 ]Channel layout                           : C
! J' @2 j6 N+ P0 B1 m/ G' \! C5 DSampling rate                            : 48.0 kHz
0 q- D" N+ b- A# l5 ]Frame rate                               : 46.875 FPS (1024 SPF)
  |# J5 S* z0 yCompression mode                         : Lossy5 j/ Y2 b& G' h0 ?! j8 r! q
Delay relative to video                  : 9 ms6 e8 Y/ N  }* n' H
Stream size                              : 41.1 MiB (0%): I9 R- t" x9 }8 M7 y
Title                                    : Commentary 1
3 s) ^7 G* W3 k* f; nLanguage                                 : English
: B4 R9 F1 M+ v4 w* ?8 R9 L( r/ s; E2 NDefault                                  : No
2 C9 I% o: e, X7 ~Forced                                   : No2 g& S/ A6 e) I5 Q6 K
Audio #3+ n/ H* \1 {' A2 M8 P% R2 b
ID                                       : 4
7 H1 {0 X7 e2 D2 kFormat                                   : AAC LC
- t) k  X$ b1 p: J% J* lFormat/Info                              : Advanced Audio Codec Low Complexity
4 A  j& h9 H2 O* x5 h- zCodec ID                                 : A_AAC-27 P0 }# X2 p; x( y% ^6 g
Duration                                 : 1 h 33 min& R! F; V% {; P
Bit rate                                 : 62.2 kb/s8 v1 |7 H$ n* t3 G& r
Channel(s)                               : 1 channel9 u6 s) @7 R' Y- m. ]
Channel layout                           : C: `* L0 Y2 t* \
Sampling rate                            : 48.0 kHz9 Q/ R5 |& a8 L
Frame rate                               : 46.875 FPS (1024 SPF)
* E( z, M( s; c) @* f! k& Y6 s3 kCompression mode                         : Lossy9 b2 n+ h% K+ J3 v; m
Delay relative to video                  : 9 ms% R; H$ x/ ~) s8 Q4 W0 s" u7 r
Stream size                              : 41.4 MiB (0%)5 k7 G2 r0 k9 v% e7 h! [" l' S
Title                                    : Commentary 2
9 M0 `8 @; _6 ], G" iLanguage                                 : English: D8 B% ?6 |: v' q% R" W
Default                                  : No
# b% M7 T, {3 S: z  \: LForced                                   : No
0 E3 h8 `0 L9 i# bAudio #4( d6 g5 y* i9 m4 E$ J5 v
ID                                       : 5
" i6 X0 b0 ]" F$ N) l& p# o( ?Format                                   : AAC LC
, ~  q4 A- Z, Y# ?Format/Info                              : Advanced Audio Codec Low Complexity
9 ]7 C$ X, Y' J1 _# X+ kCodec ID                                 : A_AAC-2; `) b" U7 c! B1 u" ]$ j: D' E8 F
Duration                                 : 1 h 33 min
9 R$ z! ~8 w. l  h+ U' \9 c/ bBit rate                                 : 66.2 kb/s
4 W* b0 Z% Y' k: d2 F1 d/ t8 ~9 QChannel(s)                               : 1 channel5 B% ]4 R* Z  T1 s* I; O
Channel layout                           : C
" t6 U0 ?/ x) q% WSampling rate                            : 48.0 kHz+ z+ B: Y) A( |! o
Frame rate                               : 46.875 FPS (1024 SPF)
8 k% J& s4 X: }3 NCompression mode                         : Lossy
. T5 X  J9 n( d$ {; jDelay relative to video                  : 9 ms" o* ]3 v' H& N9 b- W
Stream size                              : 44.1 MiB (0%)
: K9 W* b* d" g. P' MTitle                                    : Commentary 3  |: k9 k! q" U" m5 }: ~
Language                                 : English7 P8 c0 p+ N1 H2 v+ m) u) F8 O# P
Default                                  : No" A$ u$ Q. }4 U( s& n+ }& Y& B9 E
Forced                                   : No
. J* I: E2 h- d+ C7 d- N/ hText8 V& [' A2 E: `- J) `/ F: X
ID                                       : 6; z6 V; h8 N% ?# A
Format                                   : PGS
* m& H; x2 x7 y' V2 xMuxing mode                              : zlib
. W) v: @6 v9 [& F' z4 UCodec ID                                 : S_HDMV/PGS
+ E) i* ~3 @+ ?, ~" U. WCodec ID/Info                            : Picture based subtitle format used on BDs/HD-DVDs* a/ o8 q6 f# C9 c* P
Duration                                 : 1 h 31 min" n  x" ~2 m; c
Bit rate                                 : 29.2 kb/s7 ?; u" w" D  Y6 I1 y
Count of elements                        : 3077
, B# Q. I. ^  dStream size                              : 19.1 MiB (0%)
7 r- H, f; S  q9 [Title                                    : English SDH
. m* A9 Z& t1 r1 ZLanguage                                 : English
) v# o0 ^, T& @/ r4 h$ ^/ S! pDefault                                  : No( J4 n7 c' }: R& v! p; o7 E* h
Forced                                   : No# X! C+ L, I: u9 Y- z) v8 T
Menu& t7 c; a% r4 h, d! n
00:00:00.000                             : en:Chapter 01
2 {, J* o* Q' G: F) ]00:20:16.716                             : en:Chapter 02
& z9 G/ _' g6 Q6 p00:40:25.924                             : en:Chapter 038 \+ c* N7 N8 X2 j! L) |* R2 d
00:58:07.985                             : en:Chapter 04
+ O% b6 {  L9 Z9 x0 y$ `; e7 S01:13:40.416                             : en:Chapter 05

0 i1 |, F6 e1 R. M- r& |& @
游客,查看本帖隐藏内容请回复 | 加入VIP贵宾组可免积分免回复下载 了解详情 | 还不是会员:点击获取邀请码 Invitation Code

本版积分规则

小黑屋|Archiver|蓝光电影资源网

GMT+8, 2020-10-29 12:22

快速回复 返回顶部 返回列表