BluRayCD Forum

 找回密码
 立即注册【分享大片】

QQ登录

只需一步,快速开始

查看: 13|回复: 0
收起左侧

[经典影片] 单车小子/拉德 Rad 1986 720p BluRaycd x264-SPRiNTER 6.59GB

[复制链接]

3897

主题

4271

帖子

3万

积分

Post Share

金币
7316 枚
体力
6584 点

卓越贡献勋章

mvods 发表于 2020-9-12 09:21:50 | 显示全部楼层 |阅读模式
) W3 Q* a: C: _  C  j: k, D* c

( A6 z4 i; Y9 G* _5 f◎译  名 单车小子/拉德1 F/ m' {$ F7 R# H; a5 h! H' d
◎片  名 Rad
0 Q8 n3 e0 f1 w: q0 S( V+ c◎年  代 1986
* M; |0 G% E, G5 M1 a0 T( N( v9 _◎产  地 美国# S2 i, u8 k6 v6 i2 v
◎类  别 剧情/运动
& F! {. ?: Y* t/ p" K- I, _/ m" b◎语  言 英语
& w% L+ A4 P/ ^: N) P: `5 n◎上映日期 1986
8 C" B3 Q& M' K. v, Z! a◎IMDb评分  7.0/10 from 5,076 users# X6 Q5 a# [: w9 l1 k
◎IMDb链接  https://www.imdb.com/title/tt0091817/
: |" |; b! M9 p7 u9 `◎豆瓣评分 0/10 from 0 users
0 j( q, w. Q, N4 d* G0 f. u2 a+ ^◎豆瓣链接 https://movie.douban.com/subject/5047986/0 \* ?% r& G" h6 ~
◎片  长 1 h 33 min, X  ~' R2 |* }. c8 f; t2 f7 l
◎导  演 哈尔·尼达姆 Hal Needham
! B$ s, S* W: T& s/ }( O! I◎编  剧 Sam Bernard
- Y4 f; v% H3 ?4 l) B5 f       杰弗里·爱德华兹 Geoffrey Edwards4 n& ^/ G! l2 K9 W  y
◎主  演 比尔·艾伦 Bill Allen6 }# o* Q( c3 y$ i8 D+ w" `
       洛莉·路格林 Lori Loughlin) z9 i  B& q" I+ p8 A6 d: G
       塔莉娅·夏尔 Talia Shire# V- A7 Q% f& p
       雷·沃尔斯顿 Ray Walston
3 q0 L: \$ x$ X% V       Alfie Wise
6 P5 V% i% o' X$ C" B+ D6 m/ O       杰克韦斯顿 Jack Weston
) W2 A* ~9 M6 I: X1 `9 T" T% R       Bart Conner
2 w, ^- p4 c4 J% Y4 O  t( m       Marta Kober0 V) f, ?4 O/ {! C- q& [1 e0 J$ Y
       Jamie Clarke
  I2 q; }7 l0 }       Laura Jacoby$ J. Z0 O3 p( u. W# p& Q2 _. O
       H.B.哈格蒂 H.B. Haggerty
5 B. l, G( A, P: \8 ~. _       查德·海斯 Chad Hayes
$ ]+ }: J5 b; D       凯利·海斯 Carey Hayes
0 D: E6 O3 j8 U+ g       Kellie McQuiggin
! K  ^5 y( s; n& w5 S. k) j       Beverley Hendry2 |9 [$ I& F' I
       Jeff Kress
: }/ @4 @; q6 A9 x" [- N/ w       Jack Goth4 g, M( F1 A9 `6 H9 E
       Ken Squier
, |/ q( g+ K3 R  h
$ W2 t$ o/ \( o+ f9 B- L0 @- A◎标  签 美国 | 1986 | 剧情 | Movie | Hal_Needham | Bicycle" Y; S& x, B+ y' U/ _) S

( M2 J2 B4 r' y◎简  介  - Q) d7 t& V4 V6 K) \) q7 ]2 ^7 {

) b( C4 T5 A! d5 t- R+ i# b  这个故事讲的是一个年轻人,克鲁·琼斯,他有赢得一场名为地狱赛道的小轮车比赛的热情和愿望。% R/ z3 A8 p; g6 D: {9 I
Video4 x7 n! h2 C+ r8 I8 {( P
ID                                       : 1
1 y: [* S6 G8 F2 s8 u" d" Y) cFormat                                   : AVC, }, }, k0 O4 _2 o3 N/ M) W5 X
Format/Info                              : Advanced Video Codec
+ ]- ?9 R, j$ q8 \Format profile                           : High@L4.1
, _& i4 A' p4 |1 ?# A, D$ yFormat settings                          : CABAC / 8 Ref Frames% C1 O- C# E/ \9 s1 ^
Format settings, CABAC                   : Yes
) b& B2 t9 C+ d* {& _, _/ XFormat settings, Reference frames        : 8 frames
+ E% U& p. H7 W8 T% NCodec ID                                 : V_MPEG4/ISO/AVC# K/ T7 m5 x8 k; w0 Q
Duration                                 : 1 h 33 min9 Q0 e8 b  q$ d, k3 [% M
Bit rate                                 : 9 293 kb/s
- \. I; ?' f* ^Width                                    : 1 280 pixels
/ Q2 d. Y6 P4 a( O  H6 O/ F. lHeight                                   : 690 pixels0 m: f. X; c& c$ d0 O6 S
Display aspect ratio                     : 1.85:18 V2 O7 o9 n- c) a% K; I( u# e
Frame rate mode                          : Constant
: {! |1 M2 K2 u* lFrame rate                               : 23.976 (24000/1001/37687) FPS
1 S  ^: n; z+ ~) r' XColor space                              : YUV
2 J$ G4 M2 \: `. E6 \# aChroma subsampling                       : 4:2:0: f7 o" |2 y1 h0 Z: m2 v
Bit depth                                : 8 bits
1 L8 g! ]: K. zScan type                                : Progressive
7 K" N: A+ @1 {, XBits/(Pixel*Frame)                       : 0.439
8 H. I4 ^2 n& z8 s5 PStream size                              : 6.04 GiB (92%)7 P0 V( Y& X! V+ q1 c1 D+ w
Writing library                          : x264 core 160 r3000 33f9e14' x# T* E* g* Z/ W5 c
Encoding settings                        : cabac=1 / ref=8 / deblock=1:-3:-3 / analyse=0x3:0x133 / me=umh / subme=9 / psy=1 / psy_rd=1.00:0.00 / mixed_ref=1 / me_range=16 / chroma_me=1 / trellis=2 / 8x8dct=1 / cqm=0 / deadzone=21,11 / fast_pskip=1 / chroma_qp_offset=-2 / threads=22 / lookahead_threads=1 / sliced_threads=0 / nr=0 / decimate=1 / interlaced=0 / bluray_compat=0 / constrained_intra=0 / bframes=3 / b_pyramid=2 / b_adapt=2 / b_bias=0 / direct=3 / weightb=1 / open_gop=0 / weightp=2 / keyint=250 / keyint_min=23 / scenecut=40 / intra_refresh=0 / rc_lookahead=60 / rc=crf / mbtree=1 / crf=20.3 / qcomp=0.60 / qpmin=0 / qpmax=69 / qpstep=4 / ip_ratio=1.40 / aq=1:1.00
' w+ b: x6 \4 Q/ a1 R! ALanguage                                 : English  H! L1 m* |* n! C! \) x$ i
Default                                  : Yes; z7 X9 B4 g" c+ u
Forced                                   : No
" G) ?1 a7 O, K% L8 p0 u" HAudio #1- R# j6 q7 ~7 H. Z4 O
ID                                       : 2
; r4 o9 ]! s% v4 m& tFormat                                   : AC-33 m1 m3 |  M$ f' W% s
Format/Info                              : Audio Coding 3, ?& t3 k' a( v. |5 q. i0 L& E
Commercial name                          : Dolby Digital
, h2 b/ Q7 Q! N2 @2 @Codec ID                                 : A_AC3
9 E- ?+ K/ v- I3 WDuration                                 : 1 h 33 min
0 ]5 T8 r# M: w# o5 Q6 P- ^Bit rate mode                            : Constant3 a3 K3 B9 ?) S5 T
Bit rate                                 : 640 kb/s- H0 u0 t. |" q% j  K, k! ^" J
Channel(s)                               : 6 channels
/ g) c9 z8 B9 S1 V2 ]) QChannel layout                           : L R C LFE Ls Rs
$ \9 v4 N1 w0 P$ y! Y  VSampling rate                            : 48.0 kHz& {3 N6 y) b( E1 R9 f+ z2 t  u7 n# o
Frame rate                               : 31.250 FPS (1536 SPF)8 C: m: y7 ~/ w$ k" o
Bit depth                                : 16 bits
( d' x: t; `, h; x) \Compression mode                         : Lossy
0 T6 Q/ P" J* p: T6 mStream size                              : 426 MiB (6%)8 k( ^& V1 R: H  Y7 U$ M. P0 K
Language                                 : English
  H0 b( \7 e  u; z( oService kind                             : Complete Main
4 E& ~  `0 I# z. \- U- u' hDefault                                  : Yes# V4 M; m* q/ D8 z, z
Forced                                   : No; X* \' ^8 i- x  _3 a8 i
Audio #2
3 n3 X; h  ^, ]" p; h9 N6 X, N( HID                                       : 3
: p- M3 e2 P3 E, n: KFormat                                   : AAC LC7 o6 }3 S3 u, S0 b# r! p* T+ ~
Format/Info                              : Advanced Audio Codec Low Complexity
+ w) c" W* \: }! W" B) w6 ZCodec ID                                 : A_AAC-2. Z: h, A- R, x
Duration                                 : 1 h 33 min
# P/ c0 C* W2 S6 l0 @4 _Bit rate                                 : 61.8 kb/s8 {- g0 j5 ?& l9 v6 A2 E
Channel(s)                               : 1 channel
! S+ _3 [3 j1 N0 _( J. [- j( EChannel layout                           : C
+ x" q( ^# s. Q9 V6 Z* O* YSampling rate                            : 48.0 kHz
6 K) R" k0 A7 S/ rFrame rate                               : 46.875 FPS (1024 SPF)
3 g' @% E0 O6 _Compression mode                         : Lossy
1 y: ~( }1 G0 b: V0 F" TDelay relative to video                  : 9 ms+ r9 j1 x$ D2 Y" o% u1 }% g% v/ O% X
Stream size                              : 41.1 MiB (1%)
0 ]" b8 Z$ w) G$ |7 pTitle                                    : Commentary 15 ~* k7 N/ F$ y) W
Language                                 : English1 m7 Z0 d0 k& d; b
Default                                  : No
! W4 D3 q' G- PForced                                   : No3 P  W8 I; ^3 D& N# l0 i7 O# ^- w
Audio #3
) N  [4 n3 O1 q  tID                                       : 4
( h- x- R( n5 H6 @. E+ X1 V; r* }Format                                   : AAC LC
4 W: _* e$ P4 [Format/Info                              : Advanced Audio Codec Low Complexity/ f7 u7 D/ w& E% }; m- m) z
Codec ID                                 : A_AAC-23 X* E: V$ c+ }2 V& `
Duration                                 : 1 h 33 min
9 u6 i1 }1 I5 x6 U2 C* g  \  UBit rate                                 : 62.2 kb/s5 t; X; z0 m  Y- w) m( }
Channel(s)                               : 1 channel
! P2 I! b0 J* a+ _, d: eChannel layout                           : C# p3 }7 N: F" ?- W- O2 |  J& i
Sampling rate                            : 48.0 kHz
- g/ ]0 V% r5 _- J) g* ^7 ^. MFrame rate                               : 46.875 FPS (1024 SPF)9 D0 ?6 V- L. K/ p0 e
Compression mode                         : Lossy
9 @/ ~. c; K& W* T! l% UDelay relative to video                  : 9 ms
  X' N4 B. K$ H) N0 Z/ JStream size                              : 41.4 MiB (1%)
' a; Z& s- j" Q5 l& P7 \% x# {Title                                    : Commentary 2
# U/ \: U' Q, y( r' H' s* s  X" Y8 DLanguage                                 : English1 R" C+ H! \( r  R5 O& @$ s
Default                                  : No- m, H8 K8 N' S7 r' T
Forced                                   : No
8 z3 B& L7 I# i! A. pAudio #4
8 M  r- W( m/ n: G$ W& G" c+ {- yID                                       : 50 Q* Q% W5 q, m
Format                                   : AAC LC
$ @3 y% N' K  Z: b  Z( ]2 |Format/Info                              : Advanced Audio Codec Low Complexity
( W1 Q) d- ^/ Z( t+ f7 P8 JCodec ID                                 : A_AAC-2# `" s8 z. f$ \5 J
Duration                                 : 1 h 33 min
) `9 M4 e5 {9 m) C+ b- zBit rate                                 : 66.2 kb/s, w' |8 u  [: z! i
Channel(s)                               : 1 channel
. g+ L; t& S( J3 ~1 J% w) KChannel layout                           : C$ ^% `+ v& A! |  f
Sampling rate                            : 48.0 kHz
2 D0 E) E" y4 p8 i, n$ T' JFrame rate                               : 46.875 FPS (1024 SPF)
1 {0 Y. z) W* ^1 @9 s. _Compression mode                         : Lossy1 u; x' n8 D1 i8 ]8 }
Delay relative to video                  : 9 ms
: ^9 Z% q8 X& S) z9 x3 F8 \Stream size                              : 44.1 MiB (1%)
  x( r- t9 ?/ }! S) H3 k- xTitle                                    : Commentary 36 W7 l/ u6 |* n. L" q  W
Language                                 : English
! i0 F0 O/ y: E$ s. ^Default                                  : No
: y" b* I3 G4 k0 E, |# Y- UForced                                   : No
- q% N+ @, J3 r6 [Text
5 \' b2 L( Z8 ^+ X8 AID                                       : 6
- n, q8 r. s1 GFormat                                   : PGS
6 I' ?& z0 S4 k* S0 s4 Y+ X. Y9 mMuxing mode                              : zlib' z" D9 K" B5 o) r: Q  g
Codec ID                                 : S_HDMV/PGS( t, X6 n9 M$ a* c/ K
Codec ID/Info                            : Picture based subtitle format used on BDs/HD-DVDs; T) b0 Y2 `9 w8 Y. a
Duration                                 : 1 h 31 min0 m; T, k6 o% M) g' C) T& l; F
Bit rate                                 : 29.2 kb/s8 ^: Q- E- n% J
Count of elements                        : 3077
% E. _7 }& y4 S9 `  J- K9 T) ~7 }' cStream size                              : 19.1 MiB (0%)
0 F, S/ L$ J  g+ tTitle                                    : English SDH+ L. L+ c3 G+ [# E& b$ _
Language                                 : English4 Z- r0 k$ G9 H; |
Default                                  : No, w4 W4 o! |: H% Y8 x8 P! ~% e
Forced                                   : No% F6 `) ^; {, h7 D& E4 K
Menu, D+ U' M' x% {# e
00:00:00.000                             : en:Chapter 01
: I- E5 g. `8 {( h00:20:16.716                             : en:Chapter 02) u0 ^3 P5 j0 P4 q" \
00:40:25.924                             : en:Chapter 03& z! j  h9 L" \
00:58:07.985                             : en:Chapter 04  N' x+ o8 U7 ?9 {! V
01:13:40.416                             : en:Chapter 05
, r4 Z2 s- h$ B- [. v( ?; O8 t6 B+ |) j8 H
Rad.1986.720p.BluRayCD.x264-SPRiNTER
3 X8 `6 |0 o( }) u/ F1 ?( F2 e8 }; r
https://www.imdb.com/title/tt0091817
/ ]( S. n" R1 X/ @8 @) W% d# T+ z5 z( v$ v
Release notes& W" I8 G0 D# E
( M5 Z: m- x0 d
Enjoy!! _. y# G, t& d4 W3 X8 N

- S& d0 R& `, m( u" ~Greetings
* ~0 b! P4 t7 @' l
7 S7 c; v, j4 V3 Y: M8 b: x1 VAEN - EXViD - FiCO; s+ s7 q9 @! H7 H; m: i, o
" @) M, `% G; \' a1 F* O6 a% L0 F
Details* f$ r6 x4 W  i9 a9 k9 C; J' w5 K

7 a1 y: e4 z7 N+ IRelease.Date: 07.06.2020( f$ `" i2 j# g8 s' k3 J9 G
Source......: Retail BluRay @ 34899kbps
" C/ R/ z, j) i9 _Size........: 6748MB
4 M, E- O! s! U' c4 hVideo.....  : x264 9293kbps @ CRF 20.3
0 V3 {/ c9 k5 _, g% k6 E7 _Frame.Rate..: 23.9760 n! c( B  h% o3 C% j
Resolution..: 1280x688
7 G8 U) b: V1 U# v9 bAudio.......: AC3 640kbps 6ch' i' x8 {$ M' i" T$ `; V
: AAC Commentary 1 (Talia Shire, Robert Schwartzmann)
8 Y' m0 k- K+ S" ]9 a1 p: AAC Commentary 2 (Bill Allen)
  ^9 L* F, E1 V" ?: AAC Commentary 3 (Bill Allen, Bart Conner, Sam Bernard + others)
# |3 M0 L7 A9 s; e; VLanguage....: English8 m' r8 ~% b8 c, A1 L7 U
Length......: 1h 33mn
' L6 B/ b$ X/ e1 ~. j
游客,查看本帖隐藏内容请回复 | 加入VIP贵宾组可免积分免回复下载 了解详情 | 还不是会员:点击获取邀请码 Invitation Code

本版积分规则

小黑屋|Archiver|蓝光电影资源网

GMT+8, 2020-10-29 03:20

快速回复 返回顶部 返回列表