BluRayCD Forum

 找回密码
 立即注册【分享大片】

QQ登录

只需一步,快速开始

查看: 20|回复: 2
收起左侧

[蓝光原盘] 单车小子/拉德 [REMUX无损版] Rad 1986 REMASTERED 1080p BluRaycd REMUX AVC DTS-HD MA 5.1-FGT 25.54GB

[复制链接]

4550

主题

4722

帖子

6万

积分

Post Share

金币
8727 枚
体力
16795 点

卓越贡献勋章

黄金嫖客 发表于 2020-9-17 01:24:23 | 显示全部楼层 |阅读模式
- z  ~0 A. d& d5 S6 X! @

9 F* v9 q3 E4 o; ^# A. ~1 w◎译  名 单车小子/拉德# L) y% D: }! V& r9 k! v3 G
◎片  名 Rad
/ M; r: u# C& r! T( {$ A◎年  代 1986
+ E0 }' |; k) d) K9 K" G: X9 z◎产  地 美国
. P/ M5 l: W4 N◎类  别 剧情/运动# a( B1 _4 J& I& ]; T7 s
◎语  言 英语4 n/ b' S; ^% h  x/ u& S; |$ r8 d
◎上映日期 1986
5 U' `  o& @, p( S+ l7 C◎IMDb评分  7.0/10 from 5,083 users) f6 r+ z. R3 b- a0 B( d- A3 G! W
◎IMDb链接  https://www.imdb.com/title/tt0091817/
: b8 s4 Q" a5 \. l. M◎豆瓣评分 0/10 from 0 users
7 h- _8 w  H; b3 S1 T! F5 S3 C◎豆瓣链接 https://movie.douban.com/subject/5047986/
2 K1 J1 A  K0 N( I; b◎文件格式 x264 + DTS
, Y7 b7 X0 l# D1 o◎视频尺寸 1920 x 1080; ?) N2 A" C4 E
◎文件大小 1DVD 25.54 GiB9 j) G. O: a- T5 P: v, E4 D
◎片  长 1 h 33 min2 J% _; @, q( V" a  e- _% W, x& ]
◎导  演 哈尔·尼达姆 Hal Needham
; m5 p- i3 U7 ~" L; E  i* W◎编  剧 Sam Bernard3 W! z, G/ |+ I! M% U
       杰弗里·爱德华兹 Geoffrey Edwards% B) N* B" _0 i1 x' c
◎主  演 比尔·艾伦 Bill Allen$ x' z3 ]5 i$ M3 H. d
       洛莉·路格林 Lori Loughlin4 Z% D- n# L" |5 d7 ~/ ], o
       塔莉娅·夏尔 Talia Shire
) {6 G9 m) _  O0 G, |       雷·沃尔斯顿 Ray Walston
& ~1 f" U- ]" o% I       Alfie Wise6 E! a/ Z8 a# W& U
       杰克韦斯顿 Jack Weston
9 ?/ r* g. R2 S9 |7 {       Bart Conner
4 V' M1 w$ F/ D' u       Marta Kober
" u# X: G# P+ n/ S       Jamie Clarke( D& q1 a. E( G2 ]
       Laura Jacoby
# A4 A6 ?4 T# C, o       H.B.哈格蒂 H.B. Haggerty5 U; O. Q' F( [5 J# H/ R- R
       查德·海斯 Chad Hayes
$ E. o* \/ D- y# ^' z       凯利·海斯 Carey Hayes
& ~" G0 p" q( j7 b/ v3 _% x# ?       Kellie McQuiggin; N8 {3 `4 C0 h2 Q' R5 [  Q
       Beverley Hendry" n9 g3 _; ^& H% R6 `' c
       Jeff Kress
3 h: Z1 D' M2 }1 u* T       Jack Goth
; X, L& i5 b# s( g: w; ]" N6 s       Ken Squier  B# i' t1 O7 @5 O
" b) U7 T' `+ p0 a  L4 p
◎标  签 美国 | 1986 | 剧情 | Movie | Hal_Needham | Bicycle
6 ~2 ~* o$ A) C- a  _5 r" f8 ~6 {# Y- t( E5 Q3 T
◎简  介  
% T* G8 j% K" S4 w- D  S" b% `. G# T/ H4 K) C
  这个故事讲的是一个年轻人,克鲁·琼斯,他有赢得一场名为地狱赛道的小轮车比赛的热情和愿望。
) Q& o1 v* K* \% k1 j6 g: U$ z: Z) Y! v
  The story of one young man, Cru Jones, who has the intensity and desire to win a BMX race called Helltrack.( h, n' n5 G* _* `5 f( d. M
' @. Z  q3 H( m; ~+ b
Video
/ ^" }4 O8 T1 k' s6 `3 c, EID                                       : 1( {# }' v8 i$ r2 f8 v& F% C8 N. o
ID in the original source medium         : 4113 (0x1011)% P# \  E" F$ u  I0 q
Format                                   : AVC. V3 g% Y% @4 }! h! S+ g" P0 s
Format/Info                              : Advanced Video Codec4 e' V+ ?- G6 v, {; D; P% d0 G
Format profile                           : High@L4.11 U7 E& y* R/ U6 D5 i1 g
Format settings                          : CABAC / 3 Ref Frames. Z% u& B5 O+ u+ D
Format settings, CABAC                   : Yes3 v! x' |& `1 O/ }* m* V. m
Format settings, Reference frames        : 3 frames
' h8 L9 F! |) i5 F% mCodec ID                                 : V_MPEG4/ISO/AVC
, m9 f# m) }. z: j( I& ]Duration                                 : 1 h 33 min4 S. l# P5 T1 A# H" Q( f) M5 V
Bit rate mode                            : Variable
( Q: R, J+ Y- L3 |7 v' t- xBit rate                                 : 35.0 Mb/s
1 Y1 U6 d$ ?, F' n) O- H, C* hMaximum bit rate                         : 40.0 Mb/s2 @' `/ l( O' g" G6 o' x
Width                                    : 1 920 pixels
! O' |- Y$ x4 H- uHeight                                   : 1 080 pixels9 o. T) [4 f9 e+ Z. z# u4 T5 _4 D; h3 J& h
Display aspect ratio                     : 16:96 T) J1 f1 M' \- ?- U
Frame rate mode                          : Constant' v+ d. e9 m. Q% d+ Y0 F
Frame rate                               : 23.976 (24000/1001/37687) FPS3 ^" K: Z; f) A" J$ Y
Standard                                 : NTSC
# _9 {& F& ]5 g/ N! zColor space                              : YUV7 }4 u; O0 G' j% e: n* ?' _8 W
Chroma subsampling                       : 4:2:04 ]1 M( [2 j8 X/ f
Bit depth                                : 8 bits
6 F- n+ B  U. _0 H6 \Scan type                                : Progressive2 _3 R$ b  B5 M- @+ @! z# H$ q$ D
Bits/(Pixel*Frame)                       : 0.704: {$ r% |& A3 J3 I- p# X$ {
Stream size                              : 22.7 GiB (89%)
; Z3 G/ f8 o8 Q4 y. [- q1 GTitle                                    : Rad.1986.REMASTERED.1080p.BluRayCD.REMUX.AVC.DTS-HD.MA.5.1-FGT
1 i9 @. @# i+ B; iWriting library                          : x264pro - Adobe CS Exporter Plug-in
9 J& y1 J, e, _6 Y% ?Encoding settings                        : cabac=1 / ref=4 / deblock=1:-1:-1 / analyse=0x3:0x133 / me=umh / subme=10 / psy=1 / psy_rd=1.00:0.15 / mixed_ref=1 / me_range=24 / chroma_me=1 / trellis=2 / 8x8dct=1 / cqm=0 / deadzone=21,11 / fast_pskip=1 / chroma_qp_offset=-3 / threads=12 / lookahead_threads=2 / sliced_threads=0 / slices=4 / nr=0 / decimate=1 / interlaced=0 / bluray_compat=1 / constrained_intra=0 / bframes=3 / b_pyramid=1 / b_adapt=2 / b_bias=0 / direct=3 / weightb=1 / open_gop=0 / weightp=1 / keyint=24 / keyint_min=1 / scenecut=40 / intra_refresh=0 / rc_lookahead=24 / rc=2pass / mbtree=1 / bitrate=35000 / ratetol=1.0 / qcomp=0.60 / qpmin=0 / qpmax=69 / qpstep=4 / cplxblur=20.0 / qblur=0.5 / vbv_maxrate=40000 / vbv_bufsize=30000 / nal_hrd=vbr / ip_ratio=1.40 / aq=1:1.00
+ V& T7 o6 V9 A1 A8 L' w& YLanguage                                 : English
! _; H  s) s; h% JDefault                                  : No2 R4 Z8 [% t- C6 B6 A- O4 q
Forced                                   : No! Q3 N0 \, s2 k6 B! I
Color range                              : Limited
8 ]% P3 s. U$ x  rColor primaries                          : BT.709
" X! _. G: \8 C' rTransfer characteristics                 : BT.709
( W( R- W$ N$ P; w8 vMatrix coefficients                      : BT.7091 D9 z* X8 C4 l
Original source medium                   : Blu-ray
" E' l& q1 W5 D2 n2 V0 l
6 q% J! ]( w+ N& A3 b. VAudio #1' k2 S) H! P! L9 C$ F" s( n* |
ID                                       : 2) [7 Q) \7 u( ?2 p2 c6 R. C
ID in the original source medium         : 4352 (0x1100)  s2 H+ m' b: M/ L" {1 C% W1 q
Format                                   : DTS XLL) k, A: X1 e* v6 k7 |
Format/Info                              : Digital Theater Systems1 b7 x) X- j8 A
Commercial name                          : DTS-HD Master Audio
* H0 N. G3 z  @2 f5 iCodec ID                                 : A_DTS
# I: a$ v* F6 G2 P: cDuration                                 : 1 h 33 min
+ C- b4 O7 ~1 I' XBit rate mode                            : Variable( a/ i/ o. i) R& O2 [
Bit rate                                 : 3 625 kb/s
8 c- _* Y5 O' i: AChannel(s)                               : 6 channels/ R5 Y  w0 {9 {1 i* H6 [. s, U2 h
Channel layout                           : C L R Ls Rs LFE
" J6 g  s/ U8 `  [( k3 {Sampling rate                            : 48.0 kHz) T' t# ?, n0 q4 o, v
Frame rate                               : 93.750 FPS (512 SPF)
/ K1 k/ V; V' a& f4 NBit depth                                : 24 bits# u' ?4 t1 T/ D5 u
Compression mode                         : Lossless
3 W) P( E' J- ?( j2 zStream size                              : 2.36 GiB (9%)* N7 r5 r% v7 P! U9 I
Title                                    : Rad.1986.REMASTERED.1080p.BluRaycd.REMUX.AVC.DTS-HD.MA.5.1-FGT
5 Z5 C' H6 X$ p' @Language                                 : English
  O" P1 H+ `) x5 eDefault                                  : Yes9 \0 O0 N: L, }
Forced                                   : No; V/ V- N- M$ _/ V: j" k
Original source medium                   : Blu-ray
( F3 c2 v8 Y  B8 U# C
8 R3 p  i6 ^1 Y" W4 x; h' v- aAudio #2
3 d6 n& W2 C. `# C8 q4 bID                                       : 3" V. y2 E4 ^# F0 I6 X8 l6 R
ID in the original source medium         : 4353 (0x1101)
: F. Y) i0 q, u- D( c1 c+ lFormat                                   : AC-3' I) S7 _0 i7 Y  Z5 Q* y* `
Format/Info                              : Audio Coding 3
+ I; }% j, |) |! \! F! HCommercial name                          : Dolby Digital
6 g% f: o4 f( E; l! e- d; ~Codec ID                                 : A_AC3
4 z. x9 C# ~4 q% I) c9 ]- ~Duration                                 : 1 h 33 min8 b1 E( A' `+ V4 @
Bit rate mode                            : Constant
# j" ?$ L8 G9 w6 h) F1 UBit rate                                 : 448 kb/s; V* |. z8 ]+ @, j8 j1 Q6 m! d
Channel(s)                               : 2 channels/ T9 @( _2 u4 ^; o: S
Channel layout                           : L R
5 }" |9 |5 u5 hSampling rate                            : 48.0 kHz
' o$ q, p7 @+ v- P5 IFrame rate                               : 31.250 FPS (1536 SPF)
9 p7 ~' g1 n( Q3 K( P0 g: A0 TBit depth                                : 16 bits
8 W1 ]! t7 K9 \7 BCompression mode                         : Lossy
  `! N1 Q( B" ~8 d4 }Stream size                              : 298 MiB (1%)
' }( h+ i7 t+ x( Q) U1 G3 ITitle                                    : Rad.1986.REMASTERED.1080p.BluRaycd.REMUX.AVC.DTS-HD.MA.5.1-FGT7 m7 A! T! m4 }- W) ~+ {
Language                                 : English5 W3 K2 }( i1 `
Service kind                             : Complete Main' [# G* m# T8 I7 L3 k0 w: x
Default                                  : No
+ ^1 w* E8 P  u8 n7 |. e* _7 nForced                                   : No+ X. j+ I' `% q
Original source medium                   : Blu-ray) P3 j: N3 m8 v* E7 L; k5 d# z

6 {3 O" l0 a; ]1 y* _" MAudio #3; Q/ v7 f4 U( l# c$ @
ID                                       : 47 {- U; j; e# r
ID in the original source medium         : 4354 (0x1102)
1 N; q1 q5 d7 Y# _  @  ^# MFormat                                   : AC-3
9 `( ]) v) d3 D7 x; B; X( BFormat/Info                              : Audio Coding 3; d+ H8 }& h1 h  Z; }
Commercial name                          : Dolby Digital
+ ~7 Z: k1 f' }7 M  wCodec ID                                 : A_AC3. j, n9 w" v& e; x# v. `
Duration                                 : 1 h 33 min
/ ]; t! S3 d2 XBit rate mode                            : Constant' G+ G, Q" T  m) \( B% J1 ]3 z" [
Bit rate                                 : 96.0 kb/s8 p# u- s% v/ ?( j+ w. U
Channel(s)                               : 1 channel
+ Q$ V6 j' A6 i: c: y0 ^Channel layout                           : C- i. ~/ i/ }, ^% P+ ~4 T* V
Sampling rate                            : 48.0 kHz5 C5 h, O/ p- i" Q2 J) V
Frame rate                               : 31.250 FPS (1536 SPF)
/ ]% e; [  `- sBit depth                                : 16 bits0 u) z- ]+ _" x$ z
Compression mode                         : Lossy
. N" v; o. m; c3 wStream size                              : 63.9 MiB (0%)
6 \& T* M, p1 I- a2 a6 ^Title                                    : Rad.1986.REMASTERED.1080p.BluRaycd.REMUX.AVC.DTS-HD.MA.5.1-FGT* n8 V7 u/ [0 q. j" A/ L
Language                                 : English
6 v" q" b- |' C, Y% T& o" ZService kind                             : Complete Main
/ m# I4 b" o* E0 h0 r% CDefault                                  : No
5 S/ [% p. v* Q' z$ _7 e% UForced                                   : No
0 b- {: {9 `) N6 r+ `Original source medium                   : Blu-ray
( M! T; m: A; b3 Q5 v3 o$ a
4 Y' ?9 R$ t! x! M% {Audio #49 S) U# _6 [. `8 O: F
ID                                       : 5
& Y6 a- Z* W2 n( \7 }ID in the original source medium         : 4355 (0x1103)- @4 g. I/ ]$ o5 |' M$ u
Format                                   : AC-3: J9 V& E0 h  t& {5 U; D$ S1 w
Format/Info                              : Audio Coding 3
0 e1 _+ p& z$ Q  GCommercial name                          : Dolby Digital
( K- ]6 F4 V& q# ]) Y: m% LCodec ID                                 : A_AC3/ R3 q( ~- [7 R7 ?! z* y  ^' D
Duration                                 : 1 h 33 min7 n4 L5 L, h, u2 b4 n0 j8 Y
Bit rate mode                            : Constant% u% p* t! c& {2 @
Bit rate                                 : 96.0 kb/s# r5 S4 S! ~9 ]
Channel(s)                               : 1 channel
$ D) [  {  U/ Q  F1 P! r3 P, ~Channel layout                           : C
. N. l; L; H+ MSampling rate                            : 48.0 kHz
0 t9 `: W" c9 ?. [/ rFrame rate                               : 31.250 FPS (1536 SPF)" Y! d: C" N3 P) v+ H' E$ k% B5 p5 a
Bit depth                                : 16 bits
: q8 V/ a/ W) tCompression mode                         : Lossy
( |; l/ P8 r# w. |Stream size                              : 63.9 MiB (0%)0 o4 c8 Q7 S# }2 z8 }3 o& u& t& t
Title                                    : Rad.1986.REMASTERED.1080p.BluRaycd.REMUX.AVC.DTS-HD.MA.5.1-FGT
: O9 I4 L; m" \  a( FLanguage                                 : English
) N( ?' b) v& s) iService kind                             : Complete Main
8 f7 k) m% Z" ~/ {6 LDefault                                  : No+ Y0 Z* ]- v0 f3 V! U6 l
Forced                                   : No* b- v, g& X4 l1 s+ A
Original source medium                   : Blu-ray* H( Q! B' C4 c' o: U0 c# {

' G* x* {9 m/ Z' cAudio #5
$ g5 A  a& X" _  D" P4 UID                                       : 6& ?& G8 O- W- M& N2 h5 g" H
ID in the original source medium         : 4356 (0x1104)3 ^3 ~, f- `, E8 s% w
Format                                   : AC-3
4 o7 |& Z- Y' ]: iFormat/Info                              : Audio Coding 3* b9 A8 H0 \; L( m
Commercial name                          : Dolby Digital+ Q% \1 {2 h# c' l2 t: [
Codec ID                                 : A_AC3
' y7 Y( {1 M- o4 O- v" O) HDuration                                 : 1 h 33 min2 C$ g: n* b4 \, }2 z
Bit rate mode                            : Constant
3 K" S0 k* s9 _- nBit rate                                 : 96.0 kb/s1 J# T% a0 p9 Z6 u# q6 b# V  M+ R/ D
Channel(s)                               : 1 channel% t2 E( H4 K, ~' V* `
Channel layout                           : C
/ b- o- Y: B7 O8 b1 K: JSampling rate                            : 48.0 kHz
- ]1 N1 m! {; ~& h! {" hFrame rate                               : 31.250 FPS (1536 SPF)' c3 k* \/ j2 W+ Y4 X
Bit depth                                : 16 bits  e0 m1 z- a' _
Compression mode                         : Lossy
" B7 N" ~- `; z8 P( f6 j  SStream size                              : 63.9 MiB (0%)
( U4 M! z/ Y% e6 B% i2 l. ATitle                                    : Rad.1986.REMASTERED.1080p.BluRaycd.REMUX.AVC.DTS-HD.MA.5.1-FGT
" H7 |$ A  v1 a( i# J8 XLanguage                                 : English
+ ?# b3 L0 C* O2 g2 cService kind                             : Complete Main
& ^* e: `; o$ J( a7 lDefault                                  : No9 S5 F, U  b0 @3 V# x, L  K; O
Forced                                   : No3 I# {" b8 Y9 _/ [* b& c) h9 H( @: ~
Original source medium                   : Blu-ray
* z* _8 ~. s5 ?0 ]/ n4 M- {& }
Text #1
3 {4 p+ u: q& {ID                                       : 7( B6 J. J0 ?8 |, |- o, P# c
Format                                   : UTF-8
$ o% N6 V( e/ |! ~" A6 \  P+ _Codec ID                                 : S_TEXT/UTF8
" _3 f4 \8 P% j0 A- k7 \Codec ID/Info                            : UTF-8 Plain Text+ \' ]0 a* L2 h
Duration                                 : 1 h 29 min
! I5 }2 V! A) ~$ D7 q. Z0 ^6 TBit rate                                 : 63 b/s
+ [* g7 T. d& |Count of elements                        : 1409
7 S& N; [# S; D- |/ R0 y0 EStream size                              : 41.8 KiB (0%)
5 M# @0 w$ V8 n$ a! ETitle                                    : English-SRT4 y3 ?7 x% |$ s" s3 Q
Language                                 : English" |! W0 B4 w2 ^& X9 G# H' e( R+ b+ o
Default                                  : Yes& z: K+ e; f9 U# p
Forced                                   : No) ^$ Q/ H) [9 R  }( _; s

# n4 }0 ^! ~' U/ o. |8 F$ y" x2 `Text #2
/ ]2 C1 E" ^: R& u# {ID                                       : 8
7 }$ ?$ H: F- iID in the original source medium         : 4608 (0x1200)
  y/ m0 ^  ^* NFormat                                   : PGS# r9 T) `! Q0 C) }0 G5 f# }
Muxing mode                              : zlib$ b- c5 P$ M. R. A. m  k" ^
Codec ID                                 : S_HDMV/PGS" b$ O- o5 S* k* M5 O% w' s! Q
Codec ID/Info                            : Picture based subtitle format used on BDs/HD-DVDs
- o0 O7 E1 Z2 y2 R$ Y; ZDuration                                 : 1 h 31 min9 @" I0 t' ?8 t+ t
Bit rate                                 : 29.2 kb/s
' ?5 Z4 P9 E# f, nCount of elements                        : 30774 q( s& V" Q& ^- s: P
Stream size                              : 19.1 MiB (0%)* M6 `9 e6 ?+ w7 ?) z  |  k
Title                                    : English-PGS0 _6 N' ^2 ?5 w* q$ K
Language                                 : English1 E: Y9 p) m. x4 O: v* x
Default                                  : No
/ G; w: k5 k8 ^2 T6 U* j$ ~, v) dForced                                   : No/ M; d( i7 I8 x3 z5 z  B
Original source medium                   : Blu-ray
; Y+ g1 s- z% [4 W
. M' Q$ [  x/ y  Q% |Menu; ^- E0 r3 U0 u) Y7 K2 S/ q
00:00:00.000                             : en:Chapter 01
  t$ o, A! C, y6 O00:20:17.299                             : en:Chapter 027 [* s( d/ f2 C+ M; A
00:40:25.798                             : en:Chapter 03( U# E- F# ?5 }: T' E. C0 |! H
00:58:07.650                             : en:Chapter 04
8 [; w6 ~; y  a$ c01:13:40.082                             : en:Chapter 05
! ~0 n* v$ k" H
游客,查看本帖隐藏内容请回复 | 加入VIP贵宾组可免积分免回复下载 了解详情 | 还不是会员:点击获取邀请码 Invitation Code

64

主题

1486

帖子

5413

积分

Sponsor

金币
292 枚
体力
2056 点
lanpanshuma 发表于 2020-9-17 18:19:07 | 显示全部楼层
楼主发贴辛苦了,I*老*虎*U!% s4 C+ S, s! K
祝愿蓝光社区越办越好!I wish Blu-ray communities better and better!
2 M& M. o( H5 M1 t, e
该会员没有 ...

0

主题

186

帖子

993

积分

Sponsor

金币
152 枚
体力
482 点
2475017 发表于 2020-9-17 22:48:31 | 显示全部楼层
多謝師兄分享) u1 O/ M( [( x8 b2 V0 h
该会员没有 ...

本版积分规则

小黑屋|Archiver|蓝光电影资源网

GMT+8, 2020-10-23 02:20

快速回复 返回顶部 返回列表