BluRayCD Forum

 找回密码
 立即注册【分享大片】

QQ登录

只需一步,快速开始

查看: 10|回复: 0
收起左侧

[剧情悬疑] 西思科·派克/浪子回头金不换 Cisco Pike 1971 1080p BluRaycd x264-SPOOKS 14.01GB

[复制链接]

3897

主题

4271

帖子

3万

积分

Post Share

金币
7316 枚
体力
6584 点

卓越贡献勋章

mvods 发表于 2020-9-12 10:07:24 | 显示全部楼层 |阅读模式
% A/ U* D. J" v3 ^8 N3 ]

! t% l% L7 A7 U+ K* L# X5 F, B5 K- W9 Q◎译  名 西思科·派克/浪子回头金不换& R. T+ a. ]- G4 f4 d, M
◎片  名 Cisco Pike
' W7 }* D3 Q- ^4 p◎年  代 1971
. c7 n$ }0 ]) q( T5 i0 ^/ J2 w◎产  地 美国
/ W+ G  @( |( d$ t◎类  别 剧情. n$ r6 ^) [  ]
◎语  言 英语9 N: I- N) v" k  s! m/ r$ m
◎上映日期 1971-11-02(美国)
1 ~  X6 {" w  @% Z" I◎IMDb评分  6.5/10 from 1,240 users
4 t; ?, ]% Y! I# O6 p◎IMDb链接  https://www.imdb.com/title/tt0068384/
# k9 P0 C: J; g  R! G- S' G& P1 t◎豆瓣评分 0/10 from 0 users
' B6 i! I- M. ~+ t3 W! `+ c: j# Z, C◎豆瓣链接 https://movie.douban.com/subject/5055371/
- D9 c4 a2 p  k' o0 {/ b9 P; K◎片  长 1 h 34 min1 t& m% {3 V" i' h1 b
◎导  演 比尔·诺顿 Bill Norton
% j$ J; z& `8 T' F) L. s◎编  剧 比尔·诺顿 Bill Norton3 n' \4 U& F' a8 z+ @/ L
◎主  演 克里斯·克里斯托佛森 Kris Kristofferson' N/ h* J. ~8 D4 F/ A/ d" I1 D  `
       凯伦·布莱克 Karen Black
! c5 l# W" E. i/ o8 A2 L! X       吉恩·哈克曼 Gene Hackman5 o) ]* D6 p- ?) g  ]
       维娃 Viva
! l$ {, Y0 j( k3 _       哈利·戴恩·斯坦通 Harry Dean Stanton- _$ w, h. s0 X; b
       乔伊·邦 Joy Bang5 ^' F& M# N) B
       罗斯科·李·布朗尼 Roscoe Lee Browne0 X' d4 |4 d/ j. k; j5 g
       赛文·达尔登 Severn Darden
  s5 N4 Q  \4 u3 r3 t0 H- {! L       安东尼奥·法加斯 Antonio Fargas+ i$ C+ o% k) n9 p  I
       霍华德·海瑟曼 Howard Hesseman1 r  Q( V0 R  J

5 |2 v2 R/ H7 M" O* E+ z; D7 H' K◎标  签 美国 | 美国电影 | 吉恩·哈克曼 | Kris_Kristofferson1 Z2 D  X! ^2 W: k0 x1 q5 {

4 j0 Z( J6 A# i- f2 M. p3 e- R" E◎简  介  ' E' t" t" K8 b2 V" o

( N- @: g; N! A, t- \; }' s, G8 I  倒霉的前毒贩被一名腐败的洛杉矶警察局警察强迫在一个周末出售100公斤没收的大麻。
, m0 q4 q: B& C$ M( A  j/ N& u) Y( h' q
  A down on his luck former drug dealer is forced by a corrupt LAPD policeman to sell 100 kilos of confiscated marijuana in one weekend.
- D8 H0 f* O# r" m
Video
$ Z! B3 [. ?+ W: B1 c* vID                                       : 18 g0 q  v4 j8 g
Format                                   : AVC
9 f6 L  s+ M/ V& IFormat/Info                              : Advanced Video Codec. F" B% N) a7 r5 }
Format profile                           : High@L4.1
! e9 c) f$ L% a6 aFormat settings                          : CABAC / 4 Ref Frames) i4 k" R/ ~0 z. {
Format settings, CABAC                   : Yes+ t$ C2 \; s- v+ B# B
Format settings, Reference frames        : 4 frames% P1 x) ^2 [9 T8 u
Codec ID                                 : V_MPEG4/ISO/AVC' j  i/ P6 j& [0 P
Duration                                 : 1 h 34 min8 e* I' F; m  F
Bit rate                                 : 20.5 Mb/s
! v* d% s* Q% m4 B$ n* x7 h* ~' \2 [Width                                    : 1 918 pixels
' t$ N4 e1 s* iHeight                                   : 1 040 pixels' M/ Z2 `% N# J* Z: q
Display aspect ratio                     : 1.85:1
/ m- o5 V+ r& g$ IFrame rate mode                          : Constant! z, u* Z9 o5 Q9 S% M: U; ^4 F
Frame rate                               : 23.976 (24000/1001/37687) FPS) i; a* B+ ?$ q( e7 L: b. a/ t2 o
Color space                              : YUV
  Y1 d8 J  ~9 O* t# e- aChroma subsampling                       : 4:2:0
1 D' ~$ M: }9 v1 `5 PBit depth                                : 8 bits9 t6 j" \) q( c
Scan type                                : Progressive
" U! S/ _, f3 |* \# C( uBits/(Pixel*Frame)                       : 0.4299 x9 k. a% k4 Y% s" Z5 p. v
Stream size                              : 13.5 GiB (97%)
7 E' T" Q: Y$ \* a. b! S; TWriting library                          : x264 core 160 r3000 33f9e14
$ @! z# \2 }! p1 e2 oEncoding settings                        : cabac=1 / ref=4 / deblock=1:-3:-3 / analyse=0x3:0x133 / me=umh / subme=10 / psy=1 / psy_rd=1.50:0.15 / mixed_ref=1 / me_range=24 / chroma_me=1 / trellis=2 / 8x8dct=1 / cqm=0 / deadzone=21,11 / fast_pskip=0 / chroma_qp_offset=-3 / threads=24 / lookahead_threads=4 / sliced_threads=0 / nr=0 / decimate=0 / interlaced=0 / bluray_compat=0 / constrained_intra=0 / bframes=8 / b_pyramid=2 / b_adapt=2 / b_bias=0 / direct=3 / weightb=1 / open_gop=0 / weightp=2 / keyint=250 / keyint_min=23 / scenecut=40 / intra_refresh=0 / rc=crf / mbtree=0 / crf=19.0 / qcomp=0.60 / qpmin=0 / qpmax=69 / qpstep=4 / ip_ratio=1.40 / pb_ratio=1.30 / aq=3:0.50
6 k' P, s4 T: \2 V1 Y) qDefault                                  : Yes# N$ A& B5 g4 W( \3 \
Forced                                   : No
4 a3 Z) d" C, Y2 a9 |0 T# f0 n& [' H! `Color range                              : Limited' {8 H9 M, r6 O7 [* v
Matrix coefficients                      : BT.709
' e! L8 Q/ ~" [Audio #1
& \2 R6 f3 c8 c8 l& mID                                       : 2
9 @) b2 v* k# k9 v6 U4 _; k; WFormat                                   : FLAC! Q. o  F% |# u* g! \, q/ p
Format/Info                              : Free Lossless Audio Codec3 }. @& O8 Y) @( u5 ]2 z, P! Y* H
Codec ID                                 : A_FLAC
& D/ v6 F! t1 \1 TDuration                                 : 1 h 34 min
' `# o. s+ ^! _( Y3 [# N& WBit rate mode                            : Variable5 C, M. Z( [- ^- c, d5 P$ s' ?3 l! W; R  |
Bit rate                                 : 623 kb/s; K* \3 M  z* G* c; q# W/ b
Channel(s)                               : 1 channel6 [1 \% ?( S5 @; @( q8 t
Channel layout                           : C
& {: N2 i5 A. X" N6 R6 fSampling rate                            : 48.0 kHz6 Y) V1 X0 H& M  _) O& G
Frame rate                               : 11.719 FPS (4096 SPF)
+ g) P. A8 N* R* k) Q( ?$ VBit depth                                : 24 bits  @$ ?/ C4 m0 r& V4 n
Compression mode                         : Lossless
! b+ D) y- H# t  H+ x2 XStream size                              : 421 MiB (3%)' u% S2 p& _8 n: M- P% @" I5 c) S
Writing library                          : libFLAC 1.3.2 (UTC 2017-01-01)7 T6 g0 N" _2 w7 t3 X
Language                                 : English
# W4 _7 ]4 z" k( oDefault                                  : Yes
) j) M% i1 P* K# ]# N& |Forced                                   : No8 {9 q2 H+ E, L' g- c, p$ r: W
Audio #25 Q; c; z2 H' p1 M
ID                                       : 3
) d# `; r% l* k' {) n1 ^Format                                   : AAC LC
& J, M( T% b% _# NFormat/Info                              : Advanced Audio Codec Low Complexity; S. C0 O. j! i
Codec ID                                 : A_AAC-2
0 T% e" J; J8 \1 u. X4 c" t( KDuration                                 : 1 h 34 min
! `0 U5 ^0 n6 _& ]4 I: n6 k+ HBit rate                                 : 89.1 kb/s
. K, q* J7 y- M% }: |Channel(s)                               : 2 channels  |- @! H' F! ?" U* j) L2 [( g
Channel layout                           : L R* l0 y; K$ T& u1 V
Sampling rate                            : 48.0 kHz) ~) m7 \" W8 _8 g0 K
Frame rate                               : 46.875 FPS (1024 SPF)
- }6 w6 T: f8 O' i( n: ]9 fCompression mode                         : Lossy  v) H& c% V& Q, k% g! a  v8 T
Delay relative to video                  : 20 ms4 G* x0 o. J: E3 Y
Stream size                              : 60.2 MiB (0%)
0 H/ N+ r' Q0 q% x6 C3 D; K" l3 b0 x5 PTitle                                    : Commentary) \) Z( t9 b3 q, j6 S6 w6 _4 x# Y' a
Language                                 : English: j% Q4 ?$ K+ |' l
Default                                  : No- @5 n1 R7 m! U) Q) x6 V6 C7 a
Forced                                   : No" v: u% @5 v0 E% ~4 v- m) C) A+ k
Text, }$ Q; j( g$ N
ID                                       : 4' a! a0 M; {- [
Format                                   : PGS
4 q9 Y' q1 V' t, D9 QMuxing mode                              : zlib9 S- ]# e1 O8 M# r0 |! `. g
Codec ID                                 : S_HDMV/PGS
0 T$ }! t; T+ z; b3 r" RCodec ID/Info                            : Picture based subtitle format used on BDs/HD-DVDs4 l! c) s) B& \0 a  P
Duration                                 : 1 h 34 min4 k+ t$ m' N* b* d7 J/ N
Bit rate                                 : 37.7 kb/s' ~  y" Z4 B# u2 T1 f
Count of elements                        : 2530
5 Z4 x+ }: b. p. ]2 V% RStream size                              : 25.4 MiB (0%)& Q3 N# w2 |1 m
Language                                 : English8 a/ @2 r1 W- ^2 z# c( F+ a" O
Default                                  : No2 n+ r6 `5 c' e- e# k: O+ P, W
Forced                                   : No# L" M5 {! i: P) B2 ~' S2 S8 ^
Menu
- t4 B/ U, J/ h& D% F+ M8 ]+ L00:00:00.000                             : en:Chapter 01# o$ E4 ~) c' x. R0 s
00:08:57.412                             : en:Chapter 02
7 x- x7 |, }9 C# j  d( w7 K% s00:18:19.432                             : en:Chapter 038 K3 z; \8 s* I
00:29:05.661                             : en:Chapter 04+ R5 w+ k9 a: q
00:39:49.971                             : en:Chapter 059 s- |7 l, r% U( X( v
00:51:35.509                             : en:Chapter 06
/ }8 c( t0 ]6 q01:03:45.488                             : en:Chapter 07; a$ o2 W. s: Z
01:10:40.445                             : en:Chapter 082 n) _, A  T0 P# n5 K6 x! Q9 p4 z
01:18:02.595                             : en:Chapter 091 t' J/ S5 X5 G/ a4 o
01:23:18.243                             : en:Chapter 105 Z. K, ]% S' Y$ z
0 V+ ~( N6 v3 D! a/ w1 V; T
Cisco.Pike.1971.1080p.BluRayCD.x264-SPOOKS
$ Z* N3 ]5 r. F: ~9 o
3 K" q) j$ @% v; H/ S) @IMDB...........: https://www.imdb.com/title/tt0068384% e; o; r( G; z# c$ ?# w, ]1 Z
- J' _" M1 H  v8 f) X* D
Duration.......: 1 h 34 min
# f. L: h$ B- g& H# @. vVideo..........: x264 @ CRF 19 (20524 Kbps)
7 M; s$ ?: S* QSource.........: 35001 Kbps
: q7 b. L/ v' E3 ?! `" A& AFrame Rate.....: 23.976 fps
) Q' v8 r2 t2 g( n9 ?0 z/ BResolution.....: 1918x1040
2 {6 |& c7 o" gAudio..........: English 1ch FLAC @ 623 Kbps
( c, I9 f; W* f9 gSubtitles......: English# a- R9 A% b. f
Size...........: 14 GB
2 N/ z* h3 P/ t8 p' f( S' _
游客,查看本帖隐藏内容请回复 | 加入VIP贵宾组可免积分免回复下载 了解详情 | 还不是会员:点击获取邀请码 Invitation Code

本版积分规则

小黑屋|Archiver|蓝光电影资源网

GMT+8, 2020-10-29 03:58

快速回复 返回顶部 返回列表