BluRayCD Forum

 找回密码
 立即注册【分享大片】

QQ登录

只需一步,快速开始

查看: 9|回复: 0
收起左侧

[剧情悬疑] 西思科·派克/浪子回头金不换 Cisco Pike 1971 720p BluRaycd x264-SPOOKS 7.14GB

[复制链接]

3885

主题

4259

帖子

3万

积分

Post Share

金币
7277 枚
体力
6557 点

卓越贡献勋章

mvods 发表于 2020-9-12 10:12:09 | 显示全部楼层 |阅读模式

/ A: P. H4 f, e- q* ]3 {$ ?- ?. I, L5 e
◎译  名 西思科·派克/浪子回头金不换! D* I+ m* \" B6 J( M, R
◎片  名 Cisco Pike
  e$ N. C' Q3 K# g, C$ R5 x◎年  代 1971
) d4 C: E- k! J0 B/ J* M◎产  地 美国
8 x4 a9 N3 C- I% g◎类  别 剧情
: K. y& Q' r$ N$ o& M◎语  言 英语% y& Q1 U5 C/ R; M
◎上映日期 1971-11-02(美国)
: b$ g2 n) b4 y) h" ^" _# H◎IMDb评分  6.5/10 from 1,240 users
0 E5 e! i  e: V. x: @! |( {' R- }2 C◎IMDb链接  https://www.imdb.com/title/tt0068384/# C$ j% v! _+ e- P+ ^$ F5 X
◎豆瓣评分 0/10 from 0 users0 W# [& ^0 A, F8 ?
◎豆瓣链接 https://movie.douban.com/subject/5055371/
* E2 D. D. j2 d/ X" `& d$ ~; `( y5 d◎片  长 1 h 34 min# _) Z: j$ f7 o6 ^  l
◎导  演 比尔·诺顿 Bill Norton. W$ e. \  u' \# H: |4 ~$ O
◎编  剧 比尔·诺顿 Bill Norton/ k: x/ X  u6 I  m+ b
◎主  演 克里斯·克里斯托佛森 Kris Kristofferson
" [: p9 Q$ u5 X: t* A, D/ L4 v       凯伦·布莱克 Karen Black
+ h1 P3 S( p# z7 j2 w       吉恩·哈克曼 Gene Hackman
3 L' D& x" }3 S3 U! }* D$ T       维娃 Viva6 {& P6 y# t6 ^+ i
       哈利·戴恩·斯坦通 Harry Dean Stanton
+ ^- n2 W( t" \9 u- T9 I       乔伊·邦 Joy Bang
! F7 @7 H$ W3 g       罗斯科·李·布朗尼 Roscoe Lee Browne' e/ T3 R7 p7 F7 X/ w- v* R9 d( ^
       赛文·达尔登 Severn Darden
, r- x- S; {. ]  Z. Q( X       安东尼奥·法加斯 Antonio Fargas/ K7 i4 ~; p% E8 h& E) y
       霍华德·海瑟曼 Howard Hesseman
7 k. X: U9 r1 H# q2 k- b
/ J$ U" l% n  `8 e; r: o. d◎标  签 美国 | 美国电影 | 吉恩·哈克曼 | Kris_Kristofferson
% b3 [7 `3 P4 {3 q9 }
6 |3 ]( A' S( W◎简  介  / q- s$ P& R  s6 s
, \8 w1 `7 ~* ?3 Q4 w
  倒霉的前毒贩被一名腐败的洛杉矶警察局警察强迫在一个周末出售100公斤没收的大麻。
) w( @% R) X' u" I1 a7 p
Video- D$ Q$ u3 o5 s, a1 f6 s
ID                                       : 1
' _7 f  c7 Q" r. XFormat                                   : AVC
9 a$ n0 s$ D1 G3 R1 I! m9 Y, I# DFormat/Info                              : Advanced Video Codec
- |$ n/ F! ^1 `$ pFormat profile                           : High@L4.19 i2 u& L6 H0 v6 N0 i/ g. ~
Format settings                          : CABAC / 9 Ref Frames
  y6 M7 G) Q7 }3 P* aFormat settings, CABAC                   : Yes( M1 ?% \; ^3 U& B. U
Format settings, Reference frames        : 9 frames
* s& Y) A' @% L" P  d. V# d5 aCodec ID                                 : V_MPEG4/ISO/AVC/ k! a% {/ j+ t1 Z; H& J- R$ k
Duration                                 : 1 h 34 min6 ~+ q  D2 i# Z. R: y" ]
Bit rate                                 : 10.1 Mb/s
; j/ W% Z/ F" @" O& LWidth                                    : 1 280 pixels
  P' Q& a3 G- u# kHeight                                   : 694 pixels
& |% `1 r' _  z$ ADisplay aspect ratio                     : 1.85:1, z( i' n* j" D8 t0 z7 }2 ~5 }
Frame rate mode                          : Constant
/ V* S$ e1 b( h8 L/ _$ _( S4 w8 wFrame rate                               : 23.976 (24000/1001/37687) FPS# o2 H- e; z) E7 F: H# |
Color space                              : YUV
- g' k& ?+ L/ s# BChroma subsampling                       : 4:2:0* o0 m6 K8 L8 G! }( c0 \: T
Bit depth                                : 8 bits" ~$ N$ h! ]3 l
Scan type                                : Progressive/ O' n& d' O7 h3 o$ E* K0 E
Bits/(Pixel*Frame)                       : 0.4743 y( D  z& e" e( ]; D
Stream size                              : 6.66 GiB (93%)  M$ v. s1 n0 r4 ^
Writing library                          : x264 core 160 r3000 33f9e14
+ a( k: D4 S/ q1 o' ~6 c) e$ \, zEncoding settings                        : cabac=1 / ref=9 / deblock=1:-3:-3 / analyse=0x3:0x133 / me=umh / subme=10 / psy=1 / psy_rd=1.50:0.15 / mixed_ref=1 / me_range=24 / chroma_me=1 / trellis=2 / 8x8dct=1 / cqm=0 / deadzone=21,11 / fast_pskip=0 / chroma_qp_offset=-3 / threads=22 / lookahead_threads=3 / sliced_threads=0 / nr=0 / decimate=0 / interlaced=0 / bluray_compat=0 / constrained_intra=0 / bframes=8 / b_pyramid=2 / b_adapt=2 / b_bias=0 / direct=3 / weightb=1 / open_gop=0 / weightp=2 / keyint=250 / keyint_min=23 / scenecut=40 / intra_refresh=0 / rc=crf / mbtree=0 / crf=18.6 / qcomp=0.60 / qpmin=0 / qpmax=69 / qpstep=4 / ip_ratio=1.40 / pb_ratio=1.30 / aq=3:0.50' U; Z' q: C$ C9 \. b% k
Default                                  : Yes4 w& d% B5 C$ Y5 p6 B
Forced                                   : No
) Y* k6 {0 S/ P, iColor range                              : Limited
+ t3 u) @4 a  p% LMatrix coefficients                      : BT.7099 K: m% `+ Y- P* p9 F
Audio #14 o- z. E, {; F: a1 h
ID                                       : 2
3 J7 D1 w0 K$ `- _8 d3 pFormat                                   : FLAC' d$ ]' a3 c$ O" P
Format/Info                              : Free Lossless Audio Codec; X  l5 L- G8 T! W% B  I: ~
Codec ID                                 : A_FLAC" M1 ]. a/ C/ Z) O
Duration                                 : 1 h 34 min
$ ?4 M: V% ~1 [8 d) d- e) {+ ~Bit rate mode                            : Variable
$ X" h1 h5 h  m/ q5 i# eBit rate                                 : 623 kb/s
4 `" s: {+ i* FChannel(s)                               : 1 channel; l* Q) v% A6 `+ e; z, n
Channel layout                           : C
5 h7 `( e; O3 f% ]Sampling rate                            : 48.0 kHz/ E: i7 f' ]& U! V2 g& w
Frame rate                               : 11.719 FPS (4096 SPF); u% a; K; R: Q5 ~, z( \6 d
Bit depth                                : 24 bits0 x: m( P. w! m+ n% @3 k
Compression mode                         : Lossless( `1 z" [, a$ t
Stream size                              : 421 MiB (6%)
0 E% }0 |" F7 i/ b1 ^3 sWriting library                          : libFLAC 1.3.2 (UTC 2017-01-01)
! ^/ J2 b6 N* L: S0 a) `* c* HLanguage                                 : English
! Y$ M, ?, |8 H* xDefault                                  : Yes
6 N+ s0 A0 F% p; @' g1 qForced                                   : No
% B: C- u& U/ B& ~3 \Audio #2
& F  r; g& H! z' K- X! jID                                       : 33 l" P0 x- j# d
Format                                   : AAC LC9 \7 j' ?7 r, H7 t/ r) a# K% E
Format/Info                              : Advanced Audio Codec Low Complexity& h- P9 E* @5 a
Codec ID                                 : A_AAC-2
; H3 c& A  Q4 |# ~) nDuration                                 : 1 h 34 min
# q% e1 k6 W: [% F7 `( M4 kBit rate                                 : 89.1 kb/s
' t/ ?3 {* j6 B# x) h. o7 qChannel(s)                               : 2 channels( e3 p  {1 S9 w0 G0 J
Channel layout                           : L R! W- t2 w" |: g/ Y6 B8 ]
Sampling rate                            : 48.0 kHz2 P8 `' s; g% Q$ U
Frame rate                               : 46.875 FPS (1024 SPF)
  p# p! l% t6 y& V) {1 E- M7 {Compression mode                         : Lossy
& N9 p+ M1 L9 s) z1 l) I7 D* p1 [7 ^Delay relative to video                  : 20 ms- d8 ~( j9 W1 r
Stream size                              : 60.2 MiB (1%), ?& k6 C$ [  o, U6 ?3 t" x
Title                                    : Commentary3 ^* q9 ?7 ]7 J5 B( C$ _6 ~
Language                                 : English
; s+ S* a  E4 J; ]; ?' d1 m" ?Default                                  : No
& n* P! c8 {, I, q7 }) T* ZForced                                   : No) |. z7 j; e  v2 Q8 e
Text) O' [1 E5 F3 O8 {5 V4 _. J9 [6 c
ID                                       : 4; K1 ]' i! g  n9 @/ t! ]
Format                                   : PGS6 q2 [$ t! L) \# u; G
Muxing mode                              : zlib% ]; a6 c, g7 O3 T( r* ?* T
Codec ID                                 : S_HDMV/PGS
. j5 @& [  O: n# ?3 n6 ~: BCodec ID/Info                            : Picture based subtitle format used on BDs/HD-DVDs0 V% r& ~; s$ ^9 I# b
Duration                                 : 1 h 34 min/ t( e6 {2 L6 U( s
Bit rate                                 : 37.7 kb/s
/ O! T  F' L0 {* }5 R7 c1 O3 ]Count of elements                        : 2530
, |, E! h$ T: _8 y$ v: Y" M9 LStream size                              : 25.4 MiB (0%)
2 `6 R: ~  f+ |Language                                 : English
+ i% A" j" E* F( j$ `4 J- M8 L9 u5 oDefault                                  : No
8 B. C' d4 B9 XForced                                   : No) n) [, P# Y( z! X9 |
Menu
+ d% @8 b) t: I! I1 {+ @" H' y00:00:00.000                             : en:Chapter 01
) S) c# j! l/ L00:08:57.412                             : en:Chapter 025 Q( }% r0 b0 x$ S
00:18:19.432                             : en:Chapter 030 B3 A0 |; y; M, w: i
00:29:05.661                             : en:Chapter 04. q) y. w/ Z0 R( e+ i* ~1 `) Y% R
00:39:49.971                             : en:Chapter 05/ A6 O" i7 P3 \- v9 I: u: `
00:51:35.509                             : en:Chapter 06- X: w* t& ^( `
01:03:45.488                             : en:Chapter 07
. ^, \9 D. W+ N, G: o6 S5 {7 z01:10:40.445                             : en:Chapter 08+ O) g9 y9 H7 Z' R  V  o) W2 E
01:18:02.595                             : en:Chapter 09' {: S. `/ Z  P2 x! T
01:23:18.243                             : en:Chapter 10
* C4 ?8 x2 N" y1 S3 B5 I
$ V$ m& A+ Z& fCisco.Pike.1971.720p.BluRayCD.x264-SPOOKS  i4 S9 S/ s: t

% `4 M% q, `0 m8 l; e3 ]IMDB...........: https://www.imdb.com/title/tt0068384
% y6 S3 w  ~, |  m9 Y  ]) S' ~
7 O8 C1 [, M  z3 q; Q+ K/ JDuration.......: 1 h 34 min
$ t" f4 S* T* f5 Y9 Q/ wVideo..........: x264 @ CRF 18.6 (10102 Kbps): J( G: Q9 |$ e$ [* T
Source.........: 35001 Kbps8 W" Z) _" w* F7 u6 N
Frame Rate.....: 23.976 fps
4 ^  i5 L, T! ^! q" cResolution.....: 1280x694
) Q1 |- O1 k- F  ?( `/ IAudio..........: English 1ch FLAC @ 623 Kbps
3 O, ]6 Q/ i& D7 L0 v0 rSubtitles......: English
; [( W% l, [5 w/ U1 {( aSize...........: 7.1 GB

" o, ?) U/ G% _! {: F) B
游客,查看本帖隐藏内容请回复 | 加入VIP贵宾组可免积分免回复下载 了解详情 | 还不是会员:点击获取邀请码 Invitation Code

本版积分规则

小黑屋|Archiver|蓝光电影资源网

GMT+8, 2020-10-23 01:14

快速回复 返回顶部 返回列表