BluRayCD Forum

 找回密码
 立即注册【分享大片】

QQ登录

只需一步,快速开始

查看: 12|回复: 1
收起左侧

[蓝光原盘] 西思科·派克 [REMUX无损版] Cisco Pike 1971 1080p BluRaycd REMUX AVC LPCM 1.0-FGT 23.97GB

[复制链接]

4491

主题

4663

帖子

6万

积分

Post Share

金币
8525 枚
体力
16644 点

卓越贡献勋章

A down on his luck former drug dealer is forced by a corrupt LAPD policeman to sell 100 kilos of confiscated marijuana in one weekend.3 ~+ r+ l3 @. e9 Y) j# D
( P) w7 c! P# J9 l; O/ y: M; F: {
/ R9 R0 R, y& I" m+ [
  m2 ~6 r: O/ [2 \" f# A
◎译  名 西思科·派克/浪子回头金不换2 V# \8 ~) ~0 G0 W1 m$ Q+ e
◎片  名 Cisco Pike
' v" o0 T0 |  I7 p/ |◎年  代 1971
% `. r4 _" P; |( x◎产  地 美国( b; @, b4 d) k
◎类  别 剧情* T9 B8 o: [% l- s  C' p9 I6 Y
◎语  言 英语
; `! c& F5 g6 D◎上映日期 1971-11-02(美国)
" h" M, e5 K0 S% ]0 S◎IMDb评分  6.5/10 from 1,243 users
, b5 e) ]1 B# y# e/ b7 l/ L2 X◎IMDb链接  https://www.imdb.com/title/tt0068384/; @% o* v1 N) G/ e) f5 D' b
◎豆瓣评分 0/10 from 0 users- i- y6 y, x5 K% u
◎豆瓣链接 https://movie.douban.com/subject/5055371/
) X- G: y4 \- L- x5 O◎文件格式 x264 + LPCM
4 `5 G  {3 L/ z1 `$ |4 i) [4 O◎视频尺寸 1920 x 1080% |* d9 K7 ^+ J5 L$ @0 s
◎文件大小 1DVD 23.97 GiB. G  k' ?7 k. a+ A: ?
◎片  长 1 h 34 min% l1 f+ M* x9 c& r9 G' N8 y
◎导  演 比尔·诺顿 Bill Norton
+ A: |+ O3 h0 R" H/ f◎编  剧 比尔·诺顿 Bill Norton
; J% c& U7 A4 A/ A+ K◎主  演 克里斯·克里斯托佛森 Kris Kristofferson& `- J6 |  r5 `& ?: u. P
       凯伦·布莱克 Karen Black
2 |! K) C3 n4 d% d  R  H       吉恩·哈克曼 Gene Hackman' j; D  j8 C6 F7 J; ~& K
       维娃 Viva# ~9 ?7 B9 w& C8 l, B
       哈利·戴恩·斯坦通 Harry Dean Stanton
" n; \+ {5 K; [3 M7 R/ G       乔伊·邦 Joy Bang4 I( r3 y$ u/ [1 H' I+ o) b
       罗斯科·李·布朗尼 Roscoe Lee Browne  }: P9 d" R: m. A
       赛文·达尔登 Severn Darden
1 J! h6 F2 l# P       安东尼奥·法加斯 Antonio Fargas
' }# V! }# y$ h, r7 f" O" E       霍华德·海瑟曼 Howard Hesseman
( U/ a) x7 p6 @/ x
2 |" x2 M: g4 B& p& x* k◎标  签 美国 | 美国电影 | 吉恩·哈克曼 | Kris_Kristofferson. x: ^& E* a2 V! f7 T* ]

, C; m1 H$ u$ n5 g4 F◎简  介  ! f# Y7 Z1 ?+ G; P* [
& p  ]6 K1 U" F2 `7 \0 a* l6 Y- J" {
  倒霉的前毒贩被一名腐败的洛杉矶警察局警察强迫在一个周末出售100公斤没收的大麻。
" i0 x1 Z) o* c& J3 W# t* V! Z
$ k/ U0 I2 u& x9 ~9 l! s3 Z  Just released from prison for drug-dealing, Cisco Pike dreams of making a comeback. A once-famous rock singer, he finds his music contacts are more interested in his dope connections than his new songs.0 Y; d2 R8 `- D9 T: [! l

" T6 Q0 Q/ p8 C7 h! H7 B2 x
Video
7 f: @% q3 P, T5 e) JID                                       : 1
& A* ^, b, U; q# `4 zID in the original source medium         : 4113 (0x1011)
. V8 ~0 }9 B6 A8 ?9 i) DFormat                                   : AVC
5 ~9 X& ?  _( nFormat/Info                              : Advanced Video Codec- U+ z" c  q% ?2 g  U
Format profile                           : High@L4.1
6 a; q6 [( Z5 R. ]; MFormat settings                          : CABAC / 3 Ref Frames
9 w8 I9 q1 k* _( k0 A3 qFormat settings, CABAC                   : Yes# v! v3 [/ J( D# S9 L
Format settings, Reference frames        : 3 frames
( ~- ?5 n$ ^6 u: cCodec ID                                 : V_MPEG4/ISO/AVC- a2 I7 x/ x, V. n& Z' _" I* ]2 S- Z
Duration                                 : 1 h 34 min
' a0 _' U) S! {( ^  I2 dBit rate mode                            : Variable+ \8 o) s9 R# l* }5 B3 Z3 x
Bit rate                                 : 35.0 Mb/s, b7 D# Z9 {8 [
Maximum bit rate                         : 38.0 Mb/s/ e; B2 p$ G0 e9 S4 E* k+ Z' c
Width                                    : 1 920 pixels' @  |+ D+ `8 J7 q. q1 T$ A+ ^
Height                                   : 1 080 pixels' [4 I. w7 w; z1 P6 o* |
Display aspect ratio                     : 16:99 S& V- T6 s, a9 L% d# p
Frame rate mode                          : Constant
4 J5 Y# F& W/ P2 }Frame rate                               : 23.976 (24000/1001/37687) FPS( M  T( b" x8 ~: K# v
Color space                              : YUV) l0 w2 c8 B) U# i/ m
Chroma subsampling                       : 4:2:07 q  ?$ H7 F( g4 _2 o
Bit depth                                : 8 bits2 A6 m# L: H& C' j  I) Q  ~
Scan type                                : Progressive
' l" K$ z  G# |' R5 JBits/(Pixel*Frame)                       : 0.704# r  w( g9 S# D, W# b& s
Stream size                              : 23.1 GiB (96%)
9 ]& m9 Q5 d# L) h! s  p' s; vTitle                                    : Cisco.Pike.1971.1080p.BluRayCD.REMUX.AVC.LPCM.1.0-FGT
4 S' ?& E; a- p5 s) BWriting library                          : x264 core 157 r2969 d4099dd
0 D+ Y7 G1 x  ?, Y( @2 `9 VEncoding settings                        : cabac=1 / ref=4 / deblock=0:-1:-1 / analyse=0x3:0x133 / me=umh / subme=10 / psy=1 / psy_rd=1.00:0.15 / mixed_ref=1 / me_range=24 / chroma_me=1 / trellis=2 / 8x8dct=1 / cqm=0 / deadzone=21,11 / fast_pskip=1 / chroma_qp_offset=-3 / threads=34 / lookahead_threads=2 / sliced_threads=0 / slices=4 / nr=0 / decimate=1 / interlaced=0 / bluray_compat=1 / constrained_intra=0 / bframes=3 / b_pyramid=1 / b_adapt=2 / b_bias=0 / direct=3 / weightb=1 / open_gop=1 / weightp=1 / keyint=24 / keyint_min=1 / scenecut=40 / intra_refresh=0 / rc_lookahead=24 / rc=abr / mbtree=0 / bitrate=35000 / ratetol=1.0 / qcomp=0.60 / qpmin=0 / qpmax=69 / qpstep=4 / vbv_maxrate=38000 / vbv_bufsize=30000 / nal_hrd=vbr / filler=0 / ip_ratio=1.40 / pb_ratio=1.30 / aq=1:0.40- K! ]4 v9 b5 |$ o3 n6 ?
Language                                 : English% S! n! C" K. d7 v
Default                                  : No
. l) i- W; n( g. [/ X) ^Forced                                   : No
1 t/ L! Q5 n# I  SColor range                              : Limited# [" O6 j( [: y2 j3 X% \
Color primaries                          : BT.709
  [, ~- U$ N0 I  v7 X4 L3 }9 L( XTransfer characteristics                 : BT.709+ I9 C& w& H' p4 D; H) G& X# O, ]2 l
Matrix coefficients                      : BT.709
: m/ C& F7 L. z1 {Original source medium                   : Blu-ray
& `- \( _- |" a3 Z( P$ ]# L' C8 R! U& W2 I
Audio #1
) n4 X9 A, d8 Z! N- ^) U5 gID                                       : 2
3 t" \  I2 n0 r% X" Z5 a# WID in the original source medium         : 4352 (0x1100)  B# I. b* r) x
Format                                   : PCM
: O* g! k! L( h* rFormat settings                          : Little / Signed
* i6 s( L+ F9 Z" {% s/ B5 DCodec ID                                 : A_PCM/INT/LIT. Z  A& {" z/ o1 p' W/ o
Duration                                 : 1 h 34 min
' w& Q# A' j) l5 h6 PBit rate mode                            : Constant3 o: a4 t1 O( _
Bit rate                                 : 1 152 kb/s$ J+ m9 v$ N, |3 f
Sampling rate                            : 48.0 kHz( D& C( j- j- w/ V
Frame rate                               : 30.000 FPS (1600 SPF)
$ D% c! B/ q$ f# |. L" O% mBit depth                                : 24 bits
0 ]/ \0 k" ]! e, s5 m1 HStream size                              : 778 MiB (3%)7 [* _. _! I$ p) W- d8 p
Title                                    : Cisco.Pike.1971.1080p.BluRaycd.REMUX.AVC.LPCM.1.0-FGT% L5 u7 M  R$ P9 M6 `
Language                                 : English! g, ?( y! k2 v' _5 ]
Default                                  : Yes
& Z+ W0 F, c3 x8 _% KForced                                   : No
! O- Y- A% R% n2 J1 NOriginal source medium                   : Blu-ray
: z, q) r1 }+ o* ]8 o/ W0 y
) ~2 ^, @5 [: Y% e& N. e" oAudio #2+ z' ]+ P# C) j  s0 K' x
ID                                       : 3$ N5 U/ n; l# m$ [, i
ID in the original source medium         : 4353 (0x1101)1 a2 e4 ~+ P& s3 T, K1 i
Format                                   : AC-3
( G7 Q% s! x$ x8 f) ]5 `# DFormat/Info                              : Audio Coding 3! [2 U- L) T. P! U$ E5 c
Commercial name                          : Dolby Digital" u7 i& O- T" [* H
Codec ID                                 : A_AC3
9 C* K  o: p( ~8 c4 P7 x4 {/ RDuration                                 : 1 h 34 min. T, w5 L+ t2 _% Q
Bit rate mode                            : Constant
7 H1 Q- \2 n2 i$ z3 ?# hBit rate                                 : 192 kb/s
' T$ G4 u/ Q1 ^! \Channel(s)                               : 2 channels
# r+ F6 t2 W9 _5 Z$ m8 |8 P1 R3 VChannel layout                           : L R
. Q6 a: c' {; A3 y% \" uSampling rate                            : 48.0 kHz
; D' i0 d- Z& R4 a- [+ QFrame rate                               : 31.250 FPS (1536 SPF)) l2 G& b$ {! i* K
Bit depth                                : 16 bits! @+ C, Z& x6 {9 n6 w
Compression mode                         : Lossy- T5 o; n% N% A3 \: F$ I1 p8 c  }
Stream size                              : 130 MiB (1%)" K# y; h- A2 N# {2 Y/ w
Title                                    : Cisco.Pike.1971.1080p.BluRaycd.REMUX.AVC.LPCM.1.0-FGT( p% t# t0 I+ c1 b% \8 }+ m
Language                                 : English( }; |; ]+ q3 ?0 i8 w6 |) y
Service kind                             : Complete Main9 q" I) U9 M! b' `! a1 U9 F4 Y
Default                                  : No8 v5 o+ [# M. e* Z0 ~
Forced                                   : No9 b* ~: O5 A% J5 {, W4 n0 |0 N
Original source medium                   : Blu-ray5 S2 T* A  X' g1 {* e
8 O4 M- A8 T, j& l
Text #1
) O7 u, j+ E) f1 E5 |& I4 Z( DID                                       : 41 Z( }' Z6 I" t4 ?+ l# D# w) C
Format                                   : UTF-8" L; n) ?1 c, `( L, K
Codec ID                                 : S_TEXT/UTF8$ y$ N/ s9 O* o
Codec ID/Info                            : UTF-8 Plain Text
0 E5 Z1 Y7 {- Z% }Duration                                 : 1 h 29 min. l3 K+ Q3 g* C+ s
Bit rate                                 : 49 b/s2 N2 O  y( j2 f, c: s
Count of elements                        : 9871 n4 U! |% r9 B/ A# n% T
Stream size                              : 32.2 KiB (0%)
' s9 L, M3 {6 `. M( i% s; m- GTitle                                    : English-SRT7 m; E& f9 K  f0 T
Language                                 : English1 o" z$ Q. x+ K- L" s' V
Default                                  : Yes, l9 w1 d8 Y8 x
Forced                                   : No3 S% A6 B/ l4 |4 Y9 f" R
# d# d9 m: J2 a! ^- f
Text #2
( x+ z" ^0 _2 A4 B& x4 {% w$ h' yID                                       : 5
  j% Y% q) l; {8 B1 I# KID in the original source medium         : 4608 (0x1200)
& h: |) Y" w# K- YFormat                                   : PGS. |5 P5 M5 @  {* Q$ u" s! N
Muxing mode                              : zlib
- f3 c' b6 }6 I" ACodec ID                                 : S_HDMV/PGS2 a0 G1 F* [# u! M/ @. K2 G+ [
Codec ID/Info                            : Picture based subtitle format used on BDs/HD-DVDs
, o" x. X4 T, ?3 B8 ADuration                                 : 1 h 34 min0 z2 H- c! \( ^5 {6 _
Bit rate                                 : 37.7 kb/s) o9 b+ N! p) L' I
Count of elements                        : 2530/ Q4 R. O* C4 B2 v2 G
Stream size                              : 25.4 MiB (0%)8 g3 q: z3 W. Y- P
Title                                    : English-PGS* A; [! m: }" Y. u2 B& \
Language                                 : English& `! J& @3 Z; V' {5 x* T
Default                                  : No6 n, V, ^  l2 C0 p3 @) h0 S; j
Forced                                   : No
  _3 L; J8 i4 B: A2 U/ ~, J4 COriginal source medium                   : Blu-ray% k! u7 T1 K$ `9 I+ B* e
; D) v+ R7 A5 x& ~  j6 _
Menu' Y1 Q4 {: o3 v/ w7 D
00:00:00.000                             : en:Chapter 01% |, Q4 b9 F# S* y
00:08:57.411                             : en:Chapter 02
, G) \- Q' j9 l2 x2 C00:18:19.431                             : en:Chapter 031 Q9 E- c  e: x$ m+ D  v
00:29:05.660                             : en:Chapter 04
- I6 \5 ?; ~9 |$ D00:39:49.970                             : en:Chapter 05
8 s* s$ j6 ~# I* ?) e" _# L* U00:51:35.509                             : en:Chapter 06( E  C( I" D7 `+ Y
01:03:45.488                             : en:Chapter 07
& r5 H! O% y; z( z. C" O5 c8 t01:10:40.444                             : en:Chapter 087 A. c& b% Z/ Y" X$ \, [
01:18:02.594                             : en:Chapter 09. o3 j- L6 v# e, ^2 |
01:23:18.243                             : en:Chapter 10
Cisco Pike Blu-ray, Video Quality   
% F& |6 i2 v5 n5 `7 _
# ~. \9 I% o# h7 f' L1 _& Z2 O& q2 ]+ |2 _+ o$ w4 u
Presented in an aspect ratio of 1.84:1, encoded with MPEG-4 AVC and granted a 1080p transfer, Cisco Pike arrives on Blu-ray courtesy of Indicator/Powerhouse Films.8 c; o. `$ R8 F( T" j. F; @3 k& Z
9 R! }' k9 ^& m6 {% @* F
The release is sourced from an older master. I like it because it is organic, but it has limitations, and if this film is redone in either 2K or 4K it is guaranteed that it will look quite a bit better in high-definition. What are the limitations? Overall delineation and depth are mostly good, but in darker areas they begin to struggle and on a larger screen you will notice how the grain can become quite noisy. Needless to say, shadow definition and some ranges of nuances can be improved. Density also fluctuates, and there is one short sequence where it becomes problematic (see screencapture #21). The color grading job is very nice, but some nuances and highlights can be expanded and rebalanced. Image stability is very good. A few nicks and tiny blemishes remain, but there are no distracting large debris, cuts, warped or torn frames to report. So, this film could and should look better on Blu-ray, but because the current master is free of awful digital adjustments, I think that the presentation is rather nice. (Note: This is a Region-B "locked" Blu-ray release. Therefore, you must have a native Region-B or Region-Free player in order to access its content).
* J9 h9 x& x( U* K: Z" H
# C) K$ n* q" M4 e& NCisco Pike Blu-ray, Audio Quality   
, J1 i4 d3 X' J( t2 @1 `
  j, N# W1 c+ ~7 _4 y5 Y$ u7 a3 }* x$ W. _; `  c+ L. R
There is only one standard audio track on this Blu-ray release: English LPCM 1.0. Optional English SDH subtitles are provided for the main feature.
% S1 G0 s% A+ q! n
# @* A: `. r7 p0 B* _The audio is clear, stable, and clean. I am convinced that when Sony prepared the current master it was transferred the right way, so even if it is redone in the future, I do not expect to hear any dramatic improvements. Right now the audio is healthy and boasting the type of proper dynamics that I expected to hear.
- F+ s+ U& K7 _5 N
游客,查看本帖隐藏内容请回复 | 加入VIP贵宾组可免积分免回复下载 了解详情 | 还不是会员:点击获取邀请码 Invitation Code

56

主题

1370

帖子

4931

积分

Sponsor

金币
224 枚
体力
1882 点
lanpanshuma 发表于 3 天前 | 显示全部楼层
楼主发贴辛苦了,I*老*虎*U!5 O- R0 w* G: `$ i% ?3 `
Bluraycd.com movie updates really fast, also did not release issued, whether you believe it or not, anyway, I believed!
该会员没有 ...

本版积分规则

小黑屋|Archiver|蓝光电影资源网

GMT+8, 2020-9-22 02:02

快速回复 返回顶部 返回列表