BluRayCD Forum

 找回密码
 立即注册【分享大片】

QQ登录

只需一步,快速开始

查看: 33|回复: 4
收起左侧

[蓝光原盘] 攻壳机动队1 [REMUX无损版] Ghost in the Shell 1995 JAPANESE 1080p US BluRaycd REMUX AVC DTS-HD MA TrueHD 7.1 Atmos-FGT 27.29GB

[复制链接]

4774

主题

4947

帖子

6万

积分

Post Share

金币
9410 枚
体力
17321 点

卓越贡献勋章

黄金嫖客 发表于 2020-10-22 22:26:32 | 显示全部楼层 |阅读模式
A cyborg policewoman and her partner hunt a mysterious and powerful hacker called the Puppet Master.
3 j& T7 X8 `+ q0 ~  Q
0 z* m& F2 u8 B' Z" z1 [ 01.jpg
; M( J8 s6 l0 x5 _" \0 \; G7 v# }" p! V  {$ Q) k: j
◎译  名 攻壳机动队
' L. |- h, U% F  t◎片  名 攻殻機動隊 / Ghost in the Shell
( `% \$ H) N/ @' ^: J7 g◎年  代 1995
  |& C( m6 E. ^( x0 F◎产  地 日本
$ k: U# h+ q# `7 |& B% Y◎类  别 动作/科幻/动画
! {; D, |1 C, S1 M* q% ?6 q6 n9 V◎语  言 日语
8 G+ ^# a- x8 m+ n3 h◎上映日期 1995-11-18(日本)
. l& x6 _5 K# p5 X◎IMDb评分  8.0/10 from 126,554 users
: h, f. [0 i" P+ l# O◎IMDb链接  https://www.imdb.com/title/tt0113568/
  [# g/ ]. M6 i$ H. G- a◎豆瓣评分 9.0/10 from 100,485 users- V9 u2 V7 A* p$ ~& ]$ N/ q, A6 }
◎豆瓣链接 https://movie.douban.com/subject/1291936/( {4 _( x3 _% |( v: C' P; H
◎文件格式 x264 + DTS + TrueHD
& E  x: R+ t7 c/ T& l& z# d$ G) j+ u◎视频尺寸 1920 x 1080
' D5 F+ H9 k  t" ?0 r1 d◎文件大小 1DVD 27.29 GiB
9 g3 r  \# j4 b" P4 r9 u◎片  长 1 h 22 min
9 o2 s, x- B: L5 M% m- z+ o◎导  演 押井守 Mamoru Oshii( Q8 E) d8 I+ I
◎编  剧 伊藤和典 Kazunori Itô; U: q$ s) R: j6 o3 s
       士郎正宗 Masamune Shirow6 n, J8 M/ j0 |
◎主  演 田中敦子 Atsuko Tanaka0 Q0 K$ b) \; c, `2 e
       大塚明夫 Akio Ôtsuka2 ?* s, \& N3 S) y
       山寺宏一 Kôichi Yamadera; V9 }7 y2 J, l& q9 F) {) U
       大木民夫 Tamio Ôki" n8 h0 W# {5 c! V6 ]9 m8 Z
       家弓家正 Iemasa Kayumi
4 O% j7 b' J$ T9 k3 s( C" B' `       玄田哲章 Tesshô Genda8 x" s2 l+ [. I& |8 r) v4 ?* J
       山内雅人 Masato Yamanouchi1 |7 C% R1 j" Y3 |5 n
       小川真司 Shinji Ogawa
9 L# \* q; V) {( _+ T* P% x       宫本充 Mitsuru Miyamoto
0 P3 u* c/ T2 e* y       小高三良 Odaka Sanryou
) X; Y0 A7 J0 w% d2 ]; X$ {       后藤敦 Gotou Atsushi# ?. @5 g4 I% m1 w
       山路和弘 Kazuhiro Yamaji9 u1 w7 q' L! g( e6 K
       佐藤政道 Masamichi Sat?
- B2 q+ H2 W1 }       Lia Sargent
1 F* {' L+ t0 v, y% a3 e2 U+ p       布莱恩·科兰斯顿 Bryan Cranston' J# Q8 ^+ R1 S) ?; B& r5 K
       松山鹰志 Takashi Matsuyama
- Z" k( G' K1 [1 T2 A) C
/ g' J0 K. w1 Z5 a◎标  签 科幻 | 动画 | 日本 | 押井守 | 攻壳机动队 | 日本动画 | 动漫 | 1995
* v. l3 ]- z6 q( C) p2 A
& K3 \0 k& `. p◎简  介  ; q" q! x9 h1 W5 A5 s/ O* I* n" P
. N5 h' d' i# ^. E
  公元2029年,未来世界是高科技与信息化的世界。人类生活水平的提高伴随着犯罪活动的高科技化,于是,专门镇压高科技犯罪的特殊部队——公安9课成立了。队长草薙素子,作为一位全身“义体化”的女警,带领公安9课不断展开行动。% D2 f: d: }6 G, H$ ?
; h3 h1 v& k8 |6 V! U* V/ R
  是次,公安9课帮助公安6课秘密解决了一位程序员外逃他国的麻烦琐事,又卷入传说中的黑客“傀儡师”的犯罪事件。当行动陷入僵局之际,傀儡师竟然不请自来,出现在公安9课!素子与她的战友们,不知不觉地被卷入了一场涉及政府的阴谋之中。
4 k8 W! H( z8 h. M$ C+ t: A$ A6 [3 H* M" I6 d" G* V% F
  Set in the year 2029 and following World Wars III and IV, a Japanese-led Asian block dominates world affairs. The alliance maintains its international supremacy through its elite security force whose cybernetically enhanced operatives tackle an array of hi-tech terrorists and other threats to international security. These augmented agents can "ghost hack" (i.e., download their consciousness) via the now omnipresent internet into other machines and human/machine cross breeds. Major Motoko Kusanagi, a cybernetically augmented female agent, has been tracking a virtual entity known as the Puppet Master with her crack squad of security agents. The shape-shifting Puppet Master, a rogue creation of a rival agency of the security apparatus, has concluded that it is a life form in its own right, "born in sea of information," and requested political asylum and true physical existence in defiance of its creators." v. c8 N2 `. E$ J! x; [, ?

2 \. D  S# y0 i1 |
Video% u6 z8 k, N3 p/ ]" s9 E
ID                                       : 1
  u- U1 z/ M7 T0 b5 z/ m6 G3 GID in the original source medium         : 4113 (0x1011)
) j! L9 v! Y3 y3 JFormat                                   : AVC
! D8 \  B1 ]* U2 w- ?8 Z- ?7 {Format/Info                              : Advanced Video Codec
6 e+ c" _4 }( b  oFormat profile                           : High@L4.1
6 g; i& b: M$ r. I5 q% R) ^Format settings                          : CABAC / 4 Ref Frames5 n8 n6 _. @& f4 J; p/ j9 ?+ E! t
Format settings, CABAC                   : Yes
9 k! U$ D9 w! z, i' _. i4 K' oFormat settings, Reference frames        : 4 frames
; O" ~4 s9 I, s7 }- S. V" d+ uCodec ID                                 : V_MPEG4/ISO/AVC, O# t# O6 r% q" g! u* Z
Duration                                 : 1 h 22 min
) z9 L! R; F/ v1 C7 y% kBit rate mode                            : Variable) Z: `1 H* G" p3 w! [! t
Bit rate                                 : 24.9 Mb/s
- Y( d  C' Y% |) E: g5 ~Maximum bit rate                         : 27.0 Mb/s
1 l5 `. o. Q7 v3 R# w8 ~+ {- eWidth                                    : 1 920 pixels+ B) D# ~5 ?% Q' A2 S
Height                                   : 1 080 pixels0 Z2 M5 k9 s" j! M
Display aspect ratio                     : 16:9
) w- ]0 X% `5 ]3 P. M2 W9 N+ t0 x+ EFrame rate mode                          : Constant% W  o7 ]! [% N3 C
Frame rate                               : 23.976 (24000/1001/37687) FPS/ `7 \% p. A4 v1 H
Color space                              : YUV3 r  w. l5 t9 `
Chroma subsampling                       : 4:2:0
2 M7 M. L/ t5 U9 OBit depth                                : 8 bits+ H6 L' d$ C4 B( H2 b4 j* j
Scan type                                : Progressive
8 n( {+ ~0 t: ?/ s; aBits/(Pixel*Frame)                       : 0.501
2 h' L9 \0 P9 N' r- i$ T7 xStream size                              : 14.4 GiB (53%)
7 @* }) P& i# W% I$ c0 NTitle                                    : Ghost.in.the.Shell.1995.JAPANESE.1080p.USA.BluRayCD.REMUX.AVC.DTS-HD.MA.TrueHD.7.1.Atmos-FGT
9 K& @! w) |" y+ c( D! TLanguage                                 : English
* f: u! }! Y! C/ ?6 b- ]9 e/ v" fDefault                                  : No9 ]! R! C" {2 S) Q" m2 ^8 ^
Forced                                   : No
$ W3 p0 C8 L. SOriginal source medium                   : Blu-ray4 k6 \  \' F, u1 p4 @$ N, _
( b, _0 p& w8 T) Z, Q; H  I- ]8 e+ s9 B
Audio #18 S: h) J' [! [8 J2 _3 X' l
ID                                       : 2
" N+ X; s7 ?) ?3 v7 ?! }( E; u9 DID in the original source medium         : 4353 (0x1101)
* W( S1 R0 c7 v" \6 C/ qFormat                                   : MLP FBA 16-ch- w2 \( K% O2 P+ p; X& e
Format/Info                              : Meridian Lossless Packing FBA with 16-channel presentation
$ l( q& b: _3 [# Y. P4 p+ h  NCommercial name                          : Dolby TrueHD with Dolby Atmos. S# A2 M1 p3 d
Codec ID                                 : A_TRUEHD
' _/ D" ]$ v& w# q% C  g' HDuration                                 : 1 h 22 min
. |' A( v5 E* E6 GBit rate mode                            : Variable4 z+ F5 P! E: y: i5 p
Bit rate                                 : 4 156 kb/s( E( H" {+ S, S3 Q; p
Maximum bit rate                         : 6 606 kb/s
9 z9 {0 h: s! H% Y3 BChannel(s)                               : 8 channels
( r* K6 P  D1 P$ W) U0 S( [! S4 GChannel layout                           : L R C LFE Ls Rs Lb Rb
0 Q- d' p  U2 _2 q8 H- _/ w' w' BSampling rate                            : 48.0 kHz
4 ?2 T: ^. U0 |( h6 N1 K7 LFrame rate                               : 1 200.000 FPS (40 SPF)
# T* w, G, J: \, QCompression mode                         : Lossless
" B% v: ^  m$ |Stream size                              : 2.40 GiB (9%)
) `3 Q* c& K$ ]6 R3 Q: xTitle                                    : Ghost.in.the.Shell.1995.JAPANESE.1080p.USA.BluRaycd.REMUX.AVC.DTS-HD.MA.TrueHD.7.1.Atmos-FGT* r0 k! [( A* n* i1 f
Language                                 : Japanese2 F7 A* t9 k/ o% ]
Default                                  : Yes
) d7 [% Z$ U0 m  N; ~Forced                                   : No
5 h1 `0 E6 H5 }) x4 SOriginal source medium                   : Blu-ray3 U' k4 ~) z# V
Number of dynamic objects                : 11$ o& Z9 P* M# B) J- P4 R- u) l7 R
Bed channel count                        : 1 channel$ L1 [. H5 t7 n/ ?, x+ q0 L$ O
Bed channel configuration                : LFE
( y  I) j5 c) ~/ Y& l# R
- `6 m" O8 l1 m% K0 g9 H4 r; V4 ~& rAudio #2
; K/ V/ o' e( _; b2 U- s" E8 GID                                       : 32 |: L/ ]1 P- j
Format                                   : DTS XLL
$ f5 Q4 ]/ o3 x$ @# T) o* hFormat/Info                              : Digital Theater Systems8 j+ a- z. K* l6 M5 _
Commercial name                          : DTS-HD Master Audio
* M! x0 U9 ^2 F$ d" a- W& QCodec ID                                 : A_DTS) W4 k% l& H- e) _
Duration                                 : 1 h 22 min  k* M, p* w# F
Bit rate mode                            : Variable
; ]7 C8 }( ^% a/ W" d: K4 ABit rate                                 : 4 443 kb/s: u2 Y0 ^( e4 Q% L& v
Channel(s)                               : 8 channels2 a7 n) U7 P" \; r& t8 {
Channel layout                           : C L R LFE Lb Rb Lss Rss
$ i1 N- t( I% D% S! nSampling rate                            : 48.0 kHz( ]9 Z- T. Q+ ]
Frame rate                               : 93.750 FPS (512 SPF)
9 M/ q3 o* M, q3 p0 k! ~Bit depth                                : 24 bits; H2 F  N' `/ ?* C( i" V) b# A( {
Compression mode                         : Lossless
$ m/ ~- x  i0 N/ q$ H' ?) {Stream size                              : 2.57 GiB (9%)
8 x( x; J+ ~* |& J0 B- D/ H: XTitle                                    : Ghost.in.the.Shell.1995.JAPANESE.1080p.USA.BluRaycd.REMUX.AVC.DTS-HD.MA.TrueHD.7.1.Atmos-FGT; h( \& f0 j$ F2 ~5 T3 f3 s
Language                                 : Japanese
! _8 a" g# F/ m) E8 q$ p* pDefault                                  : No0 Z2 C# U% N9 s/ v
Forced                                   : No+ r4 r3 G9 J3 _
" b) `6 W* [& J7 U
Audio #3
! Z$ m3 \" j6 _- i. c* \2 `: }3 z& uID                                       : 4; m5 ?  o4 Z% s# T/ J0 `7 ^! f
ID in the original source medium         : 4353 (0x1101)
0 W" {6 F' }, J' UFormat                                   : AC-3
' Z( H( Y( h& |4 U8 ~3 hFormat/Info                              : Audio Coding 3
, U- V7 t4 v, u9 x/ m) P+ Z: H8 UCommercial name                          : Dolby Digital0 {/ I5 g9 J0 }; g) J; x0 }* y
Codec ID                                 : A_AC3" Z& O$ f9 W) W% N
Duration                                 : 1 h 22 min, M: a: l- t7 s: s, D/ O
Bit rate mode                            : Constant
: ?' t- h& d* W* X6 P7 zBit rate                                 : 640 kb/s" Q: ~- e& G7 w/ L) e
Channel(s)                               : 6 channels
( Y" e' {2 @8 B( |; P7 hChannel layout                           : L R C LFE Ls Rs
, \; c4 J) x  E7 P$ LSampling rate                            : 48.0 kHz
+ @* Y6 v* ]+ \" dFrame rate                               : 31.250 FPS (1536 SPF), A1 k2 l) F. `  E
Compression mode                         : Lossy/ D9 V+ g" D1 W$ E
Stream size                              : 378 MiB (1%)2 Y+ p3 q3 {7 i* i( l8 j) M4 `; B
Title                                    : Ghost.in.the.Shell.1995.JAPANESE.1080p.USA.BluRaycd.REMUX.AVC.DTS-HD.MA.TrueHD.7.1.Atmos-FGT' R9 n0 t! g% R, @
Language                                 : Japanese( A4 p: a! F$ n! G' Q$ n+ s
Service kind                             : Complete Main7 [! S9 e' K4 }8 Y9 C: e, f
Default                                  : No
' [0 o! P' r& \% d0 D  R  jForced                                   : No" m. C; x! B$ t8 c- S( u
Original source medium                   : Blu-ray
6 w2 X- f" c- e6 Z% g* r1 |8 ]4 t4 j, E- Z) E) E
Audio #4
3 i& L2 I, }9 e) l7 U9 O% s) oID                                       : 5
# z6 ]  C* ]& w0 ]' n- ^ID in the original source medium         : 4352 (0x1100)
# l2 @4 D/ b8 M$ A' `3 T$ s( JFormat                                   : MLP FBA 16-ch& l' I0 {# ~" m* |" l3 i5 f8 N* K
Format/Info                              : Meridian Lossless Packing FBA with 16-channel presentation
2 N) P$ K* `, A% I4 o( ]8 ^Commercial name                          : Dolby TrueHD with Dolby Atmos
3 F0 y3 V/ M# ]4 L& f- CCodec ID                                 : A_TRUEHD
: j! e) N( h, ]* G/ B1 cDuration                                 : 1 h 22 min2 M; Q) i# \1 X7 O# I& B- Y( h" _* L
Bit rate mode                            : Variable/ i7 L7 k% }, s: V0 n. o
Bit rate                                 : 4 432 kb/s( z1 _9 o( a7 l2 \( n  J
Maximum bit rate                         : 6 612 kb/s+ w( r2 ^- K& W9 S. e
Channel(s)                               : 8 channels
6 S( e/ R8 f$ `Channel layout                           : L R C LFE Ls Rs Lb Rb, h6 L0 G/ o8 U( Z$ x
Sampling rate                            : 48.0 kHz2 d& h' \) Y2 ?1 [) j2 ^
Frame rate                               : 1 200.000 FPS (40 SPF)
2 F2 u$ u- c" q( k: ]; ~0 rCompression mode                         : Lossless
" |- F7 v; d3 d( Q$ u" FStream size                              : 2.56 GiB (9%)
& Q) I* g+ |0 K- E; t# _+ BTitle                                    : Ghost.in.the.Shell.1995.JAPANESE.1080p.USA.BluRaycd.REMUX.AVC.DTS-HD.MA.TrueHD.7.1.Atmos-FGT
) ^4 L: i2 n: Z' ^0 [Language                                 : English
+ T7 g4 w! J, m, V$ QDefault                                  : No# y) u0 ^5 i# _" N6 W, u- t$ l
Forced                                   : No& C$ S) q8 l. `5 w6 W3 \
Original source medium                   : Blu-ray+ ^5 M! F9 M* p8 ?+ R  x" P% x; p0 I& @
Number of dynamic objects                : 113 E9 U) |8 e1 G- U/ c; t, @
Bed channel count                        : 1 channel6 Y; ^4 d& i" `9 C( v6 t6 a
Bed channel configuration                : LFE7 n; z& u  s) @' P6 X) H( E
( j, {# f4 ]6 Y! Z
Audio #5) ], A0 D1 j9 J- n
ID                                       : 6
, V1 \# b( F% Q- b8 IID in the original source medium         : 4352 (0x1100)9 v+ Z8 n& F8 H
Format                                   : AC-3
9 x% o- L) m! m: Q1 [2 rFormat/Info                              : Audio Coding 3" J  [/ I: h! f. u
Commercial name                          : Dolby Digital
' I+ P7 M# I9 _3 ?: lCodec ID                                 : A_AC3+ k: ?+ d! w" H7 L- B
Duration                                 : 1 h 22 min* L$ V: f5 p( ?" J/ k6 O$ w
Bit rate mode                            : Constant
9 k- T0 d; x' q9 o8 F8 [& O: v; nBit rate                                 : 640 kb/s
: t7 b+ \% s& @" dChannel(s)                               : 6 channels
  Q! e- V% J  }) PChannel layout                           : L R C LFE Ls Rs3 W' D5 b" l3 m2 `# l! X
Sampling rate                            : 48.0 kHz
1 L' @/ b  ]7 d8 l  e; i! _Frame rate                               : 31.250 FPS (1536 SPF), }4 {+ l: S3 @
Compression mode                         : Lossy
$ c# R( n0 ]7 yStream size                              : 378 MiB (1%)
$ a* x& H( m7 {. ETitle                                    : Ghost.in.the.Shell.1995.JAPANESE.1080p.USA.BluRaycd.REMUX.AVC.DTS-HD.MA.TrueHD.7.1.Atmos-FGT
' h9 f( C) S' x! HLanguage                                 : English5 r7 o. v5 I6 T* G
Service kind                             : Complete Main
. J2 I; V4 u  u0 N. u8 V4 xDefault                                  : No
" U( m+ g% x0 F+ gForced                                   : No# E' X! D! ~- n3 {( v
Original source medium                   : Blu-ray
/ j$ P( P+ o/ t6 P0 m6 X, \
' I+ z6 [) @+ D. mAudio #62 q9 E9 j& F) O' q8 Z  U
ID                                       : 78 E7 t7 ?% I' Z7 h+ t3 y1 \+ P9 z
Format                                   : DTS XLL5 ^- a9 [) f/ z6 k) r* _4 M8 h% T
Format/Info                              : Digital Theater Systems
9 w- ?6 {0 Q+ O: W1 I) I  F: dCommercial name                          : DTS-HD Master Audio+ ]- [7 c5 P9 S6 B
Codec ID                                 : A_DTS  E1 m1 J: x. ^4 ]
Duration                                 : 1 h 22 min* ?( Y! k6 H  y+ q+ f
Bit rate mode                            : Variable' @( u% j! t8 u0 ?( C9 L
Bit rate                                 : 4 262 kb/s
# o. L" h( Y* g! X+ fChannel(s)                               : 8 channels
& \; g* ^7 {8 N# h* ?Channel layout                           : C L R LFE Lb Rb Lss Rss: s+ {) {' }7 j3 ?. C. u4 ~6 t
Sampling rate                            : 48.0 kHz( ~& p% v9 T4 K4 |
Frame rate                               : 93.750 FPS (512 SPF)
, i1 o4 v3 W. D4 C, @( iBit depth                                : 24 bits
( r: ?1 D9 ?& \% e9 x% H$ iCompression mode                         : Lossless8 w% f( u" g0 P1 U% X( Q) |
Stream size                              : 2.46 GiB (9%)4 Z7 ^, u' T! [2 I  h+ O
Title                                    : Ghost.in.the.Shell.1995.JAPANESE.1080p.USA.BluRaycd.REMUX.AVC.DTS-HD.MA.TrueHD.7.1.Atmos-FGT
9 S6 l+ j( V) nLanguage                                 : English
& e& z) \+ r1 F: UDefault                                  : No
/ j3 F+ a; s; v7 d, V/ RForced                                   : No
' |8 M2 f! A- v9 {7 Q
8 p' r9 k& r# V" o8 }Audio #7
! i' y) C4 X* s& \- F7 KID                                       : 8, y& Z: Z0 {5 g. C# g
ID in the original source medium         : 4352 (0x1100)
/ o% B5 `$ W& |0 jFormat                                   : AC-3
# x. W' h$ Y8 p; g. D3 qFormat/Info                              : Audio Coding 3
; T& E8 S2 Y9 d% c) LCommercial name                          : Dolby Digital0 ~) E& d) j- Y; l
Codec ID                                 : A_AC3
: \* M# O/ w' ^8 f3 U4 pDuration                                 : 1 h 22 min
" l2 J4 P# {, kBit rate mode                            : Constant/ y$ u! j/ x  N
Bit rate                                 : 640 kb/s
+ Z: e' H! W: U+ ^: m- }+ _8 aChannel(s)                               : 6 channels
% H. R/ q6 }2 c  f+ bChannel layout                           : L R C LFE Ls Rs3 `4 J8 b/ s& E8 }# Z: M
Sampling rate                            : 48.0 kHz
  a: i. e0 k" Y8 aFrame rate                               : 31.250 FPS (1536 SPF): g( Y3 D7 z3 w( ~. }
Compression mode                         : Lossy! J# }$ m8 c/ B0 G- `( ^' r
Stream size                              : 378 MiB (1%)
4 b" z: D4 F. L3 NTitle                                    : Ghost.in.the.Shell.1995.JAPANESE.1080p.USA.BluRaycd.REMUX.AVC.DTS-HD.MA.TrueHD.7.1.Atmos-FGT/ R! _+ ^- Q% ?; b
Language                                 : English
' k1 P' W& C/ t3 r  EService kind                             : Complete Main: R' P" m4 r( W8 e" o6 l6 J4 t
Default                                  : No
1 ~. U' c  C* b& F4 f8 k/ cForced                                   : No
: \$ S& F, M8 s- j9 rOriginal source medium                   : Blu-ray. ]" Q- m6 b6 s7 J' M! i! n

* A  y4 Q$ x& i5 }# K- mAudio #8! |: W/ A( r7 |, y+ X4 \6 \
ID                                       : 9: ]* T, D6 B6 K* @0 i
ID in the original source medium         : 4354 (0x1102)$ ]. l' g4 c) E
Format                                   : PCM
; u/ I/ f, L2 X" a1 p6 ~Format settings                          : Little / Signed
1 u/ l: @; s* e$ U7 I* u& T3 ICodec ID                                 : A_PCM/INT/LIT* Y3 j9 T9 `; x( D* _6 L; H
Duration                                 : 1 h 22 min
: ?' N5 `& x# q6 rBit rate mode                            : Constant$ E0 M' B$ ~  `4 `& y2 ]5 f+ {
Bit rate                                 : 2 304 kb/s9 e$ N2 u' d" z) Y
Channel(s)                               : 2 channels
/ M* u- Y' A# M8 M& C0 ]Sampling rate                            : 48.0 kHz  V1 y. t9 q- y4 S4 b
Frame rate                               : 30.000 FPS (1600 SPF)
. I# E3 |# h$ V3 L- T' G7 i$ EBit depth                                : 24 bits4 Z+ |9 l5 r3 c# a9 O. m7 r
Stream size                              : 1.33 GiB (5%)1 ]) ~0 ^+ e: s9 s) V
Title                                    : Ghost.in.the.Shell.1995.JAPANESE.1080p.USA.BluRaycd.REMUX.AVC.DTS-HD.MA.TrueHD.7.1.Atmos-FGT
% }# r9 L1 m9 l5 ?- k; w' F; jLanguage                                 : Japanese6 b  ]4 {7 g0 v. a) c" p
Default                                  : No
" I2 |9 }! v2 v2 XForced                                   : No
* `4 Q7 c% j6 @  G7 YOriginal source medium                   : Blu-ray# \! @. T4 i3 J9 v" r1 c5 b! d

$ g& X  C  G; }7 M- G: u! uAudio #9
+ W0 S5 e8 d( S7 ]ID                                       : 100 S& J+ g' k) j5 y$ e* ~$ a; r
ID in the original source medium         : 4355 (0x1103)$ G1 _- F7 g# r) m' q$ Q
Format                                   : AC-3
2 E# D0 @/ C) dFormat/Info                              : Audio Coding 3
) L8 o: i- T% e7 ?6 ICommercial name                          : Dolby Digital
0 `- d5 N2 z2 F$ d5 {Codec ID                                 : A_AC3
% N' Y) {  e8 d* U7 v% ?Duration                                 : 1 h 22 min8 s7 \8 R: d, S, H! O. X* @3 ~
Bit rate mode                            : Constant
' t# l6 S% T& Z2 `, G; J8 _4 V' nBit rate                                 : 448 kb/s" ?. M- ]0 |2 E' c# i2 E
Channel(s)                               : 6 channels3 e8 `3 @2 [% y8 n6 W! j+ w
Channel layout                           : L R C LFE Ls Rs
( r0 p/ |8 L* C1 c* L+ A( wSampling rate                            : 48.0 kHz2 A) C" l2 l4 [+ {
Frame rate                               : 31.250 FPS (1536 SPF)
) b2 H) r7 j% U$ u  z0 w! d: q6 vCompression mode                         : Lossy
! k, S; m( H# u" p4 FStream size                              : 265 MiB (1%)+ A1 e$ {2 ^- l+ K1 d' v  m: |' p
Title                                    : Ghost.in.the.Shell.1995.JAPANESE.1080p.USA.BluRaycd.REMUX.AVC.DTS-HD.MA.TrueHD.7.1.Atmos-FGT
  q( ~' |0 k( c% r$ ^Language                                 : English
1 W7 v: r4 N& Y% l- gService kind                             : Complete Main
  l: n* I6 I8 x1 ^/ X& ^9 }Default                                  : No
' ?  R" H9 ~; n. |3 y* J* {Forced                                   : No
" d/ @( _. [8 \4 F( r) B" TOriginal source medium                   : Blu-ray, \6 ?. M; b" N* k6 Z

; t0 l7 P( e& |. `5 ?Audio #10
* V% m) D1 @3 i0 o5 z% h6 Y3 G! ZID                                       : 11
7 m5 F7 ?9 T: X9 E( r7 @ID in the original source medium         : 4356 (0x1104)2 B4 i/ f& \9 B
Format                                   : AC-3
; M! a2 n" I1 \" i- t9 EFormat/Info                              : Audio Coding 3- G- \( f% i6 b& G" {4 x. {# c: k
Commercial name                          : Dolby Digital
; W* X! w2 H: d( qCodec ID                                 : A_AC3
4 N# K; v6 n, x3 zDuration                                 : 1 h 22 min6 d+ U4 y/ N, F" q- o/ C
Bit rate mode                            : Constant
' _3 l8 t* Z/ kBit rate                                 : 192 kb/s/ g1 n+ v# O  s/ O
Channel(s)                               : 2 channels' x  Z' }4 ]8 E" z4 n  i, i2 X
Channel layout                           : L R! {! X! |+ I* o
Sampling rate                            : 48.0 kHz
& u2 Q+ _4 A) q' k. _9 q: _, ZFrame rate                               : 31.250 FPS (1536 SPF)1 N# h8 y0 H; i/ G* b( C
Compression mode                         : Lossy
; _0 a4 I) a: p+ [Stream size                              : 114 MiB (0%)( c$ C1 `% L2 T; |6 X' S# \; \
Title                                    : Ghost.in.the.Shell.1995.JAPANESE.1080p.USA.BluRaycd.REMUX.AVC.DTS-HD.MA.TrueHD.7.1.Atmos-FGT
+ Q/ \7 G( @- _1 r) Z3 v0 a' D  NLanguage                                 : English
, k* d6 |5 R6 F7 K, S: @! M8 lService kind                             : Complete Main) h2 q# P) U* G& j# K! i, f
Default                                  : No, z! R8 B1 o: |; n- d1 s4 I
Forced                                   : No6 u7 A- L% \; i5 Q
Original source medium                   : Blu-ray# h$ w$ T0 K( T9 H" u- {
2 ~' k. h6 p) |7 H' _! n
Text #18 x5 U7 T- i5 m; r0 E
ID                                       : 12
" P# \9 {( k& _$ b; u0 mFormat                                   : UTF-8
3 _; j3 X, ?9 s3 ?, W& g. yCodec ID                                 : S_TEXT/UTF8% N+ K3 R9 k8 ^/ d- i( J
Codec ID/Info                            : UTF-8 Plain Text) E2 E+ y% s% ]
Duration                                 : 1 h 17 min, v, x$ D/ o- W2 f
Bit rate                                 : 69 b/s
: _) v0 O0 `8 g" _5 W: eCount of elements                        : 880# p5 l2 _+ _# a' |
Stream size                              : 39.3 KiB (0%)
. @5 n+ F0 n; ZTitle                                    : English-SRT
' x+ ]+ H9 A( U- aLanguage                                 : English( T! B- n" e' ~+ O3 T( _- {# f7 c
Default                                  : Yes5 R1 q8 J: C2 ^, G' F
Forced                                   : No6 d2 `  P- \6 i4 e9 T
3 Y' z2 G" B8 `+ }( I
Text #2' }% P( X: R# n+ ]- P
ID                                       : 13
$ Q. e" a1 M1 o0 n" vFormat                                   : UTF-8# u/ D* G% a) a& k
Codec ID                                 : S_TEXT/UTF8
) l  C4 I+ A) G3 q) YCodec ID/Info                            : UTF-8 Plain Text
6 @) i2 V2 ~, X. o# RDuration                                 : 14 s 462 ms% K9 [& r7 O2 \, D8 q' d
Bit rate                                 : 108 b/s% u% r) o5 ?3 {/ j5 P; [3 f  Q
Count of elements                        : 4, e, \# E4 i  q8 J! r8 Q  Y
Stream size                              : 196 Bytes (0%)+ c- s/ s# u- j- @  @, _( p
Title                                    : English-FORCED-SRT
5 F; d# W. o% d+ s; |Language                                 : English4 p% a3 q1 I" ]9 X; M( ?7 W
Default                                  : No* |# M3 \% S; t  K6 G' R6 i9 k
Forced                                   : No7 b; i: m3 a9 f9 y- z+ ^. h
5 ~8 p: |1 P: [: `; ^% e2 Z
Text #31 z( l  n; T2 M& v1 F2 R
ID                                       : 14
8 ^. b; R6 K6 K1 _3 x9 oID in the original source medium         : 4611 (0x1203)
, ]  E3 U3 `4 r, k1 E, pFormat                                   : PGS" m" h7 `3 @9 `8 ~6 v% m
Muxing mode                              : zlib, ]4 t% ^( D6 h
Codec ID                                 : S_HDMV/PGS
$ f, R7 D4 j- k% u. r; _8 m6 cCodec ID/Info                            : Picture based subtitle format used on BDs/HD-DVDs, o8 @! a, k- P" p- ^
Duration                                 : 1 h 17 min2 o" ]; u9 _0 B% E- [' S8 @
Bit rate                                 : 36.1 kb/s! G' X& t' v- ~5 W$ Z' {
Count of elements                        : 1538) }# S6 ~0 E. Z  d; e
Stream size                              : 20.0 MiB (0%)
  W9 M  F3 c0 y/ K6 j6 [Title                                    : English-PGS2 T, b/ w' h$ {& R. E
Language                                 : English
! y* O& V6 V- [4 B% L: CDefault                                  : No3 `4 K2 ^( `6 G9 G1 E: b+ K  s
Forced                                   : No
3 S9 S1 n8 d2 S- k0 gOriginal source medium                   : Blu-ray
" i8 u; Z9 k9 t( o" q
" Z7 T% r& c- y8 Q7 m8 TText #47 ^, [* h7 R9 d2 {, s, _
ID                                       : 15
! X% T2 T4 z9 O' cID in the original source medium         : 4611 (0x1203)
& @* }6 c1 h, }) hFormat                                   : PGS
' Q' f3 L/ [9 U* T1 vMuxing mode                              : zlib
, f# z, m* e/ @9 m6 P" |Codec ID                                 : S_HDMV/PGS) |! N3 a  |- j" p: |3 j2 v! N6 ]
Codec ID/Info                            : Picture based subtitle format used on BDs/HD-DVDs
9 M( A) {9 c  pDuration                                 : 14 s 494 ms6 L$ x. n( N2 u; S& F7 v4 M7 T! |" l
Bit rate                                 : 66.3 kb/s7 m6 I8 `6 {  F$ @0 W8 e
Count of elements                        : 8
- E! Y- g9 G  k! l1 NStream size                              : 117 KiB (0%), m/ M, v4 h7 Y* z# L9 d
Title                                    : English-FORCED-PGS  S. |' P" ~" u' k. B
Language                                 : English
5 T8 Q3 H1 u( a: P: [Default                                  : No
8 x$ ?- S& z2 {  o1 j% P' E' o7 n. `' yForced                                   : No( A' Z* n; |2 X5 }
Original source medium                   : Blu-ray
' Y% Q( t4 g+ E2 T. F
0 s% E6 J" R6 NText #54 Z3 a! L( O1 s4 w
ID                                       : 16
6 l4 \0 o1 ^! W/ D" X9 fID in the original source medium         : 4612 (0x1204)
, S1 Y6 L8 q0 K1 eFormat                                   : PGS$ f( n! M$ S" d5 {
Muxing mode                              : zlib
8 s0 a4 d5 u1 F( sCodec ID                                 : S_HDMV/PGS; x) Y" d9 R# @1 g
Codec ID/Info                            : Picture based subtitle format used on BDs/HD-DVDs! y" x# v3 M' w& {  R
Duration                                 : 1 h 22 min
: j" Y5 K* h9 P- i3 |. z4 rBit rate                                 : 33.5 kb/s
. }" g7 ?1 X' R0 u" WCount of elements                        : 1548
& b; m. k& X# N7 a+ b6 fStream size                              : 19.7 MiB (0%)
% k5 r8 m2 j. a  I% LTitle                                    : Spanish-PGS) J/ y; c' d& @! Q) l
Language                                 : Spanish
" T: a( w3 z2 qDefault                                  : No
4 t8 V+ t* H# L3 z  ?& p' r7 i7 `Forced                                   : No2 |% s  v9 I( ^
Original source medium                   : Blu-ray* n+ P2 }  m& B1 N* s
9 }( Z( a) v3 N/ [) p
Text #6
; W0 V& r# p/ X5 QID                                       : 17
7 o$ o4 q7 V/ R+ X! KID in the original source medium         : 4612 (0x1204)% `1 O0 F+ I3 `
Format                                   : PGS" @; l; v4 t8 [% M, h
Muxing mode                              : zlib
8 Z* S* h* T0 t$ v1 j$ B) L7 pCodec ID                                 : S_HDMV/PGS
+ e% A6 J; C2 x+ O$ O& V8 UCodec ID/Info                            : Picture based subtitle format used on BDs/HD-DVDs8 ]' @* V3 A, Y: p
Duration                                 : 14 s 494 ms1 K0 ]- _" b: ]- O9 n. F
Bit rate                                 : 71.9 kb/s7 E: o" D" r. v$ l
Count of elements                        : 8* F4 m" y% W' \/ [$ L) o
Stream size                              : 127 KiB (0%), L. o' Y4 _! }4 r4 @
Title                                    : Spanish-FORCED-PGS
/ I& G& J' y& [3 o1 Q9 ?" SLanguage                                 : Spanish/ m% h$ G! \& Z
Default                                  : No9 I8 R2 y0 I, S5 n8 y2 W0 t6 F5 e8 ?
Forced                                   : No
' g( o8 B1 O' ~7 d- KOriginal source medium                   : Blu-ray
! v/ S( }6 T2 m1 U# k% W& E( m( |
Text #7
3 R% M. H$ i0 D8 k0 |& b/ C9 gID                                       : 18
3 Z! W+ f, b: |- h2 n! Y) w: KID in the original source medium         : 4613 (0x1205)
( G6 C8 y* ]/ F# eFormat                                   : PGS, w; K6 W, X$ m8 N  E# a# x# e
Muxing mode                              : zlib: p- [+ G  \) h$ I. z! B  H
Codec ID                                 : S_HDMV/PGS
/ J. K0 _- s, B" Q( sCodec ID/Info                            : Picture based subtitle format used on BDs/HD-DVDs7 x; U; I' N& ]& @* g
Duration                                 : 1 h 17 min
4 C7 }& J! g" Y5 CBit rate                                 : 41.1 kb/s/ B+ S3 U( U/ M1 f7 Q! k# n
Count of elements                        : 1890
% e! i6 s4 \* x* v/ [) D' C6 RStream size                              : 22.9 MiB (0%)
8 X$ U- P0 ]) ~; z% g/ v4 aTitle                                    : English-PGS
. @( N7 ~% p+ x3 YLanguage                                 : English
& e9 ^  I- d& E* I) e  V- |; n8 x8 U- GDefault                                  : No
( I& |2 c5 d& qForced                                   : No9 U) K! b1 N7 {4 k3 ~  c
Original source medium                   : Blu-ray
& C, }( ^0 {$ z  H$ |! m
7 }5 I7 f2 e4 m) q0 h. c& jText #8$ L$ A" g- y+ m
ID                                       : 19
+ c4 I1 S4 ?% `! @% ^6 CID in the original source medium         : 4613 (0x1205)+ e5 m" k5 a4 e4 |  n. A' i& _
Format                                   : PGS) P" s4 H& g+ r4 n; y* P
Muxing mode                              : zlib
! c) J1 J% _6 p! g, O8 sCodec ID                                 : S_HDMV/PGS. K3 b4 M' j, D
Codec ID/Info                            : Picture based subtitle format used on BDs/HD-DVDs
& z8 M4 ~# W/ H. V& eDuration                                 : 14 s 494 ms
) b# q2 Z4 Z3 ~, f) xBit rate                                 : 66.3 kb/s( }0 y$ ^  X/ e9 J: @
Count of elements                        : 8' c1 c/ E& f, q; p: t' n( F
Stream size                              : 117 KiB (0%)
; n2 @# U/ J4 h, v- F) C! v* |Title                                    : English-FORCED-PGS6 F/ p) B$ c7 B2 Q* K
Language                                 : English
3 a- V! d" R$ u0 L' X8 SDefault                                  : No" \% r5 ~" k2 Z; n% o" W3 [  J
Forced                                   : No; Y- ]0 c4 N5 u7 a8 E9 {
Original source medium                   : Blu-ray
; A1 Q2 `1 a1 F/ F  u. {4 Q4 V! h
8 B+ Z: n( r& B$ c9 s" x5 t0 iMenu7 w+ Q7 ~4 L' }7 \. L  B
00:00:00.000                             : en:Chapter 01
: d* y0 z, S2 ~/ x- o8 a00:04:05.161                             : en:Chapter 02: i; y7 ?2 `) d6 `* P* `
00:08:23.628                             : en:Chapter 03
+ }3 R; R% _6 ~9 H- u/ r: R' L00:13:14.293                             : en:Chapter 04
% R! M% z; f' R) f" e+ |00:24:16.746                             : en:Chapter 05  D$ e# a4 L, n
00:26:04.104                             : en:Chapter 06* Z. }# s( x# Z4 H8 q
00:27:39.199                             : en:Chapter 07% K* U2 o- R/ a# Y% a
00:33:02.021                             : en:Chapter 08# f+ l  s- e1 t1 q
00:36:20.553                             : en:Chapter 09
1 n; r0 |: k/ J" }# p" c# e6 q00:45:31.395                             : en:Chapter 10
3 }8 t; ~# m$ ~0 o' s00:53:58.526                             : en:Chapter 11
( N0 I! N% ^& ]' B9 e" q+ B( E00:59:39.492                             : en:Chapter 12
6 ^7 R$ y# g5 Y) @4 x$ J  ], W+ u01:06:23.396                             : en:Chapter 13, ], w* z9 {2 z- C/ K
01:13:58.851                             : en:Chapter 140 ?, ^$ I! e* H4 h
01:17:30.479                             : en:Chapter 15$ ~" j; }$ w, q$ |2 X5 v& a# M
01:22:37.953                             : en:Chapter 16
; Q/ h- J6 X1 K7 b- R- Y
游客,查看本帖隐藏内容请回复 | 加入VIP贵宾组可免积分免回复下载 了解详情 | 还不是会员:点击获取邀请码 Invitation Code

相关帖子

618

主题

2086

帖子

1万

积分

VIP advanced

金币
1848 枚
体力
4752 点

公主勋章卓越贡献勋章

21cn 发表于 2020-10-23 17:58:22 | 显示全部楼层
姐顶的不是帖子,是寂寞!
% H4 A& s! ^* \$ k要想蓝光电影论坛发展好,资源多,就靠你我他!To the development of Blu-ray movies forum, resources and more depend on you and me!! D# G5 ~8 A! G8 z

67

主题

1708

帖子

6370

积分

Sponsor

金币
508 枚
体力
2353 点
lanpanshuma 发表于 2020-10-24 16:13:00 | 显示全部楼层
看了LZ的帖子,我只想说一句很好很强大!""
9 T+ a/ u' g0 a  h: _  ]  A3 Z, FBlu-ray movies Community: my favorite!
  t! V$ R4 o. g+ f
该会员没有 ...

0

主题

366

帖子

1811

积分

Sponsor

金币
1 枚
体力
1028 点
sclzywxl 发表于 2020-10-26 09:44:27 | 显示全部楼层
谢谢楼主分享

0

主题

366

帖子

1811

积分

Sponsor

金币
1 枚
体力
1028 点
sclzywxl 发表于 2020-10-28 16:27:23 | 显示全部楼层
谢谢楼主分享

本版积分规则

小黑屋|Archiver|蓝光电影资源网

GMT+8, 2020-12-2 14:24

快速回复 返回顶部 返回列表