BluRayCD Forum

 找回密码
 立即注册【分享大片】

QQ登录

只需一步,快速开始

查看: 120|回复: 3
收起左侧

[4K极清电影] 阿斯泰里克斯:魔法药水的秘密 [4K REMUX无损版] Asterix The Secret of the Magic Potion 2018 FRENCH 2160p BluRaycd REMUX HEVC DTS-HD MA 5.1-FGT 42.95GB

[复制链接]

5469

主题

5822

帖子

6万

积分

Forum Moderator

金币
4116 枚
体力
25590 点

卓越贡献勋章VIP蓝光勋章

迅雷电影 发表于 2021-1-27 03:46:49 | 显示全部楼层 |阅读模式
Following a fall during mistletoe picking, Druid Panoramix decides that it is time to secure the future of the village. Accompanied by Asterix and Obelix, he undertakes to travel the Gallic world in search of a talented young druid to transmit the Secret of the Magic Potion.
$ \( s  Q$ }* l$ [
" a1 s$ U! `2 Y9 c0 x* N 01.jpg
# [, U( J" d( T) R4 t4 k) A2 a3 T2 T% c" Q! W; ?
◎译  名 阿斯泰里克斯:魔法药水的秘密7 p0 b' L6 r. \1 o% b
◎片  名 Astérix: Le secret de la potion magique / Asterix - The Secret of the Magic Potion0 i5 f# v1 [6 u: ?. f+ F0 @% ]9 Q3 g
◎年  代 2018
( r! V; f4 T2 L6 u! h◎产  地 法国
. L; U7 ?6 i1 p( O# `0 k9 K◎类  别 动画
: x9 x  t; p1 t: |5 Y◎语  言 法语/拉丁语 Latin- H1 \0 M: J6 t
◎上映日期 2018-12-05(法国)& G2 M# a: x9 e9 A% w6 l
◎IMDb评分  6.7/10 from 8,109 users
: V8 B! W/ ]1 G& O8 N5 d- O) Z. S2 u◎IMDb链接  https://www.imdb.com/title/tt8001346/
, J+ g9 p+ N# }% u7 h. s◎豆瓣评分 7.0/10 from 250 users/ t: l4 }; b  q2 K" ?# |1 }/ ^
◎豆瓣链接 https://movie.douban.com/subject/30238680/* N  G. e' a0 X8 r* B
◎文件格式 x265 + DTS  
' ?! L) {! P9 a- n0 _* h5 M' m  p◎视频尺寸 3840 x 2160
8 G$ j7 Y. C7 c7 o" C◎文件大小 1DVD 42.95 GiB4 }* C+ I1 h/ d" v: k6 j1 m+ D- @
◎片  长 1 h 24 min9 `/ j/ i  s3 h2 _
◎导  演 亚历山德拉·阿斯提耶尔 Alexandre Astier ; Z5 W# l! T: D0 N% A- v" S2 v' u+ v
       Louis Clichy
8 ^* m  _9 }+ {/ R) E◎编  剧 亚历山德拉·阿斯提耶尔 Alexandre Astier ; {' q0 d& i$ |' w
       勒内·戈西尼 René Goscinny- a; @- V6 r2 K; c0 p- u  G
# B" p4 [5 v$ ~2 y. K3 D  \
◎标  签 动画 | 法国 | 喜剧 | 法国动画 | 法国电影 | 搞笑 | 2018 | asterix
# ]9 p/ Y- ^/ K$ Y# L/ q! D; A+ J( m* F( I, h
◎简  介
( g% j" P5 h7 _5 t% @( z' y) d, M: `! d' b8 B
  在槲寄生采摘过程中摔倒后,德鲁伊·帕诺拉米克斯决定是时候保护村子的未来了。在阿斯特里克斯和奥贝利克斯的陪同下,他承诺周游高卢世界,寻找一位才华横溢的年轻德鲁伊来传递魔法药水的秘密。1 U: }% N' E4 a8 T

/ \% ~( q" a- {7 E; @' }  --雨果·范·赫尔佩
0 {& u; t  P5 |- l2 p4 [+ j, h# c/ L5 N* Z( h+ _
  Following a fall during mistletoe picking, Druid Panoramix decides that it is time to secure the future of the village. Accompanied by Asterix and Obelix, he undertakes to travel the Gallic world in search of a talented young druid to transmit the Secret of the Magic Potion .. j9 m; F2 E  |; j4 j* [- i0 e
; x+ Z" \/ o' r( }! d" ]) q
  —Hugo Van Herpe& }3 }1 ^/ \0 r/ \8 X/ L! {

6 h9 g8 I) X/ x* y; c+ F" R◎获奖情况   
9 j) [9 O* O9 J( D  h2 Z7 Q: P: n1 d1 p
  第44届法国凯撒电影奖  (2019)' P% {: u* W! F2 D) a+ w# b0 |
  最佳动画片(提名)
" C2 w7 @0 k' L' k2 _
Video6 E1 F' l/ M1 F: V# C
ID                                       : 1# o/ g. K% I8 b6 [$ k$ z/ ?
ID in the original source medium         : 4113 (0x1011)9 M. q2 {% Q: U& c2 ?# B6 r% M
Format                                   : HEVC9 w  P3 b5 J- x& L! f: K
Format/Info                              : High Efficiency Video Coding6 K3 \. ]% m) @8 ^
Format profile                           : Main 10@L5.1@High( {  T: G" H9 R2 H: ?( `/ ?3 Q
HDR format                               : SMPTE ST 2086, HDR10 compatible
+ s* {2 \; g+ L5 p' ]Codec ID                                 : V_MPEGH/ISO/HEVC  y/ P: o+ E4 M" p
Duration                                 : 1 h 24 min' v8 ^* h" a- k% M7 [
Bit rate                                 : 61.5 Mb/s3 T7 a+ ]1 z: O2 @
Width                                    : 3 840 pixels
8 p  g' G* T& g; |$ yHeight                                   : 2 160 pixels, {$ z3 B3 d% }) m% {
Display aspect ratio                     : 16:9$ _$ R' W& a* c/ N! c
Frame rate mode                          : Constant5 L; h7 h+ K6 S5 r% \7 @9 M
Frame rate                               : 23.976 (24000/1001/37687) FPS
5 T3 w& b7 ~0 N4 J" O( j" NColor space                              : YUV
* T6 Q. F8 `- I. ~3 j6 y+ FChroma subsampling                       : 4:2:0 (Type 2)
6 G4 A' {1 O5 ?% F+ x: j* P8 N0 [4 kBit depth                                : 10 bits; ^: [0 }4 @% }5 B/ N$ x
Bits/(Pixel*Frame)                       : 0.309! m0 P* {2 ?5 H3 J9 `
Stream size                              : 46.7 GiB (91%)
4 a& U8 n8 Z7 M5 S% i9 YTitle                                    : Asterix.The.Secret.of.the.Magic.Potion.2018.FRENCH.2160p.BluRayCD.REMUX.HEVC.DTS-HD.MA.5.1-FGT
: h2 w6 g7 H- c8 ^0 U% F' U- YLanguage                                 : English+ o; i- ]0 Y. J* |0 w# {
Default                                  : No( A3 {7 P; t3 ?5 |6 G
Forced                                   : No
# u2 ?! C+ h- O6 r: KColor range                              : Limited" K8 E% s0 A. T& T/ a
Color primaries                          : BT.2020- \4 R; b8 e; O2 ]
Transfer characteristics                 : PQ5 H) n9 L, }3 y% w6 p7 o) B% Q7 Y$ V
Matrix coefficients                      : BT.2020 non-constant, B$ [2 B$ D) Y- X; m
Mastering display color primaries        : Display P30 m2 d. k4 g& w# t1 @4 D
Mastering display luminance              : min: 0.0050 cd/m2, max: 4000 cd/m2
( g' a- l* m$ C( l: NMaximum Content Light Level              : 1000 cd/m2
/ F7 D! F+ V1 l" j8 e7 Y5 yMaximum Frame-Average Light Level        : 520 cd/m2
$ o- e& V4 p/ N8 J4 `  o# UOriginal source medium                   : Blu-ray' a# g1 f( h$ s  a8 p# E# Y- v/ \
* @& ^8 d# ?1 R; i& B6 F
Audio #1. b5 _0 o4 K  v+ m
ID                                       : 2
6 Z, y6 @5 G. `0 i  [3 c2 JID in the original source medium         : 4352 (0x1100)* x# I$ O( e7 ~5 ~8 G
Format                                   : DTS XLL- ?! g$ ], e- A2 V( @. W( C* g
Format/Info                              : Digital Theater Systems5 o& Z3 q; D9 P+ d5 _
Commercial name                          : DTS-HD Master Audio5 q6 E( Z& v$ C2 q; u' T, y
Codec ID                                 : A_DTS5 r% B7 g& `7 r' Z& ~
Duration                                 : 1 h 24 min
+ q" }, F! J+ h6 wBit rate mode                            : Variable
0 a5 C0 m) p4 J2 J6 m' d) D) VBit rate                                 : 4 413 kb/s
) Z8 l6 s( K* n, o/ iChannel(s)                               : 8 channels' ~# t5 s6 x( b8 G9 o
Channel layout                           : C L R LFE Lb Rb Lss Rss
8 ~1 y) [& b$ t9 hSampling rate                            : 48.0 kHz7 X7 V0 H: {! ]! Z( I# M* ~
Frame rate                               : 93.750 FPS (512 SPF)
+ `# m! F# j& t1 O  H  }Bit depth                                : 24 bits
* @8 {( X- T. s$ U) J) `% t4 r2 sCompression mode                         : Lossless' d) c  L0 t& R: \4 i5 M
Stream size                              : 3.36 GiB (7%). {- q4 n9 v: o( B
Title                                    : Asterix.The.Secret.of.the.Magic.Potion.2018.FRENCH.2160p.BluRaycd.REMUX.HEVC.DTS-HD.MA.5.1-FGT2 k9 I; v- ]5 j# c; y8 J7 q
Language                                 : English
, i; ]* t3 p# Q$ T6 K4 NDefault                                  : Yes2 |: s8 J0 T) `8 C0 b
Forced                                   : No4 @5 K! J, l* T9 ^% q, a
Original source medium                   : Blu-ray+ b) V' F* n: X  O

- C8 n& q9 V. p. U. o1 T/ E" N# [! vAudio #24 ~' |0 a# O  I
ID                                       : 39 y3 U/ X$ z% l( ]2 \
Format                                   : AC-3
# _# I4 k7 {! I2 W1 ?Format/Info                              : Audio Coding 3
7 q" Y. A' a7 _9 YCommercial name                          : Dolby Digital
! u% e7 D  S! }. ]" g- @Codec ID                                 : A_AC3' z7 v( `* a( t! {5 C
Duration                                 : 1 h 24 min
! i: H8 j4 ~- M9 H4 rBit rate mode                            : Constant
; k* R- a7 x! ]  M6 K4 e9 L; g6 E2 PBit rate                                 : 640 kb/s
# s6 Q& u6 @8 t& a) V2 gChannel(s)                               : 6 channels  u+ d2 u, x1 n, T; A  @6 G
Channel layout                           : L R C LFE Ls Rs
8 d! m3 j: Z  A1 w. J+ k3 CSampling rate                            : 48.0 kHz. m% b: ^  L) s
Frame rate                               : 31.250 FPS (1536 SPF)
2 j/ s# l2 K( D' U5 H9 x2 L+ YCompression mode                         : Lossy5 n3 U; s- i, t) h, Z
Stream size                              : 498 MiB (1%)
/ M' ?! m6 c  J5 ?: ATitle                                    : Asterix.The.Secret.of.the.Magic.Potion.2018.FRENCH.2160p.BluRaycd.REMUX.HEVC.DTS-HD.MA.5.1-FGT
/ w& ^4 a9 J5 zLanguage                                 : English$ G, f$ |' H6 \; I3 Z$ x& a
Service kind                             : Complete Main2 c) U+ I( O* o0 W+ {# K; |' x
Default                                  : No" k3 N6 R6 M4 g/ k% z1 `3 ^- G
Forced                                   : No
! T1 r+ V7 `& A3 q7 j( \8 _9 z- O7 h0 V# D
Audio #30 R/ C4 z' x2 O0 P4 M# e
ID                                       : 4" i! G/ ?2 u  X  l# w2 [; q- K
ID in the original source medium         : 4353 (0x1101)/ o5 U6 Q9 w8 R& L" x! }
Format                                   : AC-3
  k% I  b' m& s0 U% D! LFormat/Info                              : Audio Coding 3
9 O' a+ _0 v/ w/ fCommercial name                          : Dolby Digital
  Y. C4 s+ }3 m$ i( e  L" ECodec ID                                 : A_AC3
& y# V- ~7 P0 XDuration                                 : 1 h 24 min
2 ]  u- h6 R4 I$ N. P7 NBit rate mode                            : Constant
0 o- p' n$ T# hBit rate                                 : 640 kb/s; j5 |# o- R/ D0 t% u  D* c3 I
Channel(s)                               : 6 channels
' M/ a, }: y" I. @Channel layout                           : L R C LFE Ls Rs' x1 i: s! Y6 t1 w. l
Sampling rate                            : 48.0 kHz
  W$ g: Z' F% E0 M- B4 \) ~: i' E3 b( iFrame rate                               : 31.250 FPS (1536 SPF)* b9 \4 o; i0 W/ i( d% y  P% ?
Compression mode                         : Lossy3 N! r- u2 h2 {8 D
Stream size                              : 498 MiB (1%)
/ F5 I& z' e; a. M, hTitle                                    : Asterix.The.Secret.of.the.Magic.Potion.2018.FRENCH.2160p.BluRaycd.REMUX.HEVC.DTS-HD.MA.5.1-FGT( g% J" n; u7 N
Language                                 : English- n! v% P; ?. g: ~. v
Service kind                             : Complete Main
2 w( c4 d! a9 r; Z0 i; ~Default                                  : No
! K. b' P" C4 M+ v: mForced                                   : No% i1 a/ f1 W* g( a7 M+ K) X% y
Original source medium                   : Blu-ray
. r8 E- `" k6 }+ S3 C" ~8 b+ M: B- L; [$ Z" S
Text #16 U) J( u' v& ~4 d- Q: L
ID                                       : 5
% d! f2 z$ [" q/ i9 A2 QFormat                                   : UTF-87 @: [8 I  e0 Z9 Y& V
Codec ID                                 : S_TEXT/UTF8; ]- l+ s' H# M% w
Codec ID/Info                            : UTF-8 Plain Text
  r* e% j8 ~, B  y7 u1 iDuration                                 : 1 h 24 min" Q; M7 K: _4 O
Bit rate                                 : 60 b/s* Z, K' v9 H7 b) z1 b
Count of elements                        : 1402
% G2 q4 z# m% ?/ k+ GStream size                              : 45.2 KiB (0%): G* C( K7 D% k5 j( u! m6 d
Title                                    : English-SRT. x6 O+ ]. W7 ?) q. q$ G* z
Language                                 : English# R) m" T. U. O' p
Default                                  : Yes
* j4 n6 s  m) E- I  x" r6 DForced                                   : No
! ]; b- w( \/ {7 U
7 g1 r* q4 I5 f6 JText #2# o, e1 O; Y+ f; ~5 @, g/ K
ID                                       : 6
6 c6 a  e/ J6 |. U. U7 g9 V5 f3 XID in the original source medium         : 4768 (0x12A0); a4 \; s9 o2 q9 s" j/ O
Format                                   : PGS
# v! p8 Y- l( M2 R2 GMuxing mode                              : zlib3 E7 K) W' h- g
Codec ID                                 : S_HDMV/PGS3 J# r# p; v* M% b
Codec ID/Info                            : Picture based subtitle format used on BDs/HD-DVDs' U' q! L/ \( f: D* A0 L6 G
Duration                                 : 1 h 24 min
' h8 p1 |+ ~' X+ R8 E! hBit rate                                 : 41.7 kb/s' \: W! D0 ]/ p; T
Count of elements                        : 2812
' f: x5 y4 I. F4 z0 V! lStream size                              : 30.3 MiB (0%)
( e! k3 W& q: S3 x0 B: ETitle                                    : English-PGS
" v& A. K* L% ?1 e$ ^6 ]9 L6 \1 I8 JLanguage                                 : English
- x+ z& z% d, y0 `Default                                  : No! p  z/ C6 R% n+ N7 g
Forced                                   : No( y" O: Z6 |' D
Original source medium                   : Blu-ray( x; L. u+ N% }2 U3 l6 v
( K$ [! [! d  E' T6 |
Text #3" |$ J" Q- _# i3 E
ID                                       : 7
6 t. u9 T6 I, Z6 p7 u# iID in the original source medium         : 4769 (0x12A1)8 C) \& o/ P/ n
Format                                   : PGS; S) D! \  S( `$ {
Muxing mode                              : zlib
, ^5 W2 Y& L/ d0 R: _/ TCodec ID                                 : S_HDMV/PGS7 P6 ^- F: j; ?, W9 Y% f
Codec ID/Info                            : Picture based subtitle format used on BDs/HD-DVDs7 A# k% e3 ^8 }! J# u& `# ]
Duration                                 : 1 h 24 min- N* K6 Q" G+ P' C4 t8 s) S# L
Bit rate                                 : 49.9 kb/s  @) L- V: l* C: W! B1 S: ^
Count of elements                        : 33746 \, Z1 B7 T9 J4 {( ~
Stream size                              : 36.8 MiB (0%)
9 V# Q$ \( `4 q4 C/ E. o3 CTitle                                    : English-SDH-PGS$ R6 Z% \9 X% D- x& K7 G
Language                                 : English& `. W& ^/ L9 B, K7 k! U! ]9 I
Default                                  : No
  R9 D9 K% ~( Y6 c4 m: ]( |% ~Forced                                   : No
# j. \8 G1 C% ~" I1 x& f$ @, SOriginal source medium                   : Blu-ray2 B' q. z/ B+ @+ R! w, s2 N/ p! p
6 E/ ?0 I% S; x1 V' h# {) n* m8 N
Text #48 n" O+ b8 E6 a- m% w3 i
ID                                       : 86 q, o! y2 ^0 h) P9 r" x' z$ S* V
ID in the original source medium         : 4770 (0x12A2)6 d# s6 k9 l- c
Format                                   : PGS0 y9 Y; L; C, d3 y$ |
Muxing mode                              : zlib
  M9 y* @2 q( K2 N, QCodec ID                                 : S_HDMV/PGS
$ ~0 ?3 X* P. P+ i6 s& x/ ICodec ID/Info                            : Picture based subtitle format used on BDs/HD-DVDs
' h0 J0 X/ F: K4 \Duration                                 : 1 h 24 min
$ @/ w+ A+ X0 p9 o& c% o1 d. EBit rate                                 : 38.5 kb/s, z' z9 A5 u$ o, }  \
Count of elements                        : 28301 m" [/ y+ g$ M! `
Stream size                              : 29.7 MiB (0%)4 l1 J! T# l' W" }& [$ B- }# P
Title                                    : Spanish-PGS
# f; w* [. I( Z0 Q/ I+ j9 i7 OLanguage                                 : Spanish- _2 p( T$ X4 e, h2 U
Default                                  : No
2 P1 M) M% a; OForced                                   : No
8 n7 k* Y, Y/ u9 o* M3 QOriginal source medium                   : Blu-ray
  q- _0 l- H  U+ _* H( A; q
: N$ C9 G5 C- U2 }) x# CMenu
, ~9 t$ L7 i* Q* e00:00:00.000                             : en:Chapter 01; m6 e" _7 D% k3 Z  L% V
00:10:19.368                             : en:Chapter 02
5 N1 C" i. c" ]; T00:20:14.129                             : en:Chapter 03' H9 e' C& L  L- C) d4 o+ o+ X
00:28:48.643                             : en:Chapter 044 n. @; j; ]  J. L" P9 L
00:34:54.675                             : en:Chapter 056 j: |+ R# Y3 X, w
00:41:15.264                             : en:Chapter 06; |/ F5 ^- N% y$ ^8 F
00:50:20.976                             : en:Chapter 07. f. C- Z- h+ h
00:54:56.293                             : en:Chapter 08
; ]" [7 F4 F% }+ {8 m01:04:05.633                             : en:Chapter 09' D: p! K, O/ t7 q/ J" G
01:13:02.669                             : en:Chapter 10
2 {5 S/ k2 N; l0 a01:20:52.264                             : en:Chapter 11; |6 M7 z, }3 j8 K# d5 S
01:27:57.021                             : en:Chapter 12
. v" m% J7 Z  h01:36:45.466                             : en:Chapter 13
9 j9 V# q! u1 t3 z01:42:38.944                             : en:Chapter 14

. A  g  K$ l# ]. L  p% V
游客,查看本帖隐藏内容请回复 | 加入VIP贵宾组可免积分免回复下载 了解详情 | 还不是会员:点击获取邀请码 Invitation Code

71

主题

2208

帖子

8495

积分

Sponsor

金币
919 枚
体力
3072 点
lanpanshuma 发表于 2021-1-27 06:39:12 | 显示全部楼层
这么好的帖子不回对不起自己!
7 l/ O" m$ _/ U/ XYour resources, well, I am very satisfied!3 o% {3 u/ s" @8 A  D5 n6 D4 G
该会员没有 ...

1

主题

463

帖子

1482

积分

Sponsor

金币
2 枚
体力
556 点
QQ
davidqin 发表于 2021-1-30 12:50:02 | 显示全部楼层
每天都来蓝光论坛看看,我爱蓝光电影。, O. N# s; P$ I
I love your Blu-ray movies Forum!4 _/ E/ W% ]2 |) s) u& V" q! C

3

主题

116

帖子

496

积分

Sponsor

金币
17 枚
体力
238 点
2360090999 发表于 2021-2-21 21:17:25 | 显示全部楼层
I love your Blu-ray movies Forum!$ W3 h, y' |5 w, j3 D* i: `- o6 W# K9 b2 z7 r
又有新片了 ...

本版积分规则

小黑屋|Archiver|蓝光电影资源网

GMT+8, 2021-3-9 12:17

快速回复 返回顶部 返回列表