BluRayCD Forum

 找回密码
 立即注册【分享大片】

QQ登录

只需一步,快速开始

查看: 15|回复: 0
收起左侧

[2160P极清] 阿斯泰里克斯:魔法药水的秘密 [4K SDR高码版] Asterix The Secret of the Magic Potion 2018 FRENCH 2160p BluRaycd x265 10bit & 8bit SDR DTS-HD MA 5.1-SWTYBLZ 11.54GB & 14.16GB

[复制链接]

5345

主题

5519

帖子

7万

积分

Post Share

金币
11847 枚
体力
18671 点

卓越贡献勋章

黄金嫖客 发表于 2021-2-5 05:44:44 | 显示全部楼层 |阅读模式

! N5 P0 v8 @  a0 }0 H5 `" m: n$ d6 |) s, k! |3 {
◎片  名 Astérix: Le secret de la potion magique / Asterix - The Secret of the Magic Potion
1 @, s& S) x- j" n◎译  名 阿斯泰里克斯:魔法药水的秘密
$ u' ^4 e) e  ^7 m  H5 X+ w1 ]◎年  代 2018
3 o( s$ U" h2 M+ N4 ^◎产  地 法国# N+ M6 d# ~# O5 T) k8 z
◎类  别 动画. M5 M8 y2 R! q0 s
◎语  言 法语/拉丁语 Latin5 N; N" B6 N* Z" g( V$ H
◎上映日期 2018-12-05(法国)
% @+ Z8 _. H6 B. k# h5 m0 p◎IMDb评分  6.7/10 from 8,147 users
( Z9 O/ T" u! @◎IMDb链接  https://www.imdb.com/title/tt8001346/) z& N* G. x2 `4 {2 X% b) n
◎豆瓣评分 7.0/10 from 261 users/ s+ r! o5 R# [7 o9 F
◎豆瓣链接 https://movie.douban.com/subject/30238680/
& ~' P( z/ E; o4 a◎文件格式 x265 + DTS  
7 ]) m: m' y9 [& ~; T% ?1 A# T+ |3 K& S- s◎视频尺寸 3840 x 16061 ^" m( \# X& U0 Z' p
◎文件大小 1DVD 11.54 GiB & 14.16 GiB
7 T* p7 q4 w2 h! R& I◎片  长 1 h 24 min2 y. \: d) ^" T* U8 k
◎导  演 亚历山德拉·阿斯提耶尔 Alexandre Astier. Y( g" y4 n$ Z4 y
       Louis Clichy
% {4 J9 |+ u- d( O. s◎编  剧 亚历山德拉·阿斯提耶尔 Alexandre Astier6 K/ z5 U, k2 \  W" ^# Q. l
       勒内·戈西尼 René Goscinny
2 G: I& P' ~" M* a% ]. Y  H) V! j3 d' E! `3 P3 B: [! _+ ?
◎标  签 动画 | 法国 | 喜剧 | 法国动画 | 法国电影 | 搞笑 | 2018 | asterix; T" Q0 t+ @' z( S
' @5 c( k6 b4 W  W+ S
◎简  介
4 n: E1 @" I* `7 J
8 ~3 y) c8 m' P5 Z, I  在槲寄生采摘过程中摔倒后,德鲁伊·帕诺拉米克斯决定是时候保护村子的未来了。在阿斯特里克斯和奥贝利克斯的陪同下,他承诺周游高卢世界,寻找一位才华横溢的年轻德鲁伊来传递魔法药水的秘密。
  I9 k1 ]; _) i" x( ?' d" G5 [6 w$ W1 G, i# c+ W
  --雨果·范·赫尔佩" g7 \3 j* o% R, ~
1 |# t' D" S. V: K1 d4 n0 S
  Following a fall during mistletoe picking, Druid Panoramix decides that it is time to secure the future of the village. Accompanied by Asterix and Obelix, he undertakes to travel the Gallic world in search of a talented young druid to transmit the Secret of the Magic Potion .
% R) E; x4 ]1 ^) g3 J; Y( K. o
* H- h* B9 r5 m7 R# T* I  —Hugo Van Herpe
- ~  |# Z2 X$ p, P8 M$ Q2 A0 A/ o0 F2 x  `
◎获奖情况   - {& _( ?- Y! |5 p# U

5 f+ U& w0 P* [  第44届法国凯撒电影奖  (2019)
" Y" [; l' y/ O/ D9 ?; }- k. Q  最佳动画片(提名)
; K; |: I# ]& f  p0 u
8 N+ f$ r/ m" I$ ?
SWEATY BALLZ presents
% H/ N( o1 a9 g& C$ L* m2 ~) y- }4 A% F4 n
Asterix.The.Secret.of.the.Magic.Potion.2018.2160p.BluRayCD.x265.10bit.SDR.DTS-HD.MA.5.1-SWTYBLZ
2 i. Y% ~* T: e+ D' z9 A# fConverted from 10 bit HDR to 10 bit SDR using tripple mixed Hable-Reinhard-JJ per scene+frame analysis algorithm- B9 k! [8 x' a: R, F6 T* l: l
Screenshots are 8bit SDR
. j, [* ^0 i5 v. j: B1 L! `. a. P, Q8 ~
Video7 @. ]4 D5 t' j9 f8 t
ID : 1" P0 A* {, [5 e7 A* r/ E: U
Format : HEVC& D0 C* w% w; {: A3 Q. Q# B8 u; x
Format/Info : High Efficiency Video Coding8 \3 d% s& U, B  P* R- n
Format profile : Main 10@L5.1@High
; R" {* I  P* eCodec ID : V_MPEGH/ISO/HEVC
0 V( o% N: P. CDuration : 1 h 24 min
+ I0 `3 A/ B% ]$ P' TBit rate : 14.8 Mb/s
2 W7 X+ a; ?% k# [. IWidth : 3 840 pixels
6 `4 L- |$ C& A* o# `8 B, Q, [Height : 1 606 pixels6 [; |1 _6 b) |& g9 X
Display aspect ratio : 2.40:18 Y8 Y; h1 K* e* N: C* |
Frame rate mode : Constant
: M# q( a- Q4 w/ BFrame rate : 24.000 FPS0 C" x' B# W. y0 L6 K" z4 a
Color space : YUV
( F( Y& o; Z! t) vChroma subsampling : 4:2:0
: x0 I0 M! l6 d+ d$ E% c% |+ N3 `Bit depth : 10 bits/ P3 o2 H9 Q- X; n
Bits/(Pixel*Frame) : 0.100
5 B- O0 u' \3 x, pStream size : 8.79 GiB (76%)- p0 G& I) K) V& `6 {+ G5 w' N
Title : Asterix.The.Secret.of.the.Magic.Potion.2018.2160p.BluRaycd.x265.10bit.SDR.DTS-HD.MA.5.1-SWTYBLZ( x+ S  T5 x$ Q. \) t; w* E
Writing library : x265 3.0ed72af837053:[Windows][GCC 8.2.0][64 bit] 10bit. o) n, m$ W# I$ r1 h! w4 I. }- J' ^
Encoding settings : cpuid=1111039 / frame-threads=6 / numa-pools=40 / wpp / no-pmode / no-pme / no-psnr / no-ssim / log-level=2 / input-csp=1 / input-res=3840x1606 / interlace=0 / total-frames=122280 / level-idc=51 / high-tier=1 / uhd-bd=0 / ref=3 / no-allow-non-conformance / repeat-headers / annexb / aud / hrd / info / hash=0 / no-temporal-layers / no-open-gop / min-keyint=1 / keyint=24 / gop-lookahead=0 / bframes=6 / b-adapt=2 / b-pyramid / bframe-bias=0 / rc-lookahead=25 / lookahead-slices=4 / scenecut=40 / radl=0 / no-splice / no-intra-refresh / ctu=64 / min-cu-size=8 / no-rect / no-amp / max-tu-size=32 / tu-inter-depth=1 / tu-intra-depth=1 / limit-tu=0 / rdoq-level=0 / dynamic-rd=0.00 / no-ssim-rd / signhide / no-tskip / nr-intra=0 / nr-inter=0 / no-constrained-intra / strong-intra-smoothing / max-merge=2 / limit-refs=3 / no-limit-modes / me=1 / subme=2 / merange=57 / temporal-mvp / weightp / no-weightb / no-analyze-src-pics / deblock=1:1 / no-sao / no-sao-non-deblock / rd=3 / no-early-skip / rskip / no-fast-intra / no-tskip-fast / no-cu-lossless / no-b-intra / no-splitrd-skip / rdpenalty=0 / psy-rd=0.40 / psy-rdoq=0.00 / no-rd-refine / no-lossless / cbqpoffs=0 / crqpoffs=0 / rc=crf / crf=10.0 / qcomp=0.60 / qpstep=4 / stats-write=0 / stats-read=0 / vbv-maxrate=160000 / vbv-bufsize=160000 / vbv-init=0.9 / crf-max=0.0 / crf-min=0.0 / ipratio=1.40 / pbratio=1.30 / aq-mode=1 / aq-strength=0.40 / cutree / zone-count=0 / no-strict-cbr / qg-size=32 / no-rc-grain / qpmax=69 / qpmin=0 / no-const-vbv / sar=1 / overscan=0 / videoformat=5 / range=0 / colorprim=2 / transfer=2 / colormatrix=2 / chromaloc=0 / display-window=0 / max-cll=0,0 / min-luma=0 / max-luma=1023 / log2-max-poc-lsb=8 / vui-timing-info / vui-hrd-info / slices=1 / opt-qp-pps / opt-ref-list-length-pps / no-multi-pass-opt-rps / scenecut-bias=0.05 / no-opt-cu-delta-qp / no-aq-motion / no-hdr / no-hdr-opt / no-dhdr10-opt / no-idr-recovery-sei / analysis-reuse-level=5 / scale-factor=0 / refine-intra=0 / refine-inter=0 / refine-mv=0 / refine-ctu-distortion=0 / no-limit-sao / ctu-info=0 / no-lowpass-dct / refine-analysis-type=0 / copy-pic=1 / max-ausize-factor=1.0 / no-dynamic-refine / no-single-sei / no-hevc-aq / qp-adaptation-range=1.00
) U$ R1 b& v2 }0 c7 NDefault : Yes
9 _$ k0 |' @5 o& \+ ]+ C) [& VForced : No, M/ a2 p3 z, b
3 e8 H. A; |; o/ O1 z. z, i# ?8 q
Audio #1+ u; F. q. n" _! u
ID : 2
. N% {, s9 V* u. a2 o2 D/ v4 {3 ^1 t8 |ID in the original source medium : 4353 (0x1101)
& z/ C  @  O' D* ~Format : DTS XLL; Q. \: w0 q1 R3 P
Format/Info : Digital Theater Systems! {% K$ Q, |! c- F, ]
Commercial name : DTS-HD Master Audio
8 @6 Y+ {! `+ M! QCodec ID : A_DTS
& O2 Q5 \2 h7 p+ l' RDuration : 1 h 24 min: ]& \* X9 d/ z; f/ E7 G5 U$ i
Bit rate mode : Variable
" ]9 i, r8 m& R) g* c1 _% g1 w' zBit rate : 3 901 kb/s
% ^" h. L) \+ e8 F2 ~7 J! X8 FChannel(s) : 6 channels$ N0 w" E& c6 T% u- t
Channel layout : C L R Ls Rs LFE9 R1 n4 f2 n. ?; x: P- _* n! a8 z
Sampling rate : 48.0 kHz
2 {6 \: y) ^; q& _Frame rate : 93.750 FPS (512 SPF)
  }! W9 C' r* A. nBit depth : 24 bits/ I  x; m! j8 D
Compression mode : Lossless
2 v0 M( T5 [* @* `- YStream size : 2.31 GiB (20%)$ @: z' V3 J: i+ [. |9 W8 n
Title : Asterix.The.Secret.of.the.Magic.Potion.2018.2160p.BluRaycd.x265.10bit.SDR.DTS-HD.MA.5.1-SWTYBLZ
' v: \: ^* A( c  H8 q/ ], zLanguage : French
. q: n; \0 Q4 t7 h" l, B; [Default : Yes2 @0 o3 u$ }) r3 u, S
Forced : No: y% Q. f# {; t. p
Original source medium : Blu-ray1 g9 E; j: T( a  z

; v6 c* |- N1 f* `8 mAudio #2
! G, R$ R: n2 `7 |$ c8 qID : 3# y2 H% l0 n4 Y4 w' `
Format : AC-3+ C" h7 `/ I  {# G! ^) [: H
Format/Info : Audio Coding 3. h" p: S' C, w) D7 B8 C. C' F
Commercial name : Dolby Digital- K6 F, k6 U; `/ K- c$ G9 u
Codec ID : A_AC3/ B7 n& \+ i# w( _
Duration : 1 h 24 min1 v, ]' H0 w; A5 y
Bit rate mode : Constant
3 W9 @* q* w" Q6 ABit rate : 640 kb/s! Z9 I( u  ^5 y& ^
Channel(s) : 6 channels
1 k$ Z& J9 S# eChannel layout : L R C LFE Ls Rs" v8 z6 b$ D$ X+ F! e
Sampling rate : 48.0 kHz( H$ J+ k" C/ j# I- k. D' B: u
Frame rate : 31.250 FPS (1536 SPF)
; W8 X- A  h: QCompression mode : Lossy9 o2 `- R( a. ?$ M' J" S& T
Stream size : 389 MiB (3%)
( ]; b3 m# @' kTitle : Asterix.The.Secret.of.the.Magic.Potion.2018.2160p.BluRaycd.x265.10bit.SDR.DTS-HD.MA.5.1-SWTYBLZ
  v; a* q4 E8 \$ C' `Language : French
4 ^5 I& i# t$ [8 G6 x- A* jService kind : Complete Main% V- k. A% {# G8 L
Default : No
. c0 I; u, o6 s. V( [Forced : No; e+ o2 w( q8 d  C

( h' v9 ?/ {# p8 N6 {  MText #1
; ~( d: x% T& ~; aID : 4# [# ^" G& ~1 m! a( i2 X0 z8 V$ v
Format : UTF-8$ f0 m1 H. Q9 ]4 x
Codec ID : S_TEXT/UTF8& o; d1 u2 ]  b. M, I' E
Codec ID/Info : UTF-8 Plain Text
/ W) T+ G' H3 ?6 ]Duration : 1 h 19 min
: z# p/ S8 {$ m& tBit rate : 75 b/s
6 o2 k7 S4 E' z& ]Count of elements : 1107
; m! B0 C8 G$ e2 c- UStream size : 44.3 KiB (0%)3 r* G4 G1 r2 V% I2 Q: |9 [
Title : English-SRT
# V# o0 f2 t1 R( T( @2 E3 gLanguage : English0 B+ G+ H, _- S: n& n$ m
Default : Yes- Q! t& N) _  M2 b; A- S& w8 Z3 t
Forced : Yes  Q; |) r7 ]; D
7 l- l! F" X0 g
Text #2
7 V% L! Q0 y) t" F9 n+ N6 y$ x* tID : 5
$ A7 A! d! K2 aFormat : UTF-8  a  R0 f7 G1 O6 }' R
Codec ID : S_TEXT/UTF8
& m" j0 h/ t& k8 N+ Y/ q3 q" @Codec ID/Info : UTF-8 Plain Text
9 i6 x0 u: S2 P7 yDuration : 1 h 22 min
  V9 S5 f' b: l( m5 `4 sBit rate : 82 b/s
; t: S% F: _% b% L+ Y, ?Count of elements : 1333+ t) Y$ W3 s2 b0 D2 G8 t
Stream size : 49.9 KiB (0%)# s, L( ?/ g0 ?, C- w& u+ A1 C  q* T
Title : English-SDH-SRT* P0 ?- H# A- b9 w& Z
Language : English) \! m9 e9 V/ n3 x, k
Default : No$ |( ]- l" s- @
Forced : No
2 M7 u9 i; A+ I" f
6 D) \8 y5 w# [Text #3
* G1 W# W5 x4 j2 T  CID : 6
6 q; C8 e( }( |1 T( w1 d! Z6 SID in the original source medium : 4768 (0x12A0)
7 a- P! ?7 ]2 e9 O. SFormat : PGS
; d: |0 J) `" J  i$ F( rMuxing mode : zlib/ v; }/ I! N. p8 M2 W
Codec ID : S_HDMV/PGS
% l# W+ i2 H: `# `) ~8 ^+ f* ^Codec ID/Info : Picture based subtitle format used on BDs/HD-DVDs
' Y& ]1 I' m& Q! c0 U; @6 RDuration : 1 h 24 min
, N7 a  J# E0 h3 G& i7 GBit rate : 41.0 kb/s
4 N) ]6 z6 p& h" v* r4 d0 SCount of elements : 3232
# z" B7 ~8 o. d1 H" u' K3 z0 NStream size : 24.8 MiB (0%)! ?- K% E1 ]% V* `6 S8 B2 |
Title : French-PGS6 l$ a+ D3 L1 [% j1 s
Language : French. j, z1 s% e+ r" {6 Q$ T7 f
Default : No+ n5 A$ r- \  m; {
Forced : No
0 Q  r5 J8 R/ {- a& P1 |5 c) ?7 qOriginal source medium : Blu-ray
/ X6 c2 L. ?: r! f+ y4 }4 x, m# R8 \% W" K1 `- U
Menu
- @8 v5 b6 J7 m# C; w. g00:00:00.000 : en:Chapter 01
. r: W  w/ i8 l0 A00:06:16.041 : en:Chapter 02
( m' {4 C7 O- k00:15:42.875 : en:Chapter 03
- ?7 _5 _# d+ G8 Q+ a00:21:45.000 : en:Chapter 04+ C5 U) O# Q6 V
00:28:47.791 : en:Chapter 05
+ f, S! y( k1 q- v3 [) f3 d00:35:00.000 : en:Chapter 066 L4 Z8 t, D0 _$ ^" U! G
00:42:39.458 : en:Chapter 07
* `% O; m8 G1 c# n00:50:30.333 : en:Chapter 08& G2 S7 \  J  @4 q' [
00:57:33.708 : en:Chapter 093 |& ~& M' j' R$ ^3 a, g& y
01:04:05.458 : en:Chapter 10
0 U2 V9 |/ n6 w/ p6 D01:13:31.750 : en:Chapter 11
/ o: [, M" j8 w: Z01:21:07.625 : en:Chapter 12
SWEATY BALLZ presents  U3 }! `  x5 h/ j
8 b% f/ W, G. V
Asterix.The.Secret.of.the.Magic.Potion.2018.2160p.BluRaycd.x264.8bit.SDR.DTS-HD.MA.5.1-SWTYBLZ2 e! n  C/ J( q; @% g/ a* [" v
Converted from 10 bit HDR to 8 bit SDR using tripple mixed Hable-Reinhard-JJ per scene+frame analysis algorithm
( y2 K9 }: {$ m$ z# K0 M& w6 w5 l! t5 u4 T  l, k6 ?) W
Video
8 N/ W7 I0 J) A3 y* ?% ]) UID : 1
6 p' i9 h% @; E7 FFormat : AVC
4 d% r& _* V/ Q' ?/ @9 }Format/Info : Advanced Video Codec+ I. \# |+ z4 c) C
Format profile : High@L5.1
; I: {& ]! r( CFormat settings : CABAC / 7 Ref Frames
; B( y" I% J; K  R+ C) MFormat settings, CABAC : Yes9 S- W# ]# @/ P
Format settings, Reference frames : 7 frames. S9 d* W* c) W1 E/ n' g
Codec ID : V_MPEG4/ISO/AVC3 ?/ Z8 }8 e  i
Duration : 1 h 24 min
& h7 G/ C9 ^( n5 r  R/ yBit rate : 19.2 Mb/s3 {' l0 e+ o4 s- ~
Width : 3 840 pixels
- E8 F- K, j) T7 _9 Y6 xHeight : 1 606 pixels' ?/ v3 B* R& n  M  t
Display aspect ratio : 2.40:1: C8 [7 F( `! q. t0 d
Frame rate mode : Constant
0 e6 B- R. L) P. I# R) G: ]6 HFrame rate : 24.000 FPS
6 H0 w7 R/ N1 G! \* E' UColor space : YUV. [1 f. d2 q; O* \( F: U; I
Chroma subsampling : 4:2:0
' `& k2 z2 x& l  a; V* @Bit depth : 8 bits+ ?, u. @: m& c
Scan type : Progressive
/ p5 ^7 L8 A; s! n+ Z" FBits/(Pixel*Frame) : 0.130
* Y* g+ C+ i. L! HStream size : 11.4 GiB (81%)
& `0 j* H0 R9 fTitle : Asterix.The.Secret.of.the.Magic.Potion.2018.2160p.BluRaycd.x264.8bit.SDR.DTS-HD.MA.5.1-SWTYBLZ( X5 ?% \% q. u; s$ D
Writing library : x264 core 157 r2935 545de2f
! p* m. B' U) z( Z0 M3 I3 ?Encoding settings : cabac=1 / ref=7 / deblock=1:1:1 / analyse=0x3:0x113 / me=umh / subme=10 / psy=1 / psy_rd=0.40:0.00 / mixed_ref=1 / me_range=48 / chroma_me=1 / trellis=2 / 8x8dct=1 / cqm=0 / deadzone=21,11 / fast_pskip=1 / chroma_qp_offset=-2 / threads=48 / lookahead_threads=5 / sliced_threads=0 / nr=0 / decimate=0 / interlaced=0 / bluray_compat=0 / constrained_intra=0 / bframes=5 / b_pyramid=2 / b_adapt=2 / b_bias=0 / direct=3 / weightb=1 / open_gop=0 / weightp=2 / keyint=250 / keyint_min=24 / scenecut=40 / intra_refresh=0 / rc_lookahead=50 / rc=crf / mbtree=1 / crf=12.0 / qcomp=0.60 / qpmin=0 / qpmax=69 / qpstep=4 / ip_ratio=1.40 / aq=1:0.60
- L, ?/ x- S% O7 }) O5 B: eDefault : Yes/ ?: i0 l5 R# Z) u  V
Forced : No
, n$ h8 u6 f; i7 @- S
) G; O0 l# s4 f4 ZAudio #1
* \. z4 U0 C) N/ ?- V5 D2 b8 K" WID : 2
! F, P5 t: D: N- k2 XID in the original source medium : 4353 (0x1101)
5 q! E7 G0 ^# D. H, MFormat : DTS XLL9 d% e5 a! _/ k7 k# f2 Z2 o7 G
Format/Info : Digital Theater Systems
% j) ~& O9 [3 B1 {4 i* k+ V2 P/ F' fCommercial name : DTS-HD Master Audio
; D* S) v6 ^' C! vCodec ID : A_DTS
# L1 H6 ]" ]$ NDuration : 1 h 24 min( q' u# Q$ v+ Q% E& n( ^
Bit rate mode : Variable( v2 F2 Q# N: D# v0 ]0 p
Bit rate : 3 901 kb/s' D# k4 Z% J# M1 j  m& i
Channel(s) : 6 channels
: v& ^; `$ w( }. C' }. Q$ o* J3 u! ]Channel layout : C L R Ls Rs LFE$ _* B$ Z* K" A: U# X9 L
Sampling rate : 48.0 kHz, }( ]  h( H: \- K0 m2 P
Frame rate : 93.750 FPS (512 SPF)
& u: \; N! F+ |& _" [9 S. kBit depth : 24 bits* C3 N4 \1 Z3 f; f5 i; r* T
Compression mode : Lossless5 s" b/ i* K7 E: f3 K! [
Stream size : 2.31 GiB (16%)& Y6 p# O$ @& u% A4 o
Title : Asterix.The.Secret.of.the.Magic.Potion.2018.2160p.BluRaycd.x264.8bit.SDR.DTS-HD.MA.5.1-SWTYBLZ
0 |5 w& F& ~) S# P/ [$ NLanguage : French
& l7 o. q$ k) ~+ |: x) Y4 v& T. R# i9 aDefault : Yes
3 k: T/ T5 L' e6 H9 [' rForced : No3 K, P) J  D% k
Original source medium : Blu-ray
+ J9 p( e( C5 G# _* R  C* |3 _
0 t' S) ~) }* J9 O) {; QAudio #2# B6 y' ?4 A; d+ w* z
ID : 3/ I* M6 q, P0 C  Z3 b7 f2 u
Format : AC-3
% Y) y6 c1 {( \Format/Info : Audio Coding 3! N  R( k% f$ l
Commercial name : Dolby Digital4 f& L2 P- T: ?
Codec ID : A_AC30 P, i  h% x- d/ V& F% A
Duration : 1 h 24 min& }- Z& u; ]( B- Z4 S' ~- E
Bit rate mode : Constant2 i  V$ T5 J& |* o) _
Bit rate : 640 kb/s
. D" ^& m  t  J4 g. IChannel(s) : 6 channels
9 l8 p' F* Z7 t. g# i1 PChannel layout : L R C LFE Ls Rs
1 q, T' ]( o$ t: OSampling rate : 48.0 kHz8 K, ^. T) d/ n, }' d
Frame rate : 31.250 FPS (1536 SPF)/ Y6 z# _5 m+ f9 G: b# [. [. Q: u
Compression mode : Lossy: \" H( }6 w0 a2 Y; ?9 }5 f( I. _- q
Stream size : 389 MiB (3%)
5 O* P' M/ C# U9 E, WTitle : Asterix.The.Secret.of.the.Magic.Potion.2018.2160p.BluRaycd.x264.8bit.SDR.DTS-HD.MA.5.1-SWTYBLZ# i/ Q* f' O' ~( a: j# H
Language : French( a6 Z5 R- r: V1 Z( h0 N0 n
Service kind : Complete Main  S6 C8 m5 j" h" R! \$ [, i
Default : No- Z2 T' D" F# q2 G' x+ t
Forced : No
( d0 z$ s2 H. o' b+ R
4 r) g3 j* p" f" SText #1/ d; s4 P* x% e  P) n, U
ID : 4: C# C/ ?9 J% G
Format : UTF-8
9 E2 X; A: w- e, l# NCodec ID : S_TEXT/UTF8( {4 a# x) c8 h  K- B
Codec ID/Info : UTF-8 Plain Text( ~; o* i) K9 {2 i
Duration : 1 h 19 min
$ Z, b+ c. b/ m, y6 |! e* R" h' JBit rate : 75 b/s
. M5 e; H8 K/ K5 q3 _1 c( ?Count of elements : 1107
7 {" O2 p8 D. D+ w0 V+ S0 m8 b, x8 GStream size : 44.3 KiB (0%)
0 v: M0 P( E! qTitle : English-SRT
3 I/ i5 E! D2 ?3 R) G0 \& ]Language : English
' w! d7 i1 G% C) N( p0 ]Default : Yes, |/ v2 X2 ~8 |$ p7 n
Forced : Yes
" S4 t) {) v0 d5 |( d
7 D/ n! H1 c5 ?0 ~% ~Text #2
2 M% Q' I0 a: E+ L. w# gID : 5" J: }$ V" _& U6 [* O! E
Format : UTF-8
# I0 y) y: w. B& {! O6 N% e" cCodec ID : S_TEXT/UTF8
! q) Z( Z! `* b2 G; xCodec ID/Info : UTF-8 Plain Text  F# {& Q; F4 C# p: r  j% k! w4 J
Duration : 1 h 22 min6 ?2 q0 B+ h, R0 A
Bit rate : 82 b/s
) Q, V! @: E7 B1 J- m2 A; T& l# @2 yCount of elements : 1333' a1 ^' R+ d/ |
Stream size : 49.9 KiB (0%)
6 M" a( H6 T* A" mTitle : English-SDH-SRT& t5 ^% Z9 K+ c1 I% _6 [3 X& Z
Language : English
1 y. s( I2 b9 a3 NDefault : No  w7 y/ o4 S* h$ G. G% }" e' t
Forced : No, Q$ k; u+ C. z* k$ o# q2 F

  u& z# p0 ]: X0 G! B4 b2 {/ IText #34 E8 k  \6 u2 Q8 s' U: Z; T! C) b
ID : 6
! t* l' P9 d! N8 f5 N' J! ^! V8 R& i0 ^ID in the original source medium : 4768 (0x12A0)- ^3 q" ]9 H5 b/ W8 p
Format : PGS% Z. G5 J. v8 R6 N# x  o  l* i: W: C
Muxing mode : zlib
6 O6 X2 \- H7 ?3 m9 T- `9 _Codec ID : S_HDMV/PGS
7 n( r9 T$ @! aCodec ID/Info : Picture based subtitle format used on BDs/HD-DVDs! |( f- }5 p" f( B- f
Duration : 1 h 24 min/ m) C, J% j/ o9 K  s
Bit rate : 41.0 kb/s
. f1 o# K" w0 @" h3 C3 WCount of elements : 3232
3 l- z# R! d( h7 K* N% N% z" eStream size : 24.8 MiB (0%)/ \1 V% l/ v/ `- e
Title : French-PGS
8 `- u% U) w4 O/ bLanguage : French+ V3 Q) E9 t9 L0 H# H4 g5 M% P
Default : No1 J4 ?5 N, |9 `: E4 }' A/ Y. @
Forced : No
: J5 s: a. B/ y% a1 b! ]$ R) fOriginal source medium : Blu-ray
' F! H( n4 }' d7 ~
0 |0 i9 _! C' I& x  L4 PMenu/ D; u4 a* j, P! m" y( @; k
00:00:00.000 : en:Chapter 01! l$ Q+ ?: _8 ^% P
00:06:16.041 : en:Chapter 02
1 I/ W" ^' u, f' ?  E$ p, K00:15:42.875 : en:Chapter 03
0 T3 c3 V* U( `' l0 t# }00:21:45.000 : en:Chapter 04
! [4 G* v! A8 T/ ~00:28:47.791 : en:Chapter 05: _$ s% G* o8 [5 r- P4 C) ?% `! A
00:35:00.000 : en:Chapter 06: N# n4 U" a/ l8 [
00:42:39.458 : en:Chapter 07/ `4 ~+ E# \1 k' T, `
00:50:30.333 : en:Chapter 08
, i& }# O. r0 q1 A( s* J; J7 X6 r00:57:33.708 : en:Chapter 095 s- z# f) P9 H! V- R
01:04:05.458 : en:Chapter 10; y6 q4 W7 g* p
01:13:31.750 : en:Chapter 11
( U- f" g1 d* m# U# f) }01:21:07.625 : en:Chapter 12

9 U: e" u/ `- R
游客,查看本帖隐藏内容请回复 | 加入VIP贵宾可免积分免回复 了解详情 | 还不是会员:点击获取邀请码 Invitation Code

本版积分规则

小黑屋|Archiver|蓝光电影资源网

GMT+8, 2021-4-20 18:24

快速回复 返回顶部 返回列表