BluRayCD Forum

 找回密码
 立即注册【分享大片】

QQ登录

只需一步,快速开始

查看: 10|回复: 0
收起左侧

[2160P极清] 阿斯泰里克斯:魔法药水的秘密 [4K HDR高码版] Asterix The Secret of the Magic Potion 2018 FRENCH 2160p UHD BluRaycd x265 10bit HDR DTS-HD MA 5.1-SWTYBLZ 4.47GB

[复制链接]

5345

主题

5519

帖子

7万

积分

Post Share

金币
11847 枚
体力
18671 点

卓越贡献勋章

黄金嫖客 发表于 2021-2-5 05:31:54 | 显示全部楼层 |阅读模式
9 e+ j0 E, w( `" B; ?( F9 |

; o% Q  H5 H: {6 |2 e+ [8 F8 B7 R◎片  名 Astérix: Le secret de la potion magique / Asterix - The Secret of the Magic Potion
4 H: W% z4 ^! K$ b/ y◎译  名 阿斯泰里克斯:魔法药水的秘密9 h# D* I3 C) ~8 R4 \7 S2 z
◎年  代 2018
( O; v  ]+ m0 E; q◎产  地 法国
- G  B2 \: R6 s; u( E' W6 e. b◎类  别 动画7 d- _! W- `. |" e1 g0 _' Q8 B1 ?; m
◎语  言 法语/拉丁语 Latin
& V/ |5 \: Z* i! m  D, Z$ H# C◎上映日期 2018-12-05(法国)
6 x, z# _( I. Z: h◎IMDb评分  6.7/10 from 8,109 users$ N, i6 _% G3 O8 A
◎IMDb链接  https://www.imdb.com/title/tt8001346/+ h- ?  U3 z) j: j' `. f0 ]
◎豆瓣评分 7.0/10 from 250 users
, |- q$ {( l4 D1 `0 R, ?+ k◎豆瓣链接 https://movie.douban.com/subject/30238680/
  L7 l/ ^  G( n8 t) i, N5 I( M◎文件格式 x265 + DTS  
+ r3 g# _, \6 |$ z; p6 [. c/ x◎视频尺寸 3840 x 16068 ]+ M9 r' d# G- W0 H6 H
◎文件大小 1DVD 4.47 GiB
5 Z; N" f" _, o- S- T  U◎片  长 1 h 24 min8 T) ]1 P$ @! F0 u' O) l! K* Q
◎导  演 亚历山德拉·阿斯提耶尔 Alexandre Astier
2 I) K- ~5 {. [       Louis Clichy! o0 l+ c' F* z: x6 x
◎编  剧 亚历山德拉·阿斯提耶尔 Alexandre Astier
  c6 y6 ]9 I' f       勒内·戈西尼 René Goscinny; F: D  D7 C7 [: W2 r8 g
+ K0 D6 {1 e9 \) g
◎标  签 动画 | 法国 | 喜剧 | 法国动画 | 法国电影 | 搞笑 | 2018 | asterix9 `, o3 x' ?7 g5 \' n" P( H

; @5 T+ M4 C$ i- e# Y& k7 T◎简  介/ i9 F0 }9 ^+ x
- x) y  g$ q0 I. y: V! I9 ~
  在槲寄生采摘过程中摔倒后,德鲁伊·帕诺拉米克斯决定是时候保护村子的未来了。在阿斯特里克斯和奥贝利克斯的陪同下,他承诺周游高卢世界,寻找一位才华横溢的年轻德鲁伊来传递魔法药水的秘密。7 b; I' s8 D1 ?0 |( p& z, a

5 x4 n3 o- v1 y9 E; P  --雨果·范·赫尔佩' _% b' P$ s0 F
7 L1 O- E. N* G$ R! t
  Following a fall during mistletoe picking, Druid Panoramix decides that it is time to secure the future of the village. Accompanied by Asterix and Obelix, he undertakes to travel the Gallic world in search of a talented young druid to transmit the Secret of the Magic Potion.
5 R9 a. N$ d' A+ M; j5 e, I1 L8 B! y+ c
◎获奖情况   6 l7 W: G% M4 ?5 T2 l0 Z" h! d
* D7 n8 `9 s. P* R
  第44届法国凯撒电影奖  (2019)
) }3 D$ b( T# }( C  最佳动画片(提名)
1 g! q! M" e) S5 x3 S4 p3 y& W- ~" x, E9 S0 N
Video. M& H8 O  c6 Y3 Z* W9 x
ID : 1
3 @& e$ Z; T( L4 t0 \Format : HEVC6 I, U# _( ]4 T4 @" K: I
Format/Info : High Efficiency Video Coding2 G3 {+ |" \& J$ ~+ O
Format profile : Main 10@L5.1@High
+ G5 U6 M' o3 Y$ }# B, s* c% gHDR format : SMPTE ST 2086, HDR10 compatible) W9 ^3 a/ i: D
Codec ID : V_MPEGH/ISO/HEVC' u4 T5 x, [3 _% J, w
Duration : 1 h 24 min
8 D2 Z2 N# R0 n3 D5 g2 {Bit rate : 2 942 kb/s
3 X4 L) L1 o( I* K8 G  ]8 p! tWidth : 3 840 pixels
7 j1 b6 U# d+ x( F) oHeight : 1 606 pixels
4 ]- y- d& m8 ?5 s7 wDisplay aspect ratio : 2.40:1
+ W# F! m- f7 v! S4 V3 P! }5 q0 \Frame rate mode : Constant
7 u2 e. l3 b) ^% d3 AFrame rate : 24.000 FPS
: H" a& f& n- o4 xColor space : YUV) v" }3 D: G6 ~& Z( i
Chroma subsampling : 4:2:0 (Type 2)  i# A- i4 v4 k+ T, T
Bit depth : 10 bits
0 }6 r: o! Y; [3 q8 fBits/(Pixel*Frame) : 0.020
/ P9 c6 Y( K/ g0 r# w8 BStream size : 1.75 GiB (39%)# _3 J9 b) V6 g+ _. m
Title : Asterix.The.Secret.of.the.Magic.Potion.2018.FRENCH.2160p.UHD.BluRayCD.x265.10bit.HDR.DTS-HD.MA.5.1-SWTYBLZ
5 \5 z1 Y0 E) Z5 Z7 o  JWriting library : x265 3.0ed72af837053:[Windows][MSVC 1900][64 bit] 10bit
: K1 P) y+ C, E- G0 LEncoding settings : cpuid=1176575 / frame-threads=5 / numa-pools=36 / wpp / no-pmode / no-pme / no-psnr / no-ssim / log-level=2 / input-csp=1 / input-res=3840x1606 / interlace=0 / total-frames=122280 / level-idc=51 / high-tier=1 / uhd-bd=0 / ref=4 / no-allow-non-conformance / repeat-headers / annexb / aud / hrd / info / hash=0 / no-temporal-layers / no-open-gop / min-keyint=24 / keyint=240 / gop-lookahead=0 / bframes=4 / b-adapt=2 / b-pyramid / bframe-bias=0 / rc-lookahead=25 / lookahead-slices=4 / scenecut=40 / radl=0 / no-splice / no-intra-refresh / ctu=64 / min-cu-size=8 / rect / no-amp / max-tu-size=32 / tu-inter-depth=1 / tu-intra-depth=1 / limit-tu=0 / rdoq-level=2 / dynamic-rd=0.00 / no-ssim-rd / signhide / no-tskip / nr-intra=0 / nr-inter=0 / no-constrained-intra / no-strong-intra-smoothing / max-merge=3 / limit-refs=3 / limit-modes / me=3 / subme=3 / merange=57 / temporal-mvp / weightp / no-weightb / no-analyze-src-pics / deblock=-3:-3 / no-sao / no-sao-non-deblock / rd=4 / no-early-skip / rskip / no-fast-intra / no-tskip-fast / no-cu-lossless / no-b-intra / no-splitrd-skip / rdpenalty=0 / psy-rd=2.00 / psy-rdoq=1.00 / no-rd-refine / no-lossless / cbqpoffs=0 / crqpoffs=0 / rc=crf / crf=17.0 / qcomp=0.60 / qpstep=4 / stats-write=0 / stats-read=0 / vbv-maxrate=160000 / vbv-bufsize=160000 / vbv-init=0.9 / crf-max=0.0 / crf-min=0.0 / ipratio=1.40 / pbratio=1.30 / aq-mode=2 / aq-strength=1.00 / cutree / zone-count=0 / no-strict-cbr / qg-size=32 / no-rc-grain / qpmax=69 / qpmin=0 / no-const-vbv / sar=1 / overscan=0 / videoformat=5 / range=0 / colorprim=9 / transfer=16 / colormatrix=9 / chromaloc=1 / chromaloc-top=2 / chromaloc-bottom=2 / display-window=0 / master-display=G(13250,34500)B(7500,3000)R(34000,16000)WP(15635,16450)L(10000000,50) / max-cll=435,290 / min-luma=0 / max-luma=1023 / log2-max-poc-lsb=8 / vui-timing-info / vui-hrd-info / slices=1 / no-opt-qp-pps / no-opt-ref-list-length-pps / no-multi-pass-opt-rps / scenecut-bias=0.05 / no-opt-cu-delta-qp / no-aq-motion / hdr / hdr-opt / no-dhdr10-opt / no-idr-recovery-sei / analysis-reuse-level=5 / scale-factor=0 / refine-intra=0 / refine-inter=0 / refine-mv=0 / refine-ctu-distortion=0 / no-limit-sao / ctu-info=0 / no-lowpass-dct / refine-analysis-type=0 / copy-pic=1 / max-ausize-factor=1.0 / no-dynamic-refine / no-single-sei / no-hevc-aq / qp-adaptation-range=1.00
7 h# O# i5 q+ d; K  \0 ~Language : French
  A) H& J. b8 z5 _) ]Default : Yes; M+ _! S& t4 e9 d
Forced : No
8 k4 f0 E* J' L* q) M9 BColor range : Limited
( M+ F0 b8 G8 a! H2 KColor primaries : BT.2020; i5 I$ ?4 X* Z) G7 G6 U2 X
Transfer characteristics : PQ
5 o9 ?9 t# h7 j8 [) oMatrix coefficients : BT.2020 non-constant
* B* O; T3 w, n( g7 |8 qMastering display color primaries : Display P3. l2 d! J6 r5 p& d" ?& z1 R2 x! C
Mastering display luminance : min: 0.0050 cd/m2, max: 1000 cd/m24 b6 o  U$ B4 L* u3 e4 E
Maximum Content Light Level : 435 cd/m23 s2 k# m  [8 P$ W$ V% H6 B: E9 l
Maximum Frame-Average Light Level : 290 cd/m2
' j' w4 Q5 _( ]" u$ O& a" B  t3 ~& D/ {! \" G+ V3 g: B8 V5 ]
Audio #1
3 Z# c3 ]. C- GID : 2
- D' ?0 U. J4 n! `ID in the original source medium : 4353 (0x1101); e# h+ p7 h" r1 u
Format : DTS XLL" Z- E! K# C: z3 h0 ^# e9 M/ [
Format/Info : Digital Theater Systems
( L7 D2 k1 L' L/ h7 kCommercial name : DTS-HD Master Audio4 r  ?% `+ s$ N8 C
Codec ID : A_DTS! F2 z, V+ }" y1 C9 L9 G
Duration : 1 h 24 min: q. a% e% U5 U
Bit rate mode : Variable8 _6 x; n# e/ o: c
Bit rate : 3 901 kb/s  W8 ]1 D# o8 Z! O
Channel(s) : 6 channels
8 K/ T, I  f: S" D. LChannel layout : C L R Ls Rs LFE* N+ f, n: B2 X2 b
Sampling rate : 48.0 kHz
  Q( I9 B& Q3 ?0 r$ `; fFrame rate : 93.750 FPS (512 SPF)
- S- d; o0 y# ~' e- L& T2 _$ L/ qBit depth : 24 bits! h- F7 @2 M) u& g# F. `4 H
Compression mode : Lossless
9 g: p0 ?# ]' s6 B  g! EStream size : 2.31 GiB (52%)
, X% d. a1 f& I% H8 `) k7 rTitle : Asterix.The.Secret.of.the.Magic.Potion.2018.FRENCH.2160p.UHD.BluRaycd.x265.10bit.HDR.DTS-HD.MA.5.1-SWTYBLZ
9 f3 b8 b5 q' x! `* MLanguage : French/ h: {) ]& c' ~$ |! C3 r0 a3 Y/ _
Default : Yes; j, S3 `9 ]$ Y* w
Forced : No
  D" x/ j' I3 E) l* L8 {Original source medium : Blu-ray( f+ L3 g  O- B/ S/ e# d

& M- @2 H. f7 D$ [0 oAudio #2& E% }" G$ ?: r7 j, _
ID : 3
. T: R# a2 \+ B; [/ V# u) aFormat : AC-3
9 d( [% s* O" U/ P: z5 N# BFormat/Info : Audio Coding 3. y& t/ q8 X! v- r; [, b
Commercial name : Dolby Digital
& d* ]9 z. X5 A  |7 uCodec ID : A_AC3" U: f8 F; ^) C! @/ S* O5 T6 F
Duration : 1 h 24 min
+ \! |% _& }: o# u2 BBit rate mode : Constant
! d1 C# R2 a; b; W9 w& P7 g& OBit rate : 640 kb/s
- ~; W, N4 p7 LChannel(s) : 6 channels, C5 i: ?* e6 r( l
Channel layout : L R C LFE Ls Rs, l: k& H9 [) g" B; ~* s
Sampling rate : 48.0 kHz: g$ ]- v1 m8 ?- U' I
Frame rate : 31.250 FPS (1536 SPF)
1 H8 \1 T2 o3 E  u  C% `$ A  t0 g, }) ]2 RCompression mode : Lossy
4 ~+ U7 {7 S; l! a6 c, _" FStream size : 389 MiB (9%)
0 I% K8 ]  \5 |% e" H- ~8 YTitle : Asterix.The.Secret.of.the.Magic.Potion.2018.FRENCH.2160p.UHD.BluRaycd.x265.10bit.HDR.DTS-HD.MA.5.1-SWTYBLZ- F! n) F7 l) ~) _  c. U
Language : French+ y6 s" B9 l& o6 ]
Service kind : Complete Main
" n  U4 e/ `' H2 E( Y0 I  w) fDefault : No3 E" L, z, Z/ A. e! O
Forced : No
: H7 H3 d- U6 o6 t0 G- `  c& b; u$ }2 R
Text #1, u$ @2 d, b% c( \
ID : 4
, t; `: M3 i) K0 }( X4 c; x$ ?Format : UTF-8
' I2 G7 ]* S% w9 U* i0 j: HCodec ID : S_TEXT/UTF8
! _+ Q+ w% D+ f  E/ lCodec ID/Info : UTF-8 Plain Text* c0 u& M' d7 Z: E
Duration : 1 h 19 min% t) g, b" Z3 l  s
Bit rate : 75 b/s
; v1 J/ u( K7 S; q6 KCount of elements : 1107
; Y; e3 g! c) ]" B6 l7 r; AStream size : 44.3 KiB (0%)
+ ^& ^: h' f2 A' jTitle : English-SRT
, @. j  s4 C% FLanguage : English
" |; D" e2 n, kDefault : Yes
3 M+ D% H8 t" x' t5 [. \Forced : Yes
6 K% P; u) O4 V; Q" W: Z* P$ C
) J' g" x) s9 n, h$ DText #2
" c/ C& n. e% s+ v0 o: }4 q# T$ h, V# xID : 5
' u6 i; E' i& D% QFormat : UTF-8
& D6 c5 ^; [4 t4 q1 ICodec ID : S_TEXT/UTF8( [6 M% m  O2 y. w& h8 s
Codec ID/Info : UTF-8 Plain Text
* U; ^& w- E0 Z* t# j5 o: w" tDuration : 1 h 22 min
: q! C1 t& Z( j/ B" T' uBit rate : 82 b/s7 V6 \2 J, v$ Y  x4 `
Count of elements : 1333
* V4 @: c5 X: P' x5 T& c, ~Stream size : 49.9 KiB (0%)0 X( P3 }6 a8 O) i1 ^: ?
Title : English-SDH-SRT: c; Q4 {2 T& ~6 z* J5 \
Language : English
3 Z3 |. D: `6 `- h* ZDefault : No4 `' _- h: w1 ^1 M
Forced : No1 p. Z7 r" k. X3 n

; h! L$ v0 e# E* UText #3; y/ j% ?5 U8 b+ s& [! u
ID : 6- z) \8 f- t" m8 g
ID in the original source medium : 4768 (0x12A0)# h( V) n' t8 k% `* T) D
Format : PGS
% J+ K- ^8 t9 Z$ `, ~( T& {Muxing mode : zlib' \/ ~7 g0 k( D
Codec ID : S_HDMV/PGS
: }" _: d; C) C7 ?" Z3 |2 M8 y8 OCodec ID/Info : Picture based subtitle format used on BDs/HD-DVDs
. n. J/ E6 a" a  M3 m: pDuration : 1 h 24 min$ n7 n4 x4 _9 b- ?2 Z3 b
Bit rate : 41.0 kb/s
3 t6 _6 t% r- c. c0 ~Count of elements : 3232
; P3 {1 ?3 w8 A* x& |Stream size : 24.8 MiB (1%)
8 ]. W. u7 M9 \7 T$ `& X" hTitle : French-PGS6 s" i/ |" I: u5 A% p/ r$ F8 N
Language : French
- b+ v3 `2 M3 H" E* r# r1 ]Default : No- E6 c7 a1 [; A! t% G5 N
Forced : No: e) w& N( X9 Y1 Z& z) N
Original source medium : Blu-ray
7 n/ ^1 `/ v/ [, L9 k- @& A" d
+ }9 M1 n' f( ?/ S5 L3 p. vMenu+ _; F$ C5 ^: b' A
00:00:00.000 : en:Chapter 01
1 l. D: y: z, J! J+ h3 k6 e00:06:16.041 : en:Chapter 02
( W& p8 @% X0 g* U% \5 f00:15:42.875 : en:Chapter 03
: F* _) r8 E$ L, N" B' z00:21:45.000 : en:Chapter 045 p4 ^0 ^# u. v
00:28:47.791 : en:Chapter 05+ H5 V* o8 ]6 |3 H
00:35:00.000 : en:Chapter 06
; w& p$ u: G  r- ~00:42:39.458 : en:Chapter 07, j5 ^- V$ K/ W. O9 {  S
00:50:30.333 : en:Chapter 08
7 \! n; U$ U  l0 ]8 x; m00:57:33.708 : en:Chapter 09( ?4 S  o; p, l) c% P
01:04:05.458 : en:Chapter 10
9 D1 f! i4 ^) I6 B/ N4 Q01:13:31.750 : en:Chapter 11# K& f- g4 Y- i; K+ J
01:21:07.625 : en:Chapter 12

0 S" ^: f; w. q- B, c4 \6 Y
游客,查看本帖隐藏内容请回复 | 加入VIP贵宾可免积分免回复 了解详情 | 还不是会员:点击获取邀请码 Invitation Code

本版积分规则

小黑屋|Archiver|蓝光电影资源网

GMT+8, 2021-4-20 17:41

快速回复 返回顶部 返回列表