BluRayCD Forum

 找回密码
 立即注册【分享大片】
查看: 10|回复: 0
收起左侧

[2160P极清] 绝地战警:疾速追击 [4K高清版] Bad Boys for Life 2020 2160p BCORE WEB-DL x265 10bit HDR DTS-X 7.1-SWTYBLZ 70.07GB

[复制链接]

5096

主题

5472

帖子

5万

积分

Post Share

金币
11919 枚
体力
9411 点

卓越贡献勋章

mvods 发表于 前天 19:25 | 显示全部楼层 |阅读模式
, S' Y: p8 n. n% D  ~6 j) A
! S) }, \; {. Y5 ~$ z7 F( @
◎译  名 绝地战警:疾速追击/绝地战警3/重案梦幻再重组(港)/绝地战警FOR LIFE(台)* |9 j1 u* {, ~3 r. Z( _4 w
◎片  名 Bad Boys for Life / Bad Boys 3
) R% M/ V$ ?& M6 Z/ j! g/ h# c4 ^◎年  代 2020
* W; G- W+ t* a* R  o◎产  地 美国4 s1 h, A3 U0 I+ \0 G6 I. V9 J
◎类  别 喜剧/动作/犯罪$ y. K+ [% X0 Z# U% N
◎语  言 英语
( F! p  k& u4 y1 W◎上映日期 2020-08-14(中国大陆)/2020-01-17(美国)
3 G6 x6 B, o% p2 h/ L# j3 c◎IMDb评分  6.6/10 from 135,917 users
9 b9 @- d3 E0 g# M◎IMDb链接  https://www.imdb.com/title/tt1502397
0 v, C- f6 a" i- k' M7 l◎豆瓣评分 5.7/10 from 32,463 users
5 E7 d( h) p: a! A% O: L◎豆瓣链接 https://movie.douban.com/subject/4014397/8 _4 u6 _& y0 W* m4 g1 _
◎片  长 1 h 58 min
+ S1 W+ r/ `1 C" u% m◎导  演 阿迪尔·埃尔·阿比 Adil El Arbi
+ G* N$ Q$ t1 P9 E       比拉勒·法拉赫 Bilall Fallah
& R% {$ ~& X) j" c0 L  P9 }◎编  剧 克里斯·布雷姆纳 Chris Bremner
" t* X6 @, `$ Q6 E" m0 y9 b: n" Q4 O, s       乔·卡纳汉 Joe Carnahan
7 e2 M: R2 F4 f9 t       乔治·加洛 George Gallo
; p, T: @2 E8 M       大卫·古根海姆 David Guggenheim + n1 L) E. C' v
       安东尼·塔姆巴基斯 Anthony Tambakis
, h+ T- b/ M( `◎主  演 威尔·史密斯 Will Smith* X! S' _  B6 [7 ]$ N; T: P5 j" j
       马丁·劳伦斯 Martin Lawrence7 `+ v6 S6 s2 h) t
       凡妮莎·哈金斯 Vanessa Hudgens" n: u' u8 X' X+ R( c! P$ J
       亚历山大·路德韦格 Alexander Ludwig
: S8 M6 ]# t5 o       乔·潘托里亚诺 Joe Pantoliano& p+ `0 o' y  [$ ]- W
       海皮·安德森 Happy Anderson
7 m1 }0 q$ |& Z+ ~- r       查尔斯·梅尔顿 Charles Melton
8 S4 G7 a4 P+ }2 _5 t; @       凯特·德尔·卡斯蒂洛 Kate del Castillo
: Q  @1 z1 J3 R/ E( ?2 v/ c       葆拉·努涅斯 Paola Núñez( {" F5 I1 s" X, ^7 Z' s' X) F
       Sharon Pfeiffer
+ k- }  f1 d/ L       DJ卡拉德 DJ Khaled6 @7 u: S% R: [' m% V) @' r. i
       Jennifer Badger
2 ?, D, ?# p  i- q" L, b1 Y       Massi Furlan
" s5 A, f+ b$ t9 H8 s       玛丽亚·Z·威尔逊 Maria Z. Wilson9 d4 f7 w7 [) Y& K( g" m) h
       Emily Towles5 ~# b' |+ @5 L, y  K
       伊沃·南迪 Ivo Nandi
, _& \7 H, i) B- O       大卫·莫拉蒂 David Moretti" o  @/ _8 K3 g5 y* r3 R5 t
       安东尼·莫利纳利 Anthony Molinari& ~/ \% Y2 I- p  [' C
       汉斯·马雷罗 Hans Marrero
& R; c  j9 _* j% P3 Z6 w. l       Troy Brenna
2 N  L2 G2 x  ^, s+ [& L+ {       巴迪·沃特金斯 Buddy Watkins0 Y9 S9 W7 M5 K  X* S
       David L. Marston4 v# U  E5 \6 N8 h" x
       约翰·盖蒂尔 John Gettier
" b2 M6 O% V; _/ c7 a, Q       塞尔吉奥·布里奥内斯 Sergio Briones
8 R7 t0 ]1 }5 Q* H) R1 @, X- D       卡洛斯·格雷罗 Carlos Guerrero
. j$ v' s5 `- n- U. _( O       德里克‧吉尔伯特 Derrick Gilbert% F8 ]  N- O% y
       Chick Bernhardt
4 _$ J6 u/ o4 k3 e$ y8 V! M' E6 z8 L0 c7 i* b" C: j$ E
◎标  签 动作 | 美国 | 喜剧 | 犯罪 | 2020 | 黑色幽默 | 搞笑 | WillSmith
# z9 ~% [: ]) ~8 D
) _! T4 w- N: Z+ h" s# F& ?0 C◎简  介     
# m* u& ^( B0 Y
& O) p! _* W5 c6 ~! }% r" T  曾制作《珍珠港》、《壮志凌云》、《加勒比海盗》系列等爆款电影的好莱坞金牌制片人全新倾力打造的《绝地战警:疾速追击》,讲述了迈阿密警员麦克(威尔·史密斯饰)遭遇神秘黑帮势力的暗杀伏击,为了迎战势力庞大火力惊人的黑帮分子,解决隐藏在暗处的危机,麦克找回曾经的搭档马库斯(马丁·劳伦斯饰),“嘴炮二人组”再度集结开启沙雕模式,不仅时刻上演逗比互怼,更在迈阿密街头与黑帮展开空前绝后的飙车枪战大戏。这对最佳搭档究竟能否在枪林弹雨下突出重围,找出幕后黑手完成绝地反杀?
4 a/ A9 K- K4 {
- U" h" k" D+ U. I2 T1 T  Miami detectives Mike Lowrey and Marcus Burnett must face off against a mother-and-son pair of drug lords who wreak vengeful havoc on their city.2 V/ L& J, ^8 r$ B, ~$ h$ Q# e
Video( \" E0 Z1 b& m* ]- _: E
ID                                       : 1* O0 U; v; z1 ^  O
Format                                   : HEVC
3 {+ j& E# ?. D% m1 _  \Format/Info                              : High Efficiency Video Coding
' [6 _9 a( p% Z  O# ~. \Commercial name                          : HDR10
3 _+ s) j: Q  m# fFormat profile                           : Main [email protected]@High1 r( X, s) f8 r* |
Codec ID                                 : V_MPEGH/ISO/HEVC2 ]* w- c! k& H4 G( [( G. e; S
Duration                                 : 1 h 58 min: v; \  q! \9 D- Y( _
Bit rate                                 : 50.1 Mb/s+ z- h" e$ O  T3 d
Width                                    : 3 840 pixels
8 a  \: `8 d7 ]0 ~Height                                   : 2 076 pixels+ c* D, q" f! _& O3 u
Display aspect ratio                     : 1.85:1# f% i: ]+ z/ n& a7 q6 @
Frame rate mode                          : Constant
+ X! U) Z% l: h4 {' A% |Frame rate                               : 23.976 (24000/1001) FPS
0 Q5 y+ R1 z) e( @& qColor space                              : YUV" H( M! j* C# @" d7 P) w
Chroma subsampling                       : 4:2:0 (Type 2)5 ?/ ^% p$ |* ^" R/ o1 U
Bit depth                                : 10 bits
6 J. Y" S( X! Z" e& EBits/(Pixel*Frame)                       : 0.262
; A2 Q  z/ I  ?- f& x% OStream size                              : 41.6 GiB (87%)
  p& S% M! t/ z3 b" L2 v, N. P5 ZWriting library                          : x265 2.8+10-703eade86b53:[Windows][MSVC 1914][64 bit] 10bit
- M& R8 u1 a  a" o% L, ?5 zEncoding settings                        : cpuid=1111039 / frame-threads=6 / numa-pools=36 / wpp / no-pmode / no-pme / no-psnr / no-ssim / log-level=2 / input-csp=1 / input-res=3840x2076 / interlace=0 / total-frames=170953 / level-idc=51 / high-tier=1 / uhd-bd=0 / ref=4 / no-allow-non-conformance / repeat-headers / annexb / aud / hrd / info / hash=0 / no-temporal-layers / no-open-gop / min-keyint=1 / keyint=24 / gop-lookahead=0 / bframes=4 / b-adapt=2 / b-pyramid / bframe-bias=0 / rc-lookahead=25 / lookahead-slices=4 / scenecut=40 / radl=0 / no-intra-refresh / ctu=64 / min-cu-size=8 / rect / no-amp / max-tu-size=32 / tu-inter-depth=1 / tu-intra-depth=1 / limit-tu=0 / rdoq-level=2 / dynamic-rd=0.00 / no-ssim-rd / signhide / no-tskip / nr-intra=0 / nr-inter=0 / no-constrained-intra / no-strong-intra-smoothing / max-merge=3 / limit-refs=3 / limit-modes / me=3 / subme=3 / merange=57 / temporal-mvp / weightp / no-weightb / no-analyze-src-pics / deblock=-3:-3 / no-sao / no-sao-non-deblock / rd=4 / no-early-skip / rskip / no-fast-intra / no-tskip-fast / no-cu-lossless / no-b-intra / no-splitrd-skip / rdpenalty=0 / psy-rd=2.00 / psy-rdoq=1.00 / no-rd-refine / no-lossless / cbqpoffs=0 / crqpoffs=0 / rc=crf / crf=18.0 / qcomp=0.60 / qpstep=4 / stats-write=0 / stats-read=0 / vbv-maxrate=160000 / vbv-bufsize=160000 / vbv-init=0.9 / crf-max=0.0 / crf-min=0.0 / ipratio=1.40 / pbratio=1.30 / aq-mode=1 / aq-strength=1.00 / cutree / zone-count=0 / no-strict-cbr / qg-size=32 / no-rc-grain / qpmax=69 / qpmin=0 / no-const-vbv / sar=1 / overscan=0 / videoformat=5 / range=0 / colorprim=9 / transfer=16 / colormatrix=9 / chromaloc=1 / chromaloc-top=2 / chromaloc-bottom=2 / display-window=0 / master-display=G(13250,34500)B(7500,3000)R(34000,16000)WP(15635,16450)L(40000000,50) / max-cll=6239,4864 / min-luma=0 / max-luma=1023 / log2-max-poc-lsb=8 / vui-timing-info / vui-hrd-info / slices=1 / no-opt-qp-pps / no-opt-ref-list-length-pps / no-multi-pass-opt-rps / scenecut-bias=0.05 / no-opt-cu-delta-qp / no-aq-motion / hdr / hdr-opt / no-dhdr10-opt / no-idr-recovery-sei / analysis-reuse-level=5 / scale-factor=0 / refine-intra=0 / refine-inter=0 / refine-mv=0 / no-limit-sao / ctu-info=0 / no-lowpass-dct / refine-mv-type=0 / copy-pic=1 / max-ausize-factor=1.0 / no-dynamic-refine / no-single-sei
- j; H1 Y+ ~, L& x/ nDefault                                  : Yes
! X, @2 ?: @. q9 C1 _Forced                                   : No
) V$ j, c! ]: q% i  x  P9 JColor range                              : Limited
; Z! G% l: g) _- n: O5 y$ F% DColor primaries                          : BT.2020' ?0 _( R% i8 E# V5 B
Transfer characteristics                 : PQ
2 [2 P1 X3 C8 D6 d* V9 S% d) LMatrix coefficients                      : BT.2020 non-constant
3 I+ f$ u/ W8 d" X! F0 BMastering display color primaries        : Display P39 H+ v1 K- @& x- V: Q7 g
Mastering display luminance              : min: 0.0050 cd/m2, max: 4000 cd/m2
2 x8 ~( I& W7 M9 eMaximum Content Light Level              : 6239 cd/m2
9 T8 b0 `, W/ S- X( x4 _Maximum Frame-Average Light Level        : 4864 cd/m26 r2 l7 s) l, q& g7 \* q3 F+ A

! a- g0 I: P  k; `) m- ZAudio #1
; _  Q# C: {0 AID                                       : 2
4 }# S: `, Z5 ^0 b! lFormat                                   : TrueHD
* [+ z& Z9 d$ i; o# C9 T( n# gFormat profile                           : TrueHD+Atmos / TrueHD
  i$ ?' f- M6 y' |Codec ID                                 : A_TRUEHD5 e4 i. s1 q- C/ d9 o- z  Z
Duration                                 : 1 h 58 min
$ j5 I# F& G, E- NBit rate mode                            : Variable
' p# C# P1 I+ C2 e. k6 Q+ oBit rate                                 : 3 750 kb/s
& X0 ?7 ^! E( z+ F- M) QMaximum bit rate                         : 5 721 kb/s
, o, J" \" g  T! U  ?; j6 |Channel(s)                               : Object Based / 8 channels! S; A! Q/ S! N
Channel positions                        : Object Based / Front: L C R, Side: L R, Back: L R, LFE
1 \5 W+ ], L* p# y) G  O( p! Z3 r$ nSampling rate                            :  / 48.0 kHz7 ]; m2 U" g" I, ?( O$ O" y& m
Frame rate                               : 1 200.000 FPS (40 SPF)1 r4 ?- f( p& u3 Y% X/ U) ^
Compression mode                         : Lossless3 Z1 L% f- s% n# k. b& R! t/ ~
Stream size                              : 3.11 GiB (7%)
: i; y+ U# }7 p; qLanguage                                 : English
* i$ D" n1 A+ k8 N! ?, Z  {Default                                  : Yes- g# _! R/ e( R7 U. k
Forced                                   : No
" n, b: v8 `& `6 k1 D1 |& \: c9 d, l1 b0 }5 C% x
Audio #2
' X) j3 g7 w  V! ]& j( T2 w- XID                                       : 3
' `) z% m2 H! W5 X5 VFormat                                   : AC-3
2 X7 \( E9 [0 ~5 x# h$ _% sFormat/Info                              : Audio Coding 3
  g7 E' e- P$ z/ |6 WCodec ID                                 : A_AC35 J8 y1 \/ B$ T+ g$ J; ]2 L
Duration                                 : 1 h 58 min' c4 u, \% f* M  o6 H
Bit rate mode                            : Constant
4 \5 k9 g, t9 K  TBit rate                                 : 640 kb/s
, m3 t0 S# Q4 X, m6 @, }Channel(s)                               : 6 channels
: J5 l' l  d1 ~4 kChannel positions                        : Front: L C R, Side: L R, LFE
4 R/ k* ]' g+ C5 S9 X1 vSampling rate                            : 48.0 kHz
1 c* Y/ p) v5 ?5 X# T4 g! WFrame rate                               : 31.250 FPS (1536 SPF)2 k) x2 g5 K3 J" [, p8 V& d
Bit depth                                : 16 bits8 j7 ]/ {5 L3 ^+ b$ c2 y; I
Compression mode                         : Lossy
0 w/ C0 `2 o6 s* Z7 ?( @/ L9 qStream size                              : 544 MiB (1%)
4 ]* Y9 y% B& o9 O. oLanguage                                 : English* [+ H. h8 a$ b2 v! w
Service kind                             : Complete Main
. h7 t$ R& G( t/ ^: rDefault                                  : No
/ e5 ?' A( [( }3 E4 u  tForced                                   : No
4 @& @2 G' m+ m7 l
& _. i6 }2 Q7 e$ J- uAudio #37 B3 Q' S9 s$ w& `' q# _7 M# u, @
ID                                       : 4
1 `3 I9 Y8 g& U# L/ f8 E0 v7 r1 yFormat                                   : DTS
* F+ }0 B* }+ J) |3 E0 LFormat/Info                              : Digital Theater Systems* c: O+ x" q$ N( T& c6 g7 U
Format profile                           : MA / Core
) J; E% I1 @& f! ]( L6 Y4 N9 V) @3 {, pCodec ID                                 : A_DTS
2 X3 y9 f9 f* G' B% R, e" [' B; MDuration                                 : 1 h 58 min
5 ^% z( z5 y. d7 q) F1 YBit rate mode                            : Variable / Constant+ ]  C$ s* r; l% A$ m8 R) h) i: e
Bit rate                                 : 2 337 kb/s / 1 509 kb/s
' L5 L. Q7 C$ v$ |7 Q' N& R  ^Channel(s)                               : 6 channels
  h3 f6 b/ s2 w  SChannel positions                        : Front: L C R, Side: L R, LFE+ a5 v- r- S4 A8 r* G
Sampling rate                            : 48.0 kHz
' {' h: C( _( \( TFrame rate                               : 93.750 FPS (512 SPF)" r/ r, S& n( r
Bit depth                                : 16 bits
4 K6 k5 |1 m- Q9 L# b+ |( M( ^Compression mode                         : Lossless / Lossy
+ T3 z$ l0 ~) L$ X% W" vStream size                              : 1.94 GiB (4%)
( ?" l9 H% v& h5 }  K4 j4 J* KLanguage                                 : English2 W. z4 }- ^9 B
Default                                  : No# P# J: w, z: E5 M$ {% \
Forced                                   : No
/ ~: O, A  `, W% f9 {# T1 f% e9 n- f! J, ?9 {. Y7 V; y6 Q/ K
Text #1
; r, |7 b! J( k3 D( w+ i6 IID                                       : 51 ~( o$ y  L/ z$ ^
Format                                   : PGS
* l* P" }( d* d5 Q+ p# QMuxing mode                              : zlib
  m, y1 @& Y, }! y, N6 K9 j" `Codec ID                                 : S_HDMV/PGS
* `) i! p( a3 _Codec ID/Info                            : Picture based subtitle format used on BDs/HD-DVDs
6 _$ E! c9 |6 S& R: ^Duration                                 : 1 h 57 min
6 K/ w* D$ u' T) d/ q: eBit rate                                 : 46.8 kb/s( j' `: g6 d7 H# j/ I1 f+ f
Count of elements                        : 3945
. E) \7 e2 |. c! RStream size                              : 39.3 MiB (0%). }7 N  a- n2 f; F9 I" A/ G  ]
Language                                 : English% ?1 f4 e" h6 T
Default                                  : No
* K. F8 u9 _) J9 XForced                                   : No3 O5 W0 {# A2 w" f- c3 c

2 |* ]( |% y# y7 C. vText #2
9 ]4 Q* P$ h3 X7 S, lID                                       : 6
8 P  v( i6 t" m" LFormat                                   : PGS% w- _8 f; a3 l5 n2 v
Muxing mode                              : zlib
' g: d2 q, |$ N) mCodec ID                                 : S_HDMV/PGS3 R! L  b0 j% v$ t4 d* d2 Z$ R
Codec ID/Info                            : Picture based subtitle format used on BDs/HD-DVDs
! u5 j1 W) ]5 z+ a+ P6 RDuration                                 : 1 h 54 min* ^+ U0 |, |# o5 g1 P' w2 p
Bit rate                                 : 38.7 kb/s0 M2 q& r# @" A2 Q
Count of elements                        : 3318  a) h0 e  C3 b1 _/ p+ ~
Stream size                              : 31.6 MiB (0%)& g5 @4 ~* z2 k8 ^
Language                                 : English) X. _- O% @8 L0 y7 R
Default                                  : No4 y! W; k7 N) i1 i
Forced                                   : No
; U) W  ?: V6 \$ ]# [
: J& F9 @6 ^9 s6 iText #37 E. D8 }% v/ B( |8 w
ID                                       : 7
/ B! k1 q* s! Q' NFormat                                   : PGS
- T& J: Z! H2 ]' G( T! i4 TMuxing mode                              : zlib# t. T, [3 h5 r) R. }
Codec ID                                 : S_HDMV/PGS
! X3 t' J: T* o* i; f2 fCodec ID/Info                            : Picture based subtitle format used on BDs/HD-DVDs
, P' D9 F  ?1 MDuration                                 : 1 h 57 min
4 e8 \4 K) V- m8 z+ X5 ]Bit rate                                 : 46.9 kb/s: W2 W+ W* `. n0 t5 K% k) X3 U+ l
Count of elements                        : 3945
; |" I# w& ^" c# U4 K* BStream size                              : 39.3 MiB (0%)+ V5 C% u! F4 f$ k' {) J0 x! q
Language                                 : English+ q4 K; a% J3 o7 |& G* K: o
Default                                  : No6 p9 `' f- V/ N
Forced                                   : No, I/ `& \$ S% P; B. X

0 \, c4 @" x8 \$ n5 M+ R# qText #4
3 }5 d( a" l. w" eID                                       : 8
+ E- e; L) w( D; x6 LFormat                                   : PGS, r5 i  P3 b" o. u
Muxing mode                              : zlib
% G$ t( q1 ]: y  XCodec ID                                 : S_HDMV/PGS
  x3 J. Y. I" F- \1 n: z5 |& p% PCodec ID/Info                            : Picture based subtitle format used on BDs/HD-DVDs
$ p1 `/ c; S$ ]! B9 wDuration                                 : 1 h 54 min
3 V1 s( F. T8 ?5 M+ w8 P: JBit rate                                 : 38.7 kb/s& H0 C$ y+ R% z
Count of elements                        : 3318, k# [' ^+ ]- N
Stream size                              : 31.6 MiB (0%)# L5 n, b- |% U5 s$ f
Language                                 : English; z' c7 N7 j; J# w
Default                                  : No
  P9 K, _: c+ `1 RForced                                   : No6 h1 r- X% B6 {& b2 s

" O* T3 ]( p2 J8 T  KText #5
6 K$ y0 }$ M  ^: eID                                       : 9
5 L* I3 p# _: T+ y$ nFormat                                   : PGS
- J+ q" u3 y' B! k3 u0 q! WMuxing mode                              : zlib% b( s! O( w4 U! P
Codec ID                                 : S_HDMV/PGS6 j) u5 v. {( A/ P2 k! B1 ?7 Y
Codec ID/Info                            : Picture based subtitle format used on BDs/HD-DVDs
* m) g$ A# a1 y0 _Duration                                 : 1 h 54 min
7 |! n+ d0 L0 ~  {* D* pBit rate                                 : 18.3 kb/s! l& O8 ]0 _# \9 l! r
Count of elements                        : 33969 c. ^4 P( ~4 I( O4 \) S& v3 G: W
Stream size                              : 14.9 MiB (0%)
8 _2 ~1 g0 l" dLanguage                                 : Arabic, v% ?5 J  R! b/ n
Default                                  : No( ^1 t4 K/ p9 H. o: r' u7 n" H8 z
Forced                                   : No2 J  V: _. G( z  n+ e& _) a/ c
; o' y2 a5 S6 l: O! {9 I% }5 m
Text #6
8 H: f9 |2 r  ?6 u7 FID                                       : 10( ^9 R* a* u$ U  x
Format                                   : PGS& P: Y! F/ d- B5 k9 i: d" o4 d8 a
Muxing mode                              : zlib
4 g0 }  }& K# E. C' y, y* i& iCodec ID                                 : S_HDMV/PGS
$ q' w% y. ~* @1 W  x2 j! o: dCodec ID/Info                            : Picture based subtitle format used on BDs/HD-DVDs9 Y4 c! l5 J, n! q' S+ J5 ]5 \
Duration                                 : 1 h 54 min
4 x- X) M* @0 `0 l* v) O/ i5 iBit rate                                 : 29.9 kb/s
1 i' M' `% z: X3 Z6 L8 ACount of elements                        : 3526
/ Q2 b" s% t# A8 KStream size                              : 24.4 MiB (0%)
, m7 R& j. Y0 k0 t% z' TLanguage                                 : Chinese5 }1 U& p0 l  l& L* d/ m% C
Default                                  : No: k0 F+ [' v% ~* Z7 z
Forced                                   : No: Y% ]# y5 i  Q9 U, m0 x
1 v8 g3 t: ]+ H. d5 E( h' _' }
Text #7
% V+ w; @  t* Z, F% YID                                       : 11
3 l8 @( \: O3 e" z6 e  FFormat                                   : PGS8 o7 ?9 G8 p, L; A2 [
Muxing mode                              : zlib# @, t3 L9 @; S* ~( j8 }" T
Codec ID                                 : S_HDMV/PGS6 w4 e! n9 G/ x; c; K
Codec ID/Info                            : Picture based subtitle format used on BDs/HD-DVDs+ G9 Z8 W5 n0 u6 l  @
Duration                                 : 1 h 54 min- x/ W8 o' e; I9 s
Bit rate                                 : 30.0 kb/s
$ \0 \5 J8 c: \$ ~5 l& x1 ECount of elements                        : 3526, p9 v; k8 x3 I5 L  q1 H+ Z
Stream size                              : 24.4 MiB (0%)
  z. u" T1 l, ~: A- VLanguage                                 : Chinese
! f5 p" ~- T: g# Y. a) O2 vDefault                                  : No: B3 U' U  Q: Y$ F" D  d
Forced                                   : No
6 T8 Y# V$ [' s
$ Q9 y& Z2 z3 |8 ^% cText #87 [; x- S( v0 E9 u& \
ID                                       : 12( o! V! J) x7 b$ ?5 e1 B
Format                                   : PGS- J- i  H+ i! b( k* u: f9 }3 u
Muxing mode                              : zlib) Z, q: u+ h7 O8 s. c! v
Codec ID                                 : S_HDMV/PGS& m3 |6 N5 L" M4 ~5 `1 [
Codec ID/Info                            : Picture based subtitle format used on BDs/HD-DVDs
6 F& B+ F$ t3 b' p. ~6 b. bDuration                                 : 1 h 54 min
9 j- _$ J( l/ T" ?' KBit rate                                 : 29.7 kb/s
, S. ]. \. @% xCount of elements                        : 3472
0 u* I0 ~4 |1 R$ |: C$ E7 z  aStream size                              : 24.2 MiB (0%)' ^+ G  l1 }1 k( e0 V; S) w. {
Language                                 : Czech
3 p1 `# s, k; J5 n# G- c: O4 b$ wDefault                                  : No
, {  V% g( X( j3 ~) M$ j: fForced                                   : No2 }& k! V, Q, ]

' l( b- `2 k6 LText #9. q; ~* M4 g2 `; A9 b; V, t
ID                                       : 13
: h2 U, c7 j/ Y- y+ `Format                                   : PGS* y$ Q3 n; F0 g1 V; i$ h
Muxing mode                              : zlib6 ]+ c. c; _% T& M
Codec ID                                 : S_HDMV/PGS; k! b) p8 k+ E2 q" M% `* T6 T, |
Codec ID/Info                            : Picture based subtitle format used on BDs/HD-DVDs" z3 C/ ~5 f  U5 W1 `
Duration                                 : 1 h 54 min. I4 J+ W% H6 t2 T# I* a$ Z* b
Bit rate                                 : 37.3 kb/s1 u: A/ z; C& p
Count of elements                        : 3418
! \2 l* R) d( U& ?$ l) YStream size                              : 30.5 MiB (0%)! W  P* u7 j, |6 N
Language                                 : Danish* q& Y2 A) s2 ~4 ?4 [: F9 |1 W" k) b9 c* O
Default                                  : No
# e. c2 A9 X( q+ R' rForced                                   : No( ~/ C& x+ [- q0 L2 c+ v6 ^# I
- P, n* Z1 A. f% N1 E, l
Text #10
; _9 E7 l- m3 GID                                       : 143 n+ v( [; _7 y* p0 C7 f
Format                                   : PGS$ ]8 h6 x" D" ~9 n
Muxing mode                              : zlib4 |* T; g$ b4 |7 Z7 \, w/ J% M- G
Codec ID                                 : S_HDMV/PGS
) j; {6 ]0 l8 e) W! o' @9 lCodec ID/Info                            : Picture based subtitle format used on BDs/HD-DVDs" ~" t3 b, [% [% m8 z
Duration                                 : 1 h 54 min1 c/ V4 }! A6 S7 i: s
Bit rate                                 : 33.5 kb/s
$ [6 H9 d$ m2 I) k& H$ U8 nCount of elements                        : 3382
8 f* r0 I$ C/ Q' T' r6 C8 FStream size                              : 27.3 MiB (0%)6 o6 L6 o' m- E
Language                                 : Dutch
' P. j) y- j; P0 CDefault                                  : No
) l/ ?' j0 L- FForced                                   : No
5 C( v% k0 S. |1 a/ f: E$ C. S" Z1 v8 M: a
Text #11
  o2 \; _1 v: d; gID                                       : 15- T8 [4 y  Y9 V9 z: @: x8 O) l+ m. W
Format                                   : PGS
1 ^6 W" M, t1 i9 ?" }Muxing mode                              : zlib1 Y: a  L+ H* y7 C0 x
Codec ID                                 : S_HDMV/PGS
0 n7 C* h/ u" k  f) B. @Codec ID/Info                            : Picture based subtitle format used on BDs/HD-DVDs
/ U7 m+ @" C9 g- f/ V: Q% TDuration                                 : 1 h 54 min" x" }. @+ ]$ H- k- e
Bit rate                                 : 35.2 kb/s
0 A* N. ?( I% T- d: W, \3 sCount of elements                        : 3084
% @/ O' h- a; D& p* I1 h. c* uStream size                              : 28.7 MiB (0%); i# m2 h3 G) Z" g
Language                                 : Finnish/ O* C" s, F5 T& d- I* h8 k/ s
Default                                  : No
6 @0 D2 Q7 z0 w/ Y9 VForced                                   : No  v+ E- K5 q0 p6 j4 b

3 o' z0 z2 ^# a' s, vText #12! L" C* ~4 k' b8 x7 X% S0 _7 i
ID                                       : 16
- w$ t) l, S, LFormat                                   : PGS( V2 H5 S) y* n6 G0 ~6 T
Muxing mode                              : zlib' j( k3 f& }5 x+ J* Z9 w' a8 ^$ I2 ~
Codec ID                                 : S_HDMV/PGS" [) `& Z" W1 n# x; q; y
Codec ID/Info                            : Picture based subtitle format used on BDs/HD-DVDs
* \% _$ A- x4 b4 `Duration                                 : 1 h 57 min( C5 ]9 b, V- r4 g
Bit rate                                 : 31.6 kb/s# |5 U" Z. ~( m% g
Count of elements                        : 3390
9 }7 H7 N1 P' M+ k  pStream size                              : 26.6 MiB (0%), d3 R2 b  G& J- Y+ l
Language                                 : French
7 X7 [. j/ G, x& L  CDefault                                  : No
7 ~& Y3 S# l% ]5 ]* F0 T& {Forced                                   : No
& M9 N0 A, m8 G' ~; v
( B% U9 k& ]* s- x0 FText #13. E) j+ K" N6 {7 ~
ID                                       : 17
$ z1 ~) b6 y6 r6 z+ h% x( ~- dFormat                                   : PGS. ^1 s6 D' O1 p! R" \0 ?
Muxing mode                              : zlib4 S* B0 C4 ]9 ?5 n# f% u" b$ b
Codec ID                                 : S_HDMV/PGS
( x7 @5 [& a; P& u3 g1 e) a- tCodec ID/Info                            : Picture based subtitle format used on BDs/HD-DVDs+ M( A1 o* B% x1 n# b( I2 l
Duration                                 : 1 h 54 min
% |. a: E9 |5 ~7 cBit rate                                 : 38.7 kb/s
) P! J2 A5 M7 ~& i4 q- DCount of elements                        : 3452
. }$ I2 x. f" u/ m" Y7 q  I' z' jStream size                              : 31.5 MiB (0%)
% ~* q% ]! {+ P0 A8 q2 qLanguage                                 : German% G" |. d) E! a7 j
Default                                  : No
" G4 w* V7 _: u: x( oForced                                   : No8 X- b9 J; m6 g$ L. e# }
# \' W; w/ L1 a
Text #14$ ]" \# V; R* T5 `8 o
ID                                       : 183 p* K- W8 z; ^. q, d
Format                                   : PGS' [! a# T  y- U# \& K+ j
Muxing mode                              : zlib+ f* B/ O; Q8 Q: f& H" p
Codec ID                                 : S_HDMV/PGS: Y5 e/ Q1 I2 `# k0 Z: ?
Codec ID/Info                            : Picture based subtitle format used on BDs/HD-DVDs% V( @5 q6 I3 x* y( s
Duration                                 : 1 h 54 min7 w- R$ \. V5 ~0 w
Bit rate                                 : 30.6 kb/s
8 [# U1 ?5 a" tCount of elements                        : 3260: ^  L- I' x' K
Stream size                              : 25.0 MiB (0%)9 T2 I; H0 D, h( ~9 L5 W
Language                                 : Greek
; D5 t: V$ H! u: u$ gDefault                                  : No
/ V3 f" F  {& v+ e3 zForced                                   : No) s& Z, b+ Y# i

/ H6 t( C: q* c% h% \, h) XText #15
: q3 H* x  R  k  l- C: UID                                       : 192 b% s7 n" R- A: Q" n; T0 v
Format                                   : PGS
3 f& s% e  B' W$ Q; ~Muxing mode                              : zlib6 z# d! \1 e6 U9 S2 T
Codec ID                                 : S_HDMV/PGS1 @- I, B# G2 a) N# v
Codec ID/Info                            : Picture based subtitle format used on BDs/HD-DVDs, L6 t6 q5 r' \% v9 h. G
Duration                                 : 1 h 54 min4 i/ \  x" d8 d
Bit rate                                 : 33.6 kb/s
  r! R1 p1 D  ACount of elements                        : 3376
6 V* \! J: O6 D9 v/ K/ _' s/ mStream size                              : 27.4 MiB (0%)3 I- Y/ v( Z7 K& [2 n" k
Language                                 : Hungarian
8 E$ K2 q% I, y4 q* lDefault                                  : No( {7 A0 x% O. K# p% a
Forced                                   : No9 R) Q5 H7 H4 d$ }8 S6 w
$ H  v6 {  {6 Q. a% r6 P  V: R' P
Text #16# @0 J5 o/ M# |
ID                                       : 202 N8 G+ O" O4 M4 f) X8 g3 \; p, t
Format                                   : PGS
/ Y2 F6 _" t  }" |4 l2 gMuxing mode                              : zlib
2 a/ V; l! ]0 _5 j, [0 M9 YCodec ID                                 : S_HDMV/PGS* M3 X! @- e/ L
Codec ID/Info                            : Picture based subtitle format used on BDs/HD-DVDs
3 F8 y  _3 X  t) l' uDuration                                 : 1 h 54 min
9 T$ J7 }4 P8 L+ cBit rate                                 : 41.6 kb/s3 @3 k+ y: R$ J/ d6 B0 \
Count of elements                        : 3392
, C; ]& H% ~4 Q- C1 v0 z9 FStream size                              : 33.9 MiB (0%)# m, H& D4 b7 t6 p& W
Language                                 : Italian+ c/ K% J/ G7 F: w1 b
Default                                  : No, g4 s) a# Z+ X' O9 u- ^, S( q  J
Forced                                   : No
/ R5 \2 ]4 M% N5 }: x5 r1 I# L: P6 J/ `" \3 i4 _% `& ]- Y# N
Text #17
9 }- e4 v2 }' O  d8 g5 \ID                                       : 215 J6 o! [3 L( `& [4 w
Format                                   : PGS
; E1 e& j: d  bMuxing mode                              : zlib  ?8 N/ x0 t3 j" F) f  H9 ?
Codec ID                                 : S_HDMV/PGS/ Y; S8 K% o$ {% w
Codec ID/Info                            : Picture based subtitle format used on BDs/HD-DVDs
% R' c" y: }- Y/ i! ~# R- c: [% o. a, D" i. iDuration                                 : 1 h 53 min
4 C* e3 i2 Y  O& t# tBit rate                                 : 27.2 kb/s
5 W# w' u3 E. ?Count of elements                        : 3237
3 N; ^! u& }. v: e1 D# A" D# n6 rStream size                              : 22.2 MiB (0%)7 n6 X6 D, ?0 w
Language                                 : Japanese
* N" O3 S7 W3 S5 A% s9 Z3 PDefault                                  : No: {9 `4 l1 y7 _1 K
Forced                                   : No
9 Y: c2 a& R3 o4 U$ _8 s7 V/ U3 U8 Z+ r# y
Text #18& `, B: q2 b9 j, [8 [0 o  i
ID                                       : 22) ~! x- Y" n4 @. L  r' J) _- K
Format                                   : PGS
( V2 ]! Q  a6 D) ^Muxing mode                              : zlib$ j: I; v2 F. _9 {' b% C- j
Codec ID                                 : S_HDMV/PGS* R8 i1 C2 p- P4 O* Y
Codec ID/Info                            : Picture based subtitle format used on BDs/HD-DVDs
7 b  b& C0 z3 Q; p: j$ B& l. hDuration                                 : 1 h 54 min- J  p. T6 g4 O
Bit rate                                 : 30.2 kb/s
  x  P; v& T4 K2 ?! X" \Count of elements                        : 3346& B8 {6 d# u, B4 S& G
Stream size                              : 24.7 MiB (0%); |( a6 E( W4 l+ ^, v
Language                                 : Korean
+ m5 q& D/ r) J$ X9 y, e0 g# J0 w8 HDefault                                  : No
: W; Q  |1 V( L, G/ u& v' {$ f* oForced                                   : No' M9 |9 T* w6 Z. g

( p  T. U1 Q1 N6 U, B) O' uText #19# n0 m9 ^9 ~8 a5 [4 Q
ID                                       : 23! O3 N/ v) }+ E8 C
Format                                   : PGS2 J8 Q3 Z  D% \
Muxing mode                              : zlib
  w; \. ~+ _* h3 a! |2 aCodec ID                                 : S_HDMV/PGS8 C+ N) V, q6 ?3 g6 e. P% w( }& ?
Codec ID/Info                            : Picture based subtitle format used on BDs/HD-DVDs
: k4 A6 M" ~8 A) H% XDuration                                 : 1 h 54 min
* `3 g; E; \& m& E! g; Z, ~Bit rate                                 : 32.8 kb/s' s5 ]0 k# N' A1 v+ f# Q7 s
Count of elements                        : 3468
& ~5 C- @4 c! j; yStream size                              : 26.7 MiB (0%), p( j* e5 F9 t6 p/ D2 w
Language                                 : Norwegian9 C8 T  a; T! ~
Default                                  : No
! y1 j, \/ X5 \6 t9 h0 J* AForced                                   : No! ?- u+ Z1 E( I7 j# i

! e  U5 j) [& h: Y: cText #204 F/ |  S0 m, _, |5 R9 G( |- J5 Z
ID                                       : 24
5 |( ^4 ~2 o7 a1 _/ G2 @Format                                   : PGS
: y* \+ q) h% X# s' oMuxing mode                              : zlib
- n+ s1 P2 z: U$ B' MCodec ID                                 : S_HDMV/PGS
6 c! p. I& W: B; YCodec ID/Info                            : Picture based subtitle format used on BDs/HD-DVDs! W$ r" [6 X7 G1 V
Duration                                 : 1 h 54 min
; R. N- X+ A5 S% Y+ ABit rate                                 : 28.1 kb/s/ t9 _5 m5 x( ]1 i, [/ H& A( J
Count of elements                        : 3250
$ @' }$ B( m3 g0 s0 AStream size                              : 22.9 MiB (0%)
/ i  a# \1 I! G" K  O" N- G2 NLanguage                                 : Polish. r* |: @! w0 \, H, @2 f
Default                                  : No6 t# S  D( Z% N( ]7 E
Forced                                   : No
7 F  W3 S/ q" b9 i- M8 ]( @
; Q+ B- o9 o4 b+ Q+ ^2 g& mText #21# V( G1 k9 [: Q. W' {1 t
ID                                       : 250 c" [6 f; {( B+ J  M; {" P
Format                                   : PGS- b% @  n' i2 r* l
Muxing mode                              : zlib7 _% S: a8 U8 ?) x, V9 I5 H! O
Codec ID                                 : S_HDMV/PGS
9 n2 x2 h5 `8 n' uCodec ID/Info                            : Picture based subtitle format used on BDs/HD-DVDs0 x' w, w' E+ c/ R7 C' Z: q  w
Duration                                 : 1 h 54 min
$ B" {& K7 X( B: DBit rate                                 : 30.9 kb/s
1 O- M, \2 O; fCount of elements                        : 27481 Z8 I6 L' }6 h9 v
Stream size                              : 25.2 MiB (0%)& N$ s( n: X- [$ h$ ?
Language                                 : Portuguese
1 H. ^  S- G" O9 e0 a7 eDefault                                  : No6 a9 i7 v7 k7 C6 y- a. y3 g
Forced                                   : No
3 {1 m  f7 `7 V8 z) `& o/ E% Z" E5 h  i
Text #22! M( @! O; C  h( I# A, U- `
ID                                       : 265 i8 E  a3 ]& y8 A* n/ q
Format                                   : PGS- y( Y- F" W! d% n/ `
Muxing mode                              : zlib  r7 f9 J( n  P
Codec ID                                 : S_HDMV/PGS5 {' u  k/ v$ v) j; R. q+ A& Q
Codec ID/Info                            : Picture based subtitle format used on BDs/HD-DVDs
4 z6 n5 n8 X! B! d2 [. c5 c- WDuration                                 : 1 h 54 min
/ ?2 I& W1 \* A8 e6 I8 s  GBit rate                                 : 34.9 kb/s$ E+ v% b* l6 m8 z8 d
Count of elements                        : 3428
9 h  q/ t8 @# y/ {  lStream size                              : 28.5 MiB (0%)1 |1 d2 ~9 s" Y$ e9 W0 K, r6 N
Language                                 : Portuguese1 H$ M- G1 J$ R% F$ T
Default                                  : No
% Y2 `: {* l1 m' {" w8 ^# E" nForced                                   : No
# [* e1 S1 B4 w4 e# I3 N( p% L4 Y7 U
; u% z& s1 v# Z- o  ?1 C$ c0 [Text #237 j8 l5 z- w5 ]
ID                                       : 27
% |& X2 r5 E! ]4 {Format                                   : PGS
9 ~* a+ A4 f& RMuxing mode                              : zlib
: k# b% V% e! T( XCodec ID                                 : S_HDMV/PGS& G0 Z8 s# V; H! `
Codec ID/Info                            : Picture based subtitle format used on BDs/HD-DVDs9 o+ d5 [5 n1 H  S3 Y) ^# @0 Z
Duration                                 : 1 h 54 min
. h6 ^+ W% \7 F. z5 w$ I# _Bit rate                                 : 37.4 kb/s
$ b1 S+ S( {% XCount of elements                        : 3324
2 N* k, w( M& tStream size                              : 30.5 MiB (0%)
2 Q6 d4 T) K  Q" a  S" kLanguage                                 : Romanian
/ P& x, x+ E9 f9 N8 ?Default                                  : No- E( g* V; \. h( _; H- A; C
Forced                                   : No8 `2 p5 g* V. s

# z4 `+ d: U# h; T! A% ~" DText #24! b  c  u7 L7 m% `2 P/ u. M
ID                                       : 28* p3 p% r1 b9 H" B
Format                                   : PGS6 h8 P) ]0 G5 |  r3 D
Muxing mode                              : zlib
, |$ l) c* H0 l& HCodec ID                                 : S_HDMV/PGS$ a) Z3 U9 Y) H8 M7 H& O
Codec ID/Info                            : Picture based subtitle format used on BDs/HD-DVDs: V- x; a) J, e8 A) f$ i
Duration                                 : 1 h 54 min
) G: L+ Q0 L- R* e" @* u; ~# m" S$ lBit rate                                 : 37.2 kb/s& ^! |0 q- @5 @2 X+ b! [
Count of elements                        : 33603 k. B  ]5 W# P/ S
Stream size                              : 30.4 MiB (0%)
% m( @! W& e# `3 u0 O2 Z& u! BLanguage                                 : Slovak
0 @% |& L% W8 g5 ^- ?Default                                  : No% u. A" n. N3 N! ]4 d. w
Forced                                   : No; D" F# [5 {) y& }" P# ?. M

# O! U% j& i, ?/ wText #256 h! a  Y& A1 d6 z0 ^4 v
ID                                       : 296 v, f, n8 t  Q5 P0 W
Format                                   : PGS
: Q4 V: T3 B% R# q, AMuxing mode                              : zlib' W, [2 n. _2 b
Codec ID                                 : S_HDMV/PGS! f8 M0 f% o- K% K, o$ E, S" \
Codec ID/Info                            : Picture based subtitle format used on BDs/HD-DVDs
1 |5 T* h+ [$ X  RDuration                                 : 1 h 54 min# Y4 w8 h1 ]/ I  Z) k+ ]6 r, C
Bit rate                                 : 36.6 kb/s
! c8 w$ y/ v* s/ P8 ~3 Y# ZCount of elements                        : 3386. _" B& L* n* m9 [0 P
Stream size                              : 29.8 MiB (0%); r7 b+ A2 w: f7 e. j
Language                                 : Spanish
: P2 z- ]0 @* t( h+ Y4 ~; LDefault                                  : No! o# C  j4 k3 A! }; G0 _0 X
Forced                                   : No
: b6 D. |3 g0 H5 V# j1 E8 b: a' b- ?0 o: ]& E7 x2 ]. I5 ]
Text #26! Q8 k% |1 e. E6 T$ z9 u1 ~$ ?% ]
ID                                       : 30
/ ~  ?& R; m4 v7 eFormat                                   : PGS; T" d' j* c0 b7 {: N2 m
Muxing mode                              : zlib/ n  ^2 f" q" z3 p) ^& ^
Codec ID                                 : S_HDMV/PGS
- |9 }2 @+ n3 K' J0 L0 C! QCodec ID/Info                            : Picture based subtitle format used on BDs/HD-DVDs# o: e+ d9 @% t9 y  y
Duration                                 : 1 h 54 min& l# {/ b$ k1 u4 k9 f' }- o
Bit rate                                 : 37.7 kb/s
0 l& ^) R% h8 X# xCount of elements                        : 3216
6 O6 |' j. M% l( B( d  yStream size                              : 30.8 MiB (0%)
  Y, t4 A* c/ w, FLanguage                                 : Spanish8 g" D. c; y9 U3 b/ U
Default                                  : No3 e( T/ s; T1 V( T0 m; e  H1 R
Forced                                   : No
/ @2 [4 B: H1 D; Q0 Q4 m% I8 b. Q# R' x. X
Text #27
: W% A7 Z$ U% a5 u' j7 u1 ZID                                       : 31
; e4 k3 \7 D" YFormat                                   : PGS
& [  c  n# f- h1 J1 JMuxing mode                              : zlib
) I$ A0 s: S' [Codec ID                                 : S_HDMV/PGS
% s( U9 ^0 Z* }$ d6 G7 _Codec ID/Info                            : Picture based subtitle format used on BDs/HD-DVDs
8 |3 r% n) c4 r0 d; {3 n0 |: p9 aDuration                                 : 1 h 54 min
3 q  ~( A# @/ MBit rate                                 : 32.3 kb/s
; C# R# n9 |6 X: `7 lCount of elements                        : 3430
$ a' Q$ P9 U2 w6 s5 ^Stream size                              : 26.4 MiB (0%), K" f* ]3 Y9 Z# o
Language                                 : Swedish5 x# r. N0 J3 b
Default                                  : No: y- Z. w* a" e+ ]
Forced                                   : No
6 e; f/ V- g) f" |1 W, V; E) O! F
Text #28, D1 T7 `8 X1 s! d, y! ^2 n
ID                                       : 32" w- j) C/ a% e' v
Format                                   : PGS# q8 b* [/ R& D; D. N  r" y& e
Muxing mode                              : zlib
3 @) c4 S) A' O' T0 BCodec ID                                 : S_HDMV/PGS! u. S3 `9 ~) O/ @7 o/ F
Codec ID/Info                            : Picture based subtitle format used on BDs/HD-DVDs
& }4 ~; j* k" lDuration                                 : 1 h 54 min
( |0 }! {( B* h3 EBit rate                                 : 32.3 kb/s
: V. ^& b/ C+ m7 N2 _" {Count of elements                        : 3526
% x5 ]; `% l6 q' t( Q" p6 NStream size                              : 26.3 MiB (0%)
6 X7 i% \  k- ?- i* MLanguage                                 : Thai' S0 _3 X% W5 V
Default                                  : No
. K+ G; b( S, Q4 @- ~; w2 hForced                                   : No
  @7 O2 c. }: v. S
- t) n6 ?2 @( ]; A/ T7 ZText #293 a6 |2 K8 i9 d/ \# N
ID                                       : 330 a$ r  Y0 P: A
Format                                   : PGS  R# K8 C7 u, l+ _& l
Muxing mode                              : zlib
8 h, e$ X+ v9 E2 jCodec ID                                 : S_HDMV/PGS+ d7 R' _+ L" j2 E: C) Z' K4 \
Codec ID/Info                            : Picture based subtitle format used on BDs/HD-DVDs+ I) {- X4 q4 u, H
Duration                                 : 1 h 54 min8 M( i4 J9 ^9 @# }9 \3 ]4 y
Bit rate                                 : 32.4 kb/s: q( c/ r2 k! T& R/ [$ x! m1 O
Count of elements                        : 3346
+ P. ?0 R! l0 N/ B1 b( IStream size                              : 26.4 MiB (0%)( E* y, A5 O. D' P% b* l8 l1 x
Language                                 : Turkish
7 `1 f& U* S4 m: |% z% L7 r# |Default                                  : No; K1 A) N" ^( q/ J' b: \
Forced                                   : No2 Z8 t3 y+ z) \: Z$ G- t. j
$ T! X* e; @8 ~3 _/ ?2 ?# G
Menu
- k( d' |/ @% |00:00:00.000                             : en:00:00:00.000
1 q9 i& }2 M! q' B8 t00:05:07.474                             : en:00:05:07.474& g( T6 }% ^7 c/ Z7 u7 c
00:12:01.971                             : en:00:12:01.971# Z1 E6 c. l$ C4 u( q# d% p, l
00:17:38.099                             : en:00:17:38.099- N( G* R) d6 ~0 w
00:23:33.203                             : en:00:23:33.203( J6 W; t0 y+ j( h- d) `1 ]. F3 o
00:31:31.765                             : en:00:31:31.7651 j+ H8 v* ^: a
00:41:09.133                             : en:00:41:09.133
4 A  T/ Q7 P  n, t* C) Z00:47:35.311                             : en:00:47:35.3114 r! t; z! z/ h, ~- _8 ~
00:54:37.357                             : en:00:54:37.357
  l6 R! }3 y: [0 ?  X( S( t01:04:05.675                             : en:01:04:05.6757 x9 h+ c2 S% y. _0 i- [
01:13:49.800                             : en:01:13:49.800  j( q$ A( B( g0 m6 h. u8 j7 K! l
01:20:21.483                             : en:01:20:21.483
+ w" h: C6 [; G: a+ r01:27:58.523                             : en:01:27:58.5230 x8 E( j3 h% o5 L) C8 t5 O/ K
01:34:54.272                             : en:01:34:54.272
! L4 S" U% A7 g* u  o$ |  V8 @! y# P9 E01:43:09.308                             : en:01:43:09.308
, J/ ?4 f3 @1 G' @. M1 z! {01:50:51.353                             : en:01:50:51.353
+ M( K: B* k& n: j+ |, G
游客,查看本帖隐藏内容请回复 | 加入VIP贵宾可免积分免回复 了解详情 | 还不是会员:点击获取邀请码 Invitation Code

本版积分规则

小黑屋|Archiver|蓝光电影资源网

GMT+8, 2021-5-6 21:53

快速回复 返回顶部 返回列表