BluRayCD Forum

 找回密码
 立即注册【分享大片】
查看: 123|回复: 9
收起左侧

[4K极清电影] 寻龙传说/魔龙王国 [4K REMUX无损版] Raya and the Last Dragon 2021 2160p BluRaycd REMUX HEVC DTS-HD MA TrueHD Atmos 7.1-FGT 53.40GB

[复制链接]

9516

主题

9924

帖子

9万

积分

Super moderators

金币
646 枚
体力
45745 点

最高荣誉勋章

24xs 发表于 2021-5-18 02:44:51 | 显示全部楼层 |阅读模式
In a land called Kumandra, split into five different regions, a warrior named Raya searches for the last dragon in the world.
8 c* l) j6 z, Z& w* i
  D& Q% z; i- R8 x 01.jpg % X) R; x2 D( T2 Q% H( y  _  t

4 O& T+ N8 v% Q2 N2 p3 ?8 x5 f◎译  名 寻龙传说/魔龙王国(港)/寻龙使者:拉雅(台)/瑞亚和最后一条龙/拉雅和最后的龙+ R9 Y, S, W3 `; ^
◎片  名 Raya and The Last Dragon( k% K. [' a7 G) N: t% Z4 i( S
◎年  代 2021
& L( p% ]/ S# P& `4 B( q1 G+ C- J◎产  地 美国
$ ^  W; x3 v8 I& m. m8 z◎类  别 动画/奇幻/冒险+ @/ }* L& ?. @: o
◎语  言 英语' e+ Z8 G( Y0 Z5 J
◎上映日期 2021-03-05(中国大陆/美国)
% f! {) T* L! u# R, L◎IMDb评分  7.5/10 from 56,825 users2 Q# j* d3 J5 \
◎IMDb链接  https://www.imdb.com/title/tt5109280/- U' ~8 u0 a0 z# K
◎豆瓣评分 7.2/10 from 77,778 users' s  q- S* Z) i4 N' g1 U# w, Y9 r  B
◎豆瓣链接 https://movie.douban.com/subject/34804147/
- @/ x9 x; [, O, h◎文件格式 x265 + DTS + TrueHD 8 h3 [, c9 n8 M
◎视频尺寸 3840 x 2160' u* q3 [- v& U" E6 y
◎文件大小 1DVD 53.40 GiB
6 M$ i, X  ~6 K" y& H, c8 k8 \◎片  长 1 h 47 min. _& u7 J& F1 F" G* c: S6 S
◎导  演 唐·霍尔 Don Hall
# C3 j. L1 D9 m5 \) ?       卡洛斯·洛佩斯·埃斯特拉达 Carlos López Estrada% y4 z$ P9 L) m/ y" q7 V
       保罗·布里格斯 Paul Briggs
- w3 a+ B' }# L- @       约翰·瑞帕 John Ripa. o, }. t# z6 i# w( h
◎编  剧 阮基 Qui Nguyen
% q; b# L" t% ?( h       阿黛勒·林 Adele Lim
8 `) t& i3 y# O* v2 z+ t1 l$ U       保罗·布里格斯 Paul Briggs$ F; }( H, [; {8 L' M
       唐·霍尔 Don Hall7 j7 l: g$ P# y& B9 m- d2 |" G
       卡洛斯·洛佩斯·埃斯特拉达 Carlos López Estrada
' @$ `6 m4 a: z5 U2 y0 m( f& I       基尔·默里 Kiel Murray
" y3 C; d! c* x! d! ?, d2 p       约翰·瑞帕 John Ripa! Q3 {4 o3 j- |$ N' p
       迪恩·威林斯 Dean Wellins: r, e" E) }! T+ B' X
◎主  演 凯莉·玛丽·陈 Kelly Marie Tran' y& C" O+ z. g  S! a2 {
       奥卡菲娜 Awkwafina
- w. P, ~. }# n       嘉玛·陈 Gemma Chan
8 Q9 k2 G1 A' z- `/ n$ [       金大贤 Daniel Dae Kim
  S- ~% d- w( i' W6 @: R& g$ ^       吴珊卓 Sandra Oh2 E; o7 x- r- V- X. d3 C
       本尼迪克特·王 Benedict Wong  p+ p' i6 h$ S9 Y2 F/ z7 ~( L
       伊扎克·王 Izaac Wang
: ]% W7 D: a4 A; R) V; H0 d       塔莉娅·陈 Thalia Tran
2 y8 ]+ v6 p" w6 a' r5 b$ }       艾伦·图代克 Alan Tudyk0 T/ R  a" a7 y+ t! S1 |4 M  r
       迪辰·拉克曼 Dichen Lachman, m; {; i/ u' k  X% H
       帕蒂·哈里森 Patti Harrison" x$ T) q: M2 `; @1 n
       姜成镐 Sung Kang
2 ^" c6 y+ T3 |* p1 y+ q. y8 k  h& M       罗斯·巴特勒 Ross Butler
4 G0 \9 }+ q6 ^! p) E" v+ ~       乔娜·肖 Jona Xiao
- f, v5 J6 P6 p+ S5 W. S  C       宋静秀 Lucille Soong9 @' D% P, l5 o
       弗朗克西斯·周 Fran?ois Chau) C$ z: o: h4 Z  v" |7 i7 e2 ^
       保罗·扬 Paul Yen  k* y' W2 L# O" p: @, F+ K# e1 n
       Liza Del Mundo
! o& N' a4 l+ ]; g       塔妮亚·古纳迪 Tania Gunadi
# T4 v: i; @' e5 S+ K' M       Jennie Kwan1 {' h( K7 T" z# P! i
       Lucian Perez/ _2 O' ?5 y9 f5 o- S4 Z
       文森特·罗德里格兹三世 Vincent Rodriguez III( L) q5 u1 X0 h: j5 P, W
       JB Tadena
# Y- v5 I; p; z+ q' k% q8 E       赵丽颖 Liying Zhao2 a, V  F' L0 q# J/ p! q1 D
1 Q, _6 R3 P7 ]; C' R$ A1 d
◎标  签 迪士尼 | 动画 | Disney | 动画电影 | 奇幻 | 华特·迪士尼WaltDisney | 美国 | 皮克斯. K3 v4 V/ c8 a

* T9 [( U6 d) O' k% @◎简  介     8 b) J, K" Y# A8 \* e

3 o2 M# F3 T" c! j6 C. K8 d# _  很久以前,在充满奇幻色彩的龙佑之邦,人类和龙和谐地生活在一起。但当一股邪恶的力量袭来,龙牺牲了自己来拯救人类。500年后,同样的邪恶力量卷土重来,只有一个孤独的战士拉雅(凯莉·玛丽·陈 配音)承担重任,追踪传说中的最后一条龙,以修复这块破碎的土地,团结分裂的人民。在她的旅程中,她也会逐渐了解到拯救世界不仅仅需要一条龙,还需要信任和团队合作。
& r+ K+ @( \7 n' d! W0 X8 ?
  W- G3 u- D4 K7 ]  In a realm known as Kumandra, a re-imagined Earth inhabited by an ancient civilization, a warrior named Raya is determined to find the last dragon.+ o4 W. X# K. T0 k: F5 H9 c; [
Video7 h9 z+ s$ @9 I& Y
ID : 1& A7 g% b8 [4 h9 y, G0 ~, g6 v
ID in the original source medium : 4113 (0x1011)3 _, ~( U- I7 Z! j$ H4 ^
Format : HEVC
: X4 H+ w, m* x/ b5 ~( kFormat/Info : High Efficiency Video Coding0 [# ]9 t. T, M0 E) b
Format profile : Main 10@L5.1@High) n! E+ \1 _( \, R3 t0 s
HDR format : SMPTE ST 2086, HDR10 compatible' ?2 y$ V5 b( h
Codec ID : V_MPEGH/ISO/HEVC( p( \" `3 g, u6 X: Z! W0 [6 N& h
Duration : 1 h 47 min
) b  d3 O; x+ j+ z/ gBit rate : 51.5 Mb/s9 i" w' c' g. o$ ~! Q1 N
Width : 3 840 pixels$ l( [8 b1 ^( f0 z
Height : 2 160 pixels+ k. l, I# _! f2 G3 U& |
Display aspect ratio : 16:9
* k$ L0 ^) k2 C. ?: t+ R3 eFrame rate mode : Constant
. w$ q# D' F, y5 yFrame rate : 23.976 (24000/1001/189150) FPS! c$ I" U& t" L" w& w+ C& H# g, u
Color space : YUV
$ Y' m4 d; k$ F1 W3 ~$ R. P; KChroma subsampling : 4:2:0 (Type 2)
% B0 `1 R8 N( P% @2 TBit depth : 10 bits
0 L* J* @" K6 FBits/(Pixel*Frame) : 0.259; R& C% P2 U* F& d
Stream size : 38.7 GiB (72%)+ a5 m4 b6 F7 L
Title : Raya.and.the.Last.Dragon.2021.2160p.BluRayCD.REMUX.HEVC.DTS-HD.MA.TrueHD.Atmos.7.1-FGT0 z! q4 e1 o% k* x' I. q7 `
Writing library : ATEME Titan File 3.9.6 (4.9.6.2)( B$ e+ f9 d' i% d
Language : English6 ~) d/ q, x0 h/ O8 }# D8 e3 G
Default : No
) I; S- k2 K& f$ u% j0 h' r+ k; TForced : No9 t. c9 P- h3 p( c5 ?
Color range : Limited' t: C2 u( V9 z' P& U2 a
Color primaries : BT.2020/ C! B  X! t0 T% H5 }0 \
Transfer characteristics : PQ  w7 w$ L2 o, T& A0 V' j6 W5 k
Matrix coefficients : BT.2020 non-constant
3 r2 x$ M) K. |# q* \. LMastering display color primaries : Display P31 D- Q. a, `6 q1 G
Mastering display luminance : min: 0.0050 cd/m2, max: 1000 cd/m29 v! K; W. h) E" ]3 P' [
Original source medium : Blu-ray
5 M4 m. C2 k' |4 ~, u7 f. w& m5 j4 @% g% f8 i/ R4 c3 F
Audio #1
0 K7 J( F! H5 B" P0 [2 ~$ DID : 25 A8 ]& a% c/ w3 S) G
ID in the original source medium : 4352 (0x1100)
/ l: _! F9 u6 l. z9 rFormat : MLP FBA 16-ch
+ [7 R5 V% b8 Z+ @Format/Info : Meridian Lossless Packing FBA with 16-channel presentation
5 W5 H* ~  Q1 P, k3 x% lCommercial name : Dolby TrueHD with Dolby Atmos
; Y$ w" \+ |/ g1 l# TCodec ID : A_TRUEHD/ k; B1 j! D! E
Duration : 1 h 47 min3 X- Q+ Q" a6 b, Z9 h5 v
Bit rate mode : Variable' {% K9 i9 _! F4 H- [
Bit rate : 8 470 kb/s
; \5 ?( K7 m) i! Y1 e9 d0 D' PMaximum bit rate : 11.2 Mb/s0 a0 T- [: @; f' c! s9 X- W  B7 n$ Y
Channel(s) : 8 channels
. M7 X, H3 ~+ A/ P" KChannel layout : L R C LFE Ls Rs Lb Rb
$ ~+ f1 Q1 k* s& D+ W" USampling rate : 48.0 kHz& a- l! T# i1 W1 }4 ^4 E. B( A
Frame rate : 1 200.000 FPS (40 SPF)* `+ |5 M' I9 Q( J* f# X
Bit depth : 24 bits
9 p: I8 X; `& y$ `Compression mode : Lossless
" M$ b% m, m, D$ H0 D( [* ]Stream size : 6.36 GiB (12%)3 C$ B# m" ^2 K
Title : Raya.and.the.Last.Dragon.2021.2160p.BluRaycd.REMUX.HEVC.DTS-HD.MA.TrueHD.Atmos.7.1-FGT$ Y' M. b0 T( a( A& i
Language : English$ B! H# t- f! F9 x3 Q% E
Default : Yes
1 j+ G% Z; [; G0 JForced : No; W. z7 ?5 m" R! C! n4 _6 H0 c
Original source medium : Blu-ray7 z# ~6 p: J$ a: p) F2 ~: ^
Number of dynamic objects : 135 z9 N' w! G' k- L
Bed channel count : 1 channel$ F* x2 m2 \5 u. g& a% O0 D
Bed channel configuration : LFE
1 ~0 y: {7 y$ G: e8 x9 d+ h6 @( f/ G
Audio #2
5 b1 {2 {3 S5 g0 c( T& i( J- oID : 34 {5 }  X' q" b* D
Format : DTS XLL: G/ M( }7 F8 r4 s6 v' j
Format/Info : Digital Theater Systems
; y. L- Q7 z! K8 @Commercial name : DTS-HD Master Audio2 t0 P1 Y2 [9 P% Q2 q
Codec ID : A_DTS
( L9 }0 R# s6 D0 p3 S1 g7 _8 O: uDuration : 1 h 47 min
8 t$ R+ O" m: f$ h' z; KBit rate mode : Variable
) W9 s( {- U& ^7 P( zBit rate : 5 285 kb/s
7 @- v) J: k' d( @' h- f7 L4 g" [8 wChannel(s) : 8 channels
4 |( s2 g- p( Z  AChannel layout : C L R LFE Lb Rb Lss Rss% @/ v; a! R- d2 [1 d0 h3 Y' U
Sampling rate : 48.0 kHz0 I7 `# u  E7 P* s0 h1 J
Frame rate : 93.750 FPS (512 SPF)
! W7 w; P, I) h; g6 {7 TBit depth : 24 bits1 M9 G' v: E6 r
Compression mode : Lossless
! I3 T4 H1 S# r4 wStream size : 3.97 GiB (7%)- ]1 ?2 U! R( ~2 V+ @% c, v$ w
Title : Raya.and.the.Last.Dragon.2021.2160p.BluRaycd.REMUX.HEVC.DTS-HD.MA.TrueHD.Atmos.7.1-FGT
- o' j. F% p/ V. q0 N/ q3 rLanguage : English: Q, R, I& Z- v1 L* B
Default : No; t- [; U3 V( X- {8 L1 M/ C, b
Forced : No. s% {; o3 T. z% l8 K

1 g1 l# P" }! d" m- A* \Audio #3
6 u) z  h/ U( Z! m. H7 S4 R% WID : 4. {! s9 [, h3 b& J/ k
ID in the original source medium : 4352 (0x1100)
! m3 F# W+ i7 t/ |4 f" K8 M! tFormat : AC-37 G$ d9 H  A  F# a9 s# u1 q. c4 N
Format/Info : Audio Coding 3
$ ^6 @6 }4 I, U5 j/ v5 J4 |Commercial name : Dolby Digital
" B) y( j; x  \+ [2 s! cCodec ID : A_AC38 k1 H% m. F2 w  ?
Duration : 1 h 47 min
8 p" _  j/ H) G2 I2 ABit rate mode : Constant9 E$ u: t+ i0 W8 ]$ `
Bit rate : 640 kb/s* x! |( }( J) Z0 V, l2 u
Channel(s) : 6 channels
/ w- H% X. q$ \4 ~# H* W6 D; HChannel layout : L R C LFE Ls Rs
0 f+ q! A8 x1 |9 P7 M5 c0 v% u/ c. ESampling rate : 48.0 kHz) g4 g1 g6 s3 E7 p! H6 a1 _1 }
Frame rate : 31.250 FPS (1536 SPF)
/ W. s$ N; C( b, b5 Z0 y6 U/ }Compression mode : Lossy- C+ k8 {+ u6 x9 J2 i$ @9 [
Stream size : 492 MiB (1%)- i# }  M6 v- Z' \- ^5 y* b
Title : Raya.and.the.Last.Dragon.2021.2160p.BluRaycd.REMUX.HEVC.DTS-HD.MA.TrueHD.Atmos.7.1-FGT+ _7 v  m. E9 z+ |( E
Language : English
4 v3 d) o: G; S' e2 q0 G8 ~7 I/ |Service kind : Complete Main; I+ }# f- F/ q. N4 ]
Default : No! Y* k) G6 I2 q: {: _" |' l- s
Forced : No5 Q6 e8 n" m9 g" J
Original source medium : Blu-ray
" D3 N) c- }! y9 ~! [" D- d' s0 V$ ?. e
Audio #4
% s( B1 f: P, N. w7 {ID : 5
. g- U% }! [. d2 ]; V; lID in the original source medium : 4353 (0x1101)
: t6 s; [" ^/ ~* w& yFormat : AC-3
9 [: `9 T  U" Z' [Format/Info : Audio Coding 3
% G1 F5 {; M# [6 v% `Commercial name : Dolby Digital5 O7 K; R0 t+ M
Codec ID : A_AC3
+ _' I' n, }" Z8 `* FDuration : 1 h 47 min
) V$ D/ |$ K1 F& MBit rate mode : Constant
8 r- o6 l; q  ~0 x) q" Y$ FBit rate : 320 kb/s. G2 q8 C3 l2 B
Channel(s) : 2 channels
2 c  p' t' Y# s& S- o' |+ t) NChannel layout : L R7 w7 U: d% \( ~4 p0 r0 N
Sampling rate : 48.0 kHz( @8 l+ G; u4 q; v+ U
Frame rate : 31.250 FPS (1536 SPF)0 X+ w/ l/ I' F  Y6 Y
Compression mode : Lossy6 l+ K. `0 R% a8 ?4 {# [. e/ F
Stream size : 246 MiB (0%), r2 b% l( V& \1 A$ J
Title : Raya.and.the.Last.Dragon.2021.2160p.BluRaycd.REMUX.HEVC.DTS-HD.MA.TrueHD.Atmos.7.1-FGT
; e1 t1 m; g& p- {Language : English- g' h5 ~+ j- l' [0 S# S5 A# t# q
Service kind : Complete Main7 I6 b2 }+ a. }; `
Default : No
' ^7 ^& y8 p0 F6 O4 t3 kForced : No
7 l+ t9 ~: y. q3 {# e  p5 yOriginal source medium : Blu-ray
' C# h7 z* }: t+ c  ~8 I6 f8 Y
0 w; [+ J+ F. m. XAudio #5
; v& w8 K0 j. t8 wID : 6- V# K7 x  G: r$ |4 k7 ?% e
Format : E-AC-3
0 U6 |4 V% u9 t% T" U8 J6 ?Format/Info : Enhanced AC-3
( m6 \2 y- m) z) mCommercial name : Dolby Digital Plus8 u# ?/ W0 F" T5 E) z% ?
Format profile : Blu-ray Disc& h2 V2 s- Q# J/ O4 x' ^# `, @/ M& v
Codec ID : A_EAC3+ d' ^& ^2 z  ]3 A: j9 X( t0 K
Duration : 1 h 47 min9 N# k" ~* x: c$ d9 Y
Bit rate mode : Constant1 V7 R% K% [" t) s
Bit rate : 1 024 kb/s& @2 {, q% y( [
Channel(s) : 8 channels/ f3 P, W% V, I9 T/ A
Channel layout : L R C LFE Ls Rs Lb Rb$ H, R8 H- W: @3 E
Sampling rate : 48.0 kHz) {: Q8 M  B7 X! e- @+ L
Frame rate : 31.250 FPS (1536 SPF)6 J( b$ F: |3 O
Compression mode : Lossy
$ h$ P9 g0 \8 D4 Q7 F2 PStream size : 787 MiB (1%)* q9 G# F- D% u4 Q2 h( k. L
Title : Raya.and.the.Last.Dragon.2021.2160p.BluRaycd.REMUX.HEVC.DTS-HD.MA.TrueHD.Atmos.7.1-FGT
- K; H/ m1 @, uLanguage : French
6 v% L. S8 b, z4 d( M/ zService kind : Complete Main  Y; l+ V2 R! u  Q& `
Default : No" V3 t! j5 }& b. {3 |7 j. ]
Forced : No4 N/ k9 q4 J, M* u  x, x) t

: p: o0 ?3 |* C) P/ yAudio #67 R3 h) S7 T( v" G: S# J
ID : 7
5 G3 ~$ q& g6 R0 m( ~, F) {6 EID in the original source medium : 4354 (0x1102)
( a; j  d! a1 Q( A! Z  \Format : AC-3
: J# \# R' _: a' c4 W7 y5 uFormat/Info : Audio Coding 39 a: _  I" I8 V+ X- C
Commercial name : Dolby Digital( e; y5 m+ X1 N/ p/ g
Codec ID : A_AC3
- l6 ^$ s1 @: Z' d7 e" \0 |Duration : 1 h 47 min
; f0 B/ R  F" S" F( S4 OBit rate mode : Constant; M( `* `# Z- S3 ^( I( x- k
Bit rate : 576 kb/s
' p  y! E/ z3 l  G) ^7 M" U# ]& G3 ^Channel(s) : 6 channels! s2 y9 I! Y  k! O. G; J
Channel layout : L R C LFE Ls Rs+ d0 C1 @7 T% N( X
Sampling rate : 48.0 kHz0 A3 J) p3 V# `. I! [: {
Frame rate : 31.250 FPS (1536 SPF)
! i7 s. j  F* F" m8 NCompression mode : Lossy
6 j  P$ G/ D2 c- f# C6 O5 cStream size : 443 MiB (1%)" e! R+ u& a9 u9 [
Title : Raya.and.the.Last.Dragon.2021.2160p.BluRaycd.REMUX.HEVC.DTS-HD.MA.TrueHD.Atmos.7.1-FGT
6 A3 l' ^5 L3 @" t* }$ kLanguage : French! B9 c1 ?7 M. F8 ~3 R: V0 r
Service kind : Complete Main2 w" s, `+ r5 x/ S0 q
Default : No
8 \9 C$ S5 b" s! ~  _Forced : No- V* q3 D8 V! S1 Q, S% |& T
Original source medium : Blu-ray$ t' n7 p. R/ `
1 @6 t* i: D) C7 U
Audio #7
( ]. `: J# ~& R; J9 ^9 bID : 8
, t0 a; q3 ]! \Format : E-AC-3
+ ~, S% g. p1 H1 o2 J" d! @3 tFormat/Info : Enhanced AC-3
6 g0 L+ O, v  {% p7 C4 @Commercial name : Dolby Digital Plus* S% p( `# z7 @" \' ^
Format profile : Blu-ray Disc
7 g( S( a- d# c, p; T; P: C+ ICodec ID : A_EAC3+ i3 \8 x8 x9 K' M0 Y# @+ \
Duration : 1 h 47 min
0 _5 X% Y* }; x; }- t4 \Bit rate mode : Constant/ a7 T$ X) @" v6 L$ e
Bit rate : 1 024 kb/s- v0 ~4 Y4 V( L
Channel(s) : 8 channels
1 [% c9 E" x8 z. S2 E4 ^, JChannel layout : L R C LFE Ls Rs Lb Rb
" g$ K1 t' e" r6 P5 R: w$ c. \Sampling rate : 48.0 kHz
8 B  e2 X9 O& Q: I- mFrame rate : 31.250 FPS (1536 SPF)% S9 Y" [% P% b$ k/ s
Compression mode : Lossy
$ n; z! j7 ]3 Y# H* NStream size : 787 MiB (1%)5 ^$ _7 r, f& U8 d
Title : Raya.and.the.Last.Dragon.2021.2160p.BluRaycd.REMUX.HEVC.DTS-HD.MA.TrueHD.Atmos.7.1-FGT
0 e$ B& `2 G" vLanguage : Spanish
+ U+ g( A& \' g+ nService kind : Complete Main: w3 ?8 a: c/ }! v+ x
Default : No
5 I4 M) e7 I2 E: N2 d* g; K6 i) \5 KForced : No8 r: h& w; C/ E0 U, K3 A5 k

: V2 [. G- E7 x2 ^, ]2 W3 qAudio #80 Z4 |1 ?$ O8 p% {
ID : 9
5 k, t- l9 q' L* G, c- EID in the original source medium : 4355 (0x1103)
7 S/ w( S. M- j7 C- eFormat : AC-3# \1 k! L9 x3 y, n( I
Format/Info : Audio Coding 3
) K0 y3 b$ {- fCommercial name : Dolby Digital
* ^& |3 m; Y; g) t0 {Codec ID : A_AC3+ j; U' x3 ^; M4 ]3 w, l; N
Duration : 1 h 47 min2 {' N: M  ~8 D" ?7 I& z3 u2 S* u
Bit rate mode : Constant
* s4 M" T# ~. BBit rate : 576 kb/s
/ k  E: g% m& R# }9 ]0 tChannel(s) : 6 channels; {. ~, o1 b( D+ E
Channel layout : L R C LFE Ls Rs
/ f& G% i( Z% q1 vSampling rate : 48.0 kHz: {- J+ A$ S* y. U! n% }5 r2 u4 q$ {
Frame rate : 31.250 FPS (1536 SPF)
' r- K9 e& `8 S+ _. ~& r7 `9 K8 mCompression mode : Lossy
; C% ?  ]* ^% eStream size : 443 MiB (1%)
- A% Z' `' U% U8 u8 xTitle : Raya.and.the.Last.Dragon.2021.2160p.BluRaycd.REMUX.HEVC.DTS-HD.MA.TrueHD.Atmos.7.1-FGT; F7 k3 x% [' F
Language : Spanish6 M" P" {5 K5 ]& M7 ?& {
Service kind : Complete Main
4 _+ H: p" i0 v# W1 Q. m0 eDefault : No
1 M/ Y8 l: s3 s+ Z9 BForced : No( L( }9 [% k% O1 n/ L% q1 _
Original source medium : Blu-ray
# |7 I" v# t' R+ K2 g9 w4 U4 O
* q8 M: Z( S9 Z: G/ o+ E. t  ]Audio #9
* r/ d1 G' [: ^8 a. u6 KID : 10
0 M# o& e, z. q/ f6 K) H5 CFormat : E-AC-3) }. G* H9 U1 H6 {6 |3 {
Format/Info : Enhanced AC-3
0 l8 R' g! T, N6 t1 d5 [Commercial name : Dolby Digital Plus* o+ C, C, }" z3 a0 X& g' R
Format profile : Blu-ray Disc6 F& s  }  [+ W, o" g, r  g
Codec ID : A_EAC3; r- {& ?  I. I! G
Duration : 1 h 47 min
) m  [; D6 j# OBit rate mode : Constant
5 [- p: n% W& ?6 m0 E) r3 IBit rate : 1 024 kb/s# k. N$ V  s# _+ p
Channel(s) : 8 channels: t( v1 \5 C. j! h& j2 S
Channel layout : L R C LFE Ls Rs Lb Rb$ a& K5 M6 h! s7 ^5 K# X( A8 V5 i( j
Sampling rate : 48.0 kHz. I- @8 W# o$ J2 N: e; G
Frame rate : 31.250 FPS (1536 SPF)
$ z: S* K+ C5 ?8 E7 yCompression mode : Lossy7 `7 N" P1 \8 Y9 F
Stream size : 787 MiB (1%)# T: N4 N5 n" Z
Title : Raya.and.the.Last.Dragon.2021.2160p.BluRaycd.REMUX.HEVC.DTS-HD.MA.TrueHD.Atmos.7.1-FGT! T- D4 r- U" K& F; d
Language : Japanese
: o  ?) K5 ?5 v0 F8 ~Service kind : Complete Main
, P, s: {- p$ k" I. r9 tDefault : No
- P5 K/ K+ ?; x% |# rForced : No
, N+ [5 A3 E( z1 G8 q) V- W. u: m8 \: i2 d3 l
Audio #10& i; Q2 a' y- l
ID : 11
8 B! C2 W- M% _: `* [) S* wID in the original source medium : 4356 (0x1104)
1 @8 g0 q1 u7 K' k: F) kFormat : AC-3
$ R: ~5 ?; u4 g+ u4 ^8 e1 eFormat/Info : Audio Coding 3
7 p& J$ C! w( N! N! pCommercial name : Dolby Digital7 @- g& V8 U0 R
Codec ID : A_AC3
7 g0 X4 a2 |" K) e9 Z3 F) T6 J) D4 NDuration : 1 h 47 min4 R+ A# t! D4 o: y9 Z
Bit rate mode : Constant7 p' _: P0 d! e2 a" Z& `
Bit rate : 576 kb/s
$ q; @. F+ U( W8 Y- {3 J! kChannel(s) : 6 channels: K% d9 F& D" t
Channel layout : L R C LFE Ls Rs3 Q, ^, _3 X/ M% U
Sampling rate : 48.0 kHz4 P- ~) o. K$ k7 i$ v, e
Frame rate : 31.250 FPS (1536 SPF)
4 ^, \& F  \. M0 N! X$ y4 ECompression mode : Lossy
4 g: G. q* x" M* [9 ^( c& }# k' eStream size : 443 MiB (1%)
( \1 f: W+ y" d! U8 U" O. eTitle : Raya.and.the.Last.Dragon.2021.2160p.BluRaycd.REMUX.HEVC.DTS-HD.MA.TrueHD.Atmos.7.1-FGT
0 o* [0 I2 x0 j  gLanguage : Japanese  u, @/ n- r0 S6 E
Service kind : Complete Main! g% h" h# B7 R4 e5 k* S
Default : No: d( K9 ~+ `. Q. E! ]! T7 O
Forced : No/ f. p9 z1 Y8 D
Original source medium : Blu-ray
+ B8 c, v/ ^- M% E/ x9 |7 k
( h& D# K3 q+ u4 mText #1% d$ P9 k& K; L3 u( w
ID : 12
; p; |: U! ]7 R, @* yFormat : UTF-8: ?, `% N+ I% z
Codec ID : S_TEXT/UTF8
3 K3 U! B( y3 w. m) @* A' ICodec ID/Info : UTF-8 Plain Text
/ ~7 e# ]+ Z4 `, b4 r+ b  V2 wDuration : 1 h 37 min. i: r+ d& Z1 {7 }5 q- k6 X
Bit rate : 51 b/s
+ k: e8 x7 j& ]' N* [* J4 V- iCount of elements : 1360
7 q2 ]) }. Y$ eStream size : 37.1 KiB (0%)
& I5 u: R9 x: G. {7 P8 uTitle : English-SRT2 Z7 @$ s$ R$ |
Language : English
2 _9 V' w; ~+ U- KDefault : Yes- D2 N0 s1 @4 V/ z
Forced : No! A, J& |& i5 k" `" _
* }, S& [+ d4 Q9 s
Text #2
) k0 H( V1 p0 x: U. Q% pID : 13) l  M1 h- Z( |; v0 C6 o7 d
ID in the original source medium : 4768 (0x12A0)
6 Y6 Q" n+ _0 \; jFormat : PGS' f) C* ?/ V; J. t! P+ u+ k2 o
Muxing mode : zlib/ K( u/ {' q" t" x9 z5 m1 i0 Z
Codec ID : S_HDMV/PGS
% I* A$ Y4 k. kCodec ID/Info : Picture based subtitle format used on BDs/HD-DVDs
4 }, y- Q" z8 r" X( l+ U4 KDuration : 1 h 46 min/ F" E' n, x) _- P  X" T) F( E
Bit rate : 44.3 kb/s$ |! Q  |5 M0 E5 q- l
Count of elements : 38390 H( J3 k4 `/ U. N3 F& r
Stream size : 33.7 MiB (0%)5 E" W; [% m+ d" b4 n
Title : English-PGS
5 ?. S- G7 |  f) l4 uLanguage : English
- R1 ?. T6 I- ^; F8 g+ w$ XDefault : No
0 Q( ^& N' h; [4 gForced : No5 h4 d+ Y3 P( Q
Original source medium : Blu-ray2 I; ?. F8 C% e' P4 ^/ a: n+ Y6 _% r

6 q: B( {8 v$ f1 ], qText #37 ~- R, |9 _' m1 [
ID : 14
( X1 P! V! E+ p# k% s% qID in the original source medium : 4769 (0x12A1)
* B4 G& A/ v% k6 T) u! v. H# hFormat : PGS
$ ^% O6 t! n0 C4 Z4 _: xMuxing mode : zlib+ u+ h( Q+ H5 P  q) Q
Codec ID : S_HDMV/PGS, t& h8 F. a" u# ]  P1 n5 R
Codec ID/Info : Picture based subtitle format used on BDs/HD-DVDs
; b5 _7 q) k, i: iDuration : 1 h 45 min
5 |( c% x7 f" ^. TBit rate : 26.7 kb/s
* B& V. V4 G& uCount of elements : 2315, u9 N( u* Z  Q& ^7 N
Stream size : 20.2 MiB (0%)3 C- b% A+ j5 V1 W+ t
Title : French-PGS7 p1 N3 u8 t0 O2 ~; |; r
Language : French
+ \2 W% K7 H# Q. F- D7 s. ?" X" jDefault : No: Q  p  P! @$ P* b( z: ^0 k+ w
Forced : No
* |, Z. W' Q; ?( a! c' xOriginal source medium : Blu-ray
  t1 W: m! M; A. N" s( H/ g% V
4 A7 }& W  v0 }Text #4$ {3 E# w4 ^; Y
ID : 15
% ~; @# Q; p% [) \9 q) J2 {ID in the original source medium : 4770 (0x12A2)! m; B& @  A2 n4 O3 X; B! o
Format : PGS
2 U9 q' Y1 q, o, p  \Muxing mode : zlib
, M, a7 j. d  B) ]/ N! RCodec ID : S_HDMV/PGS! N3 i3 y( M' h; y2 H8 x+ |
Codec ID/Info : Picture based subtitle format used on BDs/HD-DVDs
! [* v. G/ {: j* JDuration : 1 h 45 min
" o2 Z8 r# k3 p- e5 i5 F$ P7 kBit rate : 28.5 kb/s; U  _8 o8 X8 ?5 O3 Z
Count of elements : 2322
* ?* q% E. t! x7 o9 R- ?Stream size : 21.6 MiB (0%)
* \4 h1 [2 b, X& P5 K% a, fTitle : Spanish-PGS
2 c$ a; u# p- x* l3 ZLanguage : Spanish5 f" A6 e) o9 p+ R
Default : No
' c' C& C4 `5 dForced : No
: l& F& |# }7 g1 OOriginal source medium : Blu-ray
  Z% x8 Q, a, ^+ d+ U2 A% b+ P7 {! u% l) d# W3 T" l
Text #5
. N$ I6 F6 D7 e3 m, UID : 16
4 d* n. r: E3 B4 _ID in the original source medium : 4771 (0x12A3)3 ~0 a- L% |6 [5 l
Format : PGS" r  ?# r2 ]; X' q5 |% ~
Muxing mode : zlib
6 |+ |; Y/ }& ?$ V' j! yCodec ID : S_HDMV/PGS
* H# r8 s! g/ w! @+ N% l, \4 l+ [7 WCodec ID/Info : Picture based subtitle format used on BDs/HD-DVDs; P0 }! `& Q. z! [8 n
Duration : 1 h 45 min
7 v8 K1 a( U9 i* D' ?Bit rate : 22.6 kb/s: M  U. z/ v$ R5 M
Count of elements : 2208
  K* k" `& p6 p# I( dStream size : 17.1 MiB (0%)
2 @! ?- a$ I# \% g0 l, gTitle : Japanese-PGS6 }: O& ^, r9 y' ?
Language : Japanese4 C' E- o7 V! ]2 d  r: F: r2 }
Default : No
4 W8 _8 I6 q4 R8 y. z/ oForced : No- W* _; o  e$ l) I, ?$ G; I& _
Original source medium : Blu-ray2 o1 U! j' E, |! c2 M  B$ H5 f3 R

' Q- |6 b% \2 W, l4 uText #6
- x( a3 Y9 q% F# ^7 yID : 17
, t/ d: \4 L8 P6 u. iID in the original source medium : 4772 (0x12A4)8 z5 X. f' r' M* O
Format : PGS
% f; G" ]8 J1 `* AMuxing mode : zlib
' I% U) }( t) }/ h$ E9 S- k" oCodec ID : S_HDMV/PGS1 j( N" @3 e/ C; U+ \1 ^* P
Codec ID/Info : Picture based subtitle format used on BDs/HD-DVDs
9 p4 S( C" z4 l! o% \4 M2 N- @Duration : 1 h 46 min/ \( w1 a# M  ^
Bit rate : 1 069 b/s% v2 u& P5 G1 A, ]- Q8 [  w4 M% i  F
Count of elements : 884 s$ Q5 L" n6 x! Z' e1 n
Stream size : 837 KiB (0%)
2 \# a" j+ q  x$ FTitle : French-FORCED-PGS6 v; q2 m- e4 D. E6 f( k1 g
Language : French
8 \; B8 @+ B9 O$ L/ iDefault : No
% q0 q/ v% h6 R) k" b9 D0 KForced : No
% S  }" M- A1 G) DOriginal source medium : Blu-ray
0 g/ q1 O( J& G7 E5 Y3 q5 ?1 w" Q. K5 M* Z
Text #7
6 F) t' r' M/ ?2 iID : 18
( {; l$ |8 C% m/ g; Y9 |9 nID in the original source medium : 4773 (0x12A5)
# |  f# e* `& ?# Y/ IFormat : PGS0 O2 ]: x- R* @2 `$ e
Muxing mode : zlib
( C. ^& j! S( s1 ~  k' uCodec ID : S_HDMV/PGS2 @2 F4 L) V* |& T; w5 M, E6 K
Codec ID/Info : Picture based subtitle format used on BDs/HD-DVDs- A; e8 l; R6 Z" I% L1 v  P
Duration : 1 h 46 min4 \. \* P" m# O2 b) f1 \  {! g& B6 l
Bit rate : 1 198 b/s2 b/ @; ?& q4 f5 J8 p
Count of elements : 108
' R, R/ x5 p; y3 U8 eStream size : 938 KiB (0%), ?0 I; A  H* k  K2 k; J0 w
Title : Japanese-FORCED-PGS% d4 \& q* {; n2 ^6 K
Language : Japanese5 y$ ?! c3 }; l) {
Default : No
* P& Q: h$ X3 D% r! e$ ?Forced : No
2 I+ m5 J* m+ v9 \  ^" `& _4 MOriginal source medium : Blu-ray& ~% \6 L: n8 o( j/ z% y

+ i7 N: H, y% c! pMenu% X, y- Z$ z- ]" Y' g; ?
00:00:00.000 : Chapter 01$ j) W' ~8 m7 S! {' `
00:08:08.696 : Chapter 02
6 g( p. J( x1 x5 e+ f: F00:11:00.159 : Chapter 03
' a* a9 G: @* y9 a00:15:16.415 : Chapter 04
- e7 x; t5 A: Y; u. {9 A; \, H' C6 d. H00:20:15.255 : Chapter 05
$ u% |( q( B3 G* A3 z00:28:28.498 : Chapter 06
) g% V5 L, x' L; i  c( i00:35:56.904 : Chapter 07& [" ^2 y* w6 d- j% q/ i2 H! o
00:37:43.261 : Chapter 08& z% z, c2 j( C: B4 n5 A( e
00:41:12.595 : Chapter 09
2 o+ J/ `- Q! E1 x; e1 i00:43:19.388 : Chapter 10
0 h! Q/ ^9 D) ?00:48:56.224 : Chapter 116 o- U! n/ W8 W7 \& p' H
00:51:31.505 : Chapter 12- Z4 E0 d/ O7 k2 {: z/ J& {
00:53:13.398 : Chapter 138 N  R9 \5 A6 j$ E" w
00:55:20.817 : Chapter 14
2 M+ e% p( ^6 S) Z5 t00:59:07.669 : Chapter 15
! l9 |8 t$ T. ~2 r01:01:57.213 : Chapter 16
6 z( ]4 v7 |2 [01:04:34.412 : Chapter 17/ F* o7 q/ n7 }5 z# X
01:06:47.211 : Chapter 18
- j6 b& e9 r, e$ X& }01:11:21.610 : Chapter 19( M$ I3 \4 O9 p. a$ Z* F
01:15:50.921 : Chapter 20' \, X' `5 A+ K1 V# _: l- B
01:18:41.007 : Chapter 21
! R% B: o, G, p/ n  Z; T01:28:26.050 : Chapter 22) X3 i( }& k. F8 h. s" c
01:35:08.285 : Chapter 23
  W6 C2 p4 ?5 ]! |' V" x- f( t
游客,查看本帖隐藏内容请回复 | 加入VIP贵宾可免积分免回复 了解详情 | 还不是会员:点击获取邀请码 Invitation Code

2

主题

499

帖子

1696

积分

Sponsor

金币
49 枚
体力
594 点
livenchen 发表于 2021-5-20 20:09:28 | 显示全部楼层
谢谢楼主共享好电影!

0

主题

227

帖子

947

积分

Sponsor

金币
2 枚
体力
483 点
RadiantYu 发表于 2021-5-22 10:30:29 | 显示全部楼层
Bluraycd又有新电影发布了,激动中……!  ~5 b0 t% ^- k) Y2 V* E: h
Bluraycd.com movie updates really fast, also did not release issued, whether you believe it or not, anyway, I believed!

0

主题

167

帖子

733

积分

Sponsor

金币
68 枚
体力
354 点
90years 发表于 2021-5-24 19:46:16 | 显示全部楼层
喜欢这个电影

0

主题

53

帖子

422

积分

Sponsor

金币
183 枚
体力
129 点
aacq 发表于 6 天前 | 显示全部楼层
谢谢楼主分享精彩电影

4

主题

987

帖子

3098

积分

Sponsor

金币
4 枚
体力
1125 点
QQ
davidqin 发表于 6 小时前 | 显示全部楼层
楼主发贴辛苦了,I*老*虎*U!
- \9 B: F  {( o# \+ `In fact, I have always felt that the landlord of good taste! Ha ha!9 F7 s- Q% m$ F, O- p7 [8 T

4

主题

987

帖子

3098

积分

Sponsor

金币
4 枚
体力
1125 点
QQ
davidqin 发表于 6 小时前 | 显示全部楼层
看了LZ的帖子,我只想说一句很好很强大!""
; K/ Z1 L* |! |' q+ J祝愿蓝光社区越办越好!I wish Blu-ray communities better and better!7 Z  j+ G& j$ B$ G1 d) d7 ~1 ~* J% p

4

主题

987

帖子

3098

积分

Sponsor

金币
4 枚
体力
1125 点
QQ
davidqin 发表于 6 小时前 | 显示全部楼层
啥也不说了,楼主就是给力!
3 m' k. b+ Z$ b/ \6 zBluraycd.com movie updates really fast, also did not release issued, whether you believe it or not, anyway, I believed!

4

主题

987

帖子

3098

积分

Sponsor

金币
4 枚
体力
1125 点
QQ
davidqin 发表于 5 小时前 | 显示全部楼层
Bluraycd又有新电影发布了,激动中……!
' U; }  T6 y& e) w; k至少是现在,我一天没有访问蓝光电影论坛就不爽!At least now, my day did not visit the Blu-ray Film Forum on unhappy!5 Q* v2 C! @* P# V: A; x8 y

4

主题

987

帖子

3098

积分

Sponsor

金币
4 枚
体力
1125 点
QQ
davidqin 发表于 3 小时前 | 显示全部楼层
每天都来蓝光论坛看看,我爱蓝光电影。* G* L+ n( `. D) d2 C
至少是现在,我一天没有访问蓝光电影论坛就不爽!At least now, my day did not visit the Blu-ray Film Forum on unhappy!
1 I9 H: I1 D3 W, z( Z+ Z6 L

本版积分规则

小黑屋|Archiver|蓝光电影资源网

GMT+8, 2021-6-12 19:44

快速回复 返回顶部 返回列表