BluRayCD Forum

 找回密码
 立即注册【分享大片】
查看: 199|回复: 13
收起左侧

[4K极清电影] 寻龙传说/魔龙王国 [4K REMUX无损版] Raya and the Last Dragon 2021 2160p BluRaycd REMUX HEVC DTS-HD MA TrueHD Atmos 7.1-FGT 53.40GB

[复制链接]

9516

主题

9917

帖子

9万

积分

Super moderators

金币
645 枚
体力
45747 点

最高荣誉勋章

24xs 发表于 2021-5-18 02:44:51 | 显示全部楼层 |阅读模式
In a land called Kumandra, split into five different regions, a warrior named Raya searches for the last dragon in the world.
/ E! {6 G; ], G: k2 V/ s  O- f7 x$ j: d
01.jpg
' p6 h  V( n7 U! _  k  h) ]9 u4 x) z( Y$ A, m/ j9 s
◎译  名 寻龙传说/魔龙王国(港)/寻龙使者:拉雅(台)/瑞亚和最后一条龙/拉雅和最后的龙/ v$ ]$ @/ q- ~" K" b
◎片  名 Raya and The Last Dragon
0 ^1 N6 c! B5 h, \◎年  代 2021! U# `. S+ c9 C  d7 [
◎产  地 美国" f+ E- M$ V% ^) _7 o
◎类  别 动画/奇幻/冒险  x0 V; Q; \' z. N+ H1 [
◎语  言 英语  ?  c1 r; }) E9 }" X! @, g/ W. b
◎上映日期 2021-03-05(中国大陆/美国)2 x3 B% w* m. Y8 _9 ]* [
◎IMDb评分  7.5/10 from 56,825 users
' \8 `% T2 U; O" ]" Q  D" E◎IMDb链接  https://www.imdb.com/title/tt5109280/
) Q* Y: j" X7 |$ W! z◎豆瓣评分 7.2/10 from 77,778 users. h; }1 b- d  K  k. z* W9 u% F4 l
◎豆瓣链接 https://movie.douban.com/subject/34804147/8 b9 [' a. T" [7 Q( p1 s
◎文件格式 x265 + DTS + TrueHD 1 v/ S8 q+ X* ?. P+ J
◎视频尺寸 3840 x 2160& ^( c5 U1 P5 C0 P+ w( N4 V
◎文件大小 1DVD 53.40 GiB( @) i" T; y  R4 E
◎片  长 1 h 47 min+ V0 _% W/ P' E' V
◎导  演 唐·霍尔 Don Hall/ H: p# R  E7 b& D2 B
       卡洛斯·洛佩斯·埃斯特拉达 Carlos López Estrada! z0 P: f$ ^- w
       保罗·布里格斯 Paul Briggs
5 e* _$ u) T) F, o1 P2 ?$ @       约翰·瑞帕 John Ripa
# g3 q0 \- z' t7 F◎编  剧 阮基 Qui Nguyen: j+ m) M# `' F5 J7 P
       阿黛勒·林 Adele Lim* w8 ~; k" s- `% E
       保罗·布里格斯 Paul Briggs
( I: m: u0 A- N' ~       唐·霍尔 Don Hall
9 J. b( [3 X( i, \7 X! ?# D" e* j       卡洛斯·洛佩斯·埃斯特拉达 Carlos López Estrada
8 k, o0 S# m. x- K' ]       基尔·默里 Kiel Murray. \1 L9 q$ ~. k3 X! c
       约翰·瑞帕 John Ripa# L: r3 D3 x/ T3 H5 X
       迪恩·威林斯 Dean Wellins
) O! O2 \+ r8 w* y0 n) \& V◎主  演 凯莉·玛丽·陈 Kelly Marie Tran
+ Z" s! J; |4 J" A4 e4 L5 ]/ ?       奥卡菲娜 Awkwafina  j$ n! M" m5 M5 _* @
       嘉玛·陈 Gemma Chan( S4 ?5 X7 L( ]
       金大贤 Daniel Dae Kim
$ y; h8 H6 w8 A6 h" Z) q       吴珊卓 Sandra Oh
) x4 k9 N* ~; H  l' H% w       本尼迪克特·王 Benedict Wong) t6 h; }- u% F" ?! w; u) q
       伊扎克·王 Izaac Wang
3 U/ y  O$ p9 K( @& p+ @       塔莉娅·陈 Thalia Tran
5 g0 W( t* z5 j$ A0 }: h7 ]( [: ]       艾伦·图代克 Alan Tudyk" h8 {' t. @" `, z
       迪辰·拉克曼 Dichen Lachman
4 ~& {& }4 n1 L. b  p; B. ]1 X       帕蒂·哈里森 Patti Harrison
5 x# K  g' m9 A/ I$ F0 i       姜成镐 Sung Kang) }9 K, N/ y& ~! Q9 F
       罗斯·巴特勒 Ross Butler
% ?! K% f* E( x1 E* U       乔娜·肖 Jona Xiao- A# m, w% ], W9 o+ I
       宋静秀 Lucille Soong
7 M, \* A% v# y6 g3 r2 |' \7 |# E       弗朗克西斯·周 Fran?ois Chau/ W& j+ u, P) i9 M. I4 V; @
       保罗·扬 Paul Yen
  E; l7 I7 k9 L1 ~6 j       Liza Del Mundo
' L) `% n  T5 `! l7 s- x. |       塔妮亚·古纳迪 Tania Gunadi0 ], o& m2 \0 s( t
       Jennie Kwan) v' T" b: D4 s1 K* W; C
       Lucian Perez
7 B1 E1 E( Z0 P# x3 b! z       文森特·罗德里格兹三世 Vincent Rodriguez III
! Q& F% l: p( T7 f       JB Tadena( a! H* W: n7 C
       赵丽颖 Liying Zhao8 g4 C+ j2 A' ?) \% u7 G, K
5 S0 l# y2 B1 v
◎标  签 迪士尼 | 动画 | Disney | 动画电影 | 奇幻 | 华特·迪士尼WaltDisney | 美国 | 皮克斯( k5 Y. D$ Y1 `5 S

" a, A9 p6 ~( Y+ O" W9 |/ f◎简  介     7 ^, z# d' Y* D2 S

/ c7 M+ C/ }8 N+ N( N, I& u  很久以前,在充满奇幻色彩的龙佑之邦,人类和龙和谐地生活在一起。但当一股邪恶的力量袭来,龙牺牲了自己来拯救人类。500年后,同样的邪恶力量卷土重来,只有一个孤独的战士拉雅(凯莉·玛丽·陈 配音)承担重任,追踪传说中的最后一条龙,以修复这块破碎的土地,团结分裂的人民。在她的旅程中,她也会逐渐了解到拯救世界不仅仅需要一条龙,还需要信任和团队合作。
4 @* j1 R% E: x4 \
# M4 _) V* L; G$ D' _0 a  In a realm known as Kumandra, a re-imagined Earth inhabited by an ancient civilization, a warrior named Raya is determined to find the last dragon.
$ A# ?; K4 Y0 d8 I6 m# }# ^/ _4 c
Video
& @, u4 r0 \2 U0 iID : 18 t2 ~7 I$ R) V! f+ _6 P6 y- ^
ID in the original source medium : 4113 (0x1011)2 m  `4 |. _  m2 N' P
Format : HEVC5 V5 I8 R0 Z1 ]8 F
Format/Info : High Efficiency Video Coding
- J: b- b6 a5 K: o8 aFormat profile : Main 10@L5.1@High
, Y! z! b+ V4 Y; M+ B/ p+ FHDR format : SMPTE ST 2086, HDR10 compatible$ R7 j4 Y( \# p2 l8 T
Codec ID : V_MPEGH/ISO/HEVC4 u* \$ B% |2 C- O- b$ V
Duration : 1 h 47 min
3 J3 P5 i3 o# U7 l" R/ S4 YBit rate : 51.5 Mb/s+ ~( t% ?9 |' a& T  K0 Z
Width : 3 840 pixels8 k* j$ P- Q9 F. |$ ^, w5 ^
Height : 2 160 pixels
% J/ [% I" I& N6 n  Q9 x% x; {Display aspect ratio : 16:99 a: a' M- [( g
Frame rate mode : Constant: Z) S! @6 C: K- H( Y8 w
Frame rate : 23.976 (24000/1001/189150) FPS
  q$ c; t9 \) WColor space : YUV
9 j* N0 c' {: @2 T* ~Chroma subsampling : 4:2:0 (Type 2); T) |) ?: I4 F
Bit depth : 10 bits
7 h) G, ]. a+ |/ `' S/ {Bits/(Pixel*Frame) : 0.2598 ?. ?& B% R, y$ S
Stream size : 38.7 GiB (72%)
; n7 a* i; w9 T0 hTitle : Raya.and.the.Last.Dragon.2021.2160p.BluRayCD.REMUX.HEVC.DTS-HD.MA.TrueHD.Atmos.7.1-FGT! y' v& E( }6 b! \
Writing library : ATEME Titan File 3.9.6 (4.9.6.2)
9 L. |+ N. f( j2 ZLanguage : English
4 ]4 i. q9 y  H) `* s) u$ WDefault : No+ z* U2 \0 s1 f! ]  w$ i$ }
Forced : No" P6 ~( p  S  T% J) r  e7 p+ G
Color range : Limited% d( D) F+ y. m! M& \; g
Color primaries : BT.20200 D+ y; g- ]! N6 R# R8 {, m
Transfer characteristics : PQ
) C! o1 A, W! O: u$ d4 NMatrix coefficients : BT.2020 non-constant
. `, g$ j* F/ @( Q5 R, e# V& WMastering display color primaries : Display P3) f7 n7 O, \  N$ K0 Z
Mastering display luminance : min: 0.0050 cd/m2, max: 1000 cd/m27 C& g" n1 K1 q' Y9 W% z
Original source medium : Blu-ray
% L' t' r/ R! {! Y$ b8 I! S1 }* b; M, f# B5 Y/ _: a
Audio #1
# u4 U+ o+ F9 t0 P2 Q: ^ID : 20 H, i! v" \3 L1 d5 _
ID in the original source medium : 4352 (0x1100)
7 T/ G4 S! |+ j! n* w" RFormat : MLP FBA 16-ch9 c/ v0 A$ }/ F. c
Format/Info : Meridian Lossless Packing FBA with 16-channel presentation
- Y7 E/ F: q) c1 D2 S3 `0 c, K- yCommercial name : Dolby TrueHD with Dolby Atmos9 e  F% p2 _, f0 n
Codec ID : A_TRUEHD
7 T% A/ I+ c9 i$ T$ ZDuration : 1 h 47 min
$ Z6 G! d7 M/ q, I3 `Bit rate mode : Variable
8 `+ r, z/ X4 B: x0 {Bit rate : 8 470 kb/s! K2 L( _( B9 O* B* `
Maximum bit rate : 11.2 Mb/s
% B! ^* W) _5 p5 ^* F4 t# V* pChannel(s) : 8 channels
. M8 u$ X$ F" Z" y# {Channel layout : L R C LFE Ls Rs Lb Rb& |9 w& [2 v9 r- h
Sampling rate : 48.0 kHz- H' `. J$ s' y1 c
Frame rate : 1 200.000 FPS (40 SPF)
- L3 }4 E* ?) V0 dBit depth : 24 bits
. i/ s3 r$ s4 g% y3 jCompression mode : Lossless7 ^' {6 \" K! N- w/ j2 F
Stream size : 6.36 GiB (12%)( i& K- u4 @$ Y  x. K7 }" K, B' n' j" _
Title : Raya.and.the.Last.Dragon.2021.2160p.BluRaycd.REMUX.HEVC.DTS-HD.MA.TrueHD.Atmos.7.1-FGT
9 N3 C7 N' I, e  n* I' v: c2 w4 K; ALanguage : English
% n8 I0 t& G" E1 s. x& a  v2 d% j& U1 ]Default : Yes
3 D9 ?( W# o% ^( b' |/ {8 U  cForced : No: W/ j; ~+ b; W" A2 ~4 V
Original source medium : Blu-ray
, I) K, g+ {" q1 `% LNumber of dynamic objects : 13
6 F7 L, \2 y( g' v8 zBed channel count : 1 channel, n7 b) P+ @; f! G: i5 |# V
Bed channel configuration : LFE0 r/ o# ~, U8 q6 w0 v5 v
, z, u  l' h' @/ W
Audio #2
4 Z. j3 \- P  U. q+ P( `ID : 3) [% \: D) n& r2 W3 ~9 V2 d; x4 x
Format : DTS XLL
2 e  {5 \8 j/ f* m6 U! N' H1 _' FFormat/Info : Digital Theater Systems
: y) X' h; E' P' V1 O$ Q9 ^, e9 O/ xCommercial name : DTS-HD Master Audio
" U. p( y3 y9 T5 LCodec ID : A_DTS1 X2 }, Q! w: A$ R- \6 I
Duration : 1 h 47 min, `  u' c4 u$ ^+ x# N
Bit rate mode : Variable
- p! ]0 W% K" v: [Bit rate : 5 285 kb/s
& N1 ?' _; Z) ~; GChannel(s) : 8 channels
" \* O2 h) r; j: z0 CChannel layout : C L R LFE Lb Rb Lss Rss
8 L7 G) L; P, u. q$ e& N. R% PSampling rate : 48.0 kHz
+ s7 V! n3 ^9 [; I: W; {Frame rate : 93.750 FPS (512 SPF)
3 [/ a/ f- Q9 L1 qBit depth : 24 bits
9 m7 v1 }3 ^! C. V' x7 ]  ^Compression mode : Lossless+ p6 |# z3 S+ T8 I' Z
Stream size : 3.97 GiB (7%)
$ z: d7 v( B$ y: n1 O# ~4 ^Title : Raya.and.the.Last.Dragon.2021.2160p.BluRaycd.REMUX.HEVC.DTS-HD.MA.TrueHD.Atmos.7.1-FGT( p2 l; S9 g! v5 p3 E; y$ e; Q/ O7 `
Language : English' e/ H  M6 F: R  Q* t. B/ `: J
Default : No  n5 D8 p) O4 r( r, j
Forced : No. Q0 d; F6 W! F

  N3 G- w* F6 B6 EAudio #3
  n& H  b" N8 K8 MID : 4
4 W  ~3 }7 i* v; G5 VID in the original source medium : 4352 (0x1100)
( p  d! f, {$ [  j- fFormat : AC-3
$ S0 C9 K/ ]- {- @) r. t* b( zFormat/Info : Audio Coding 3/ ~4 n6 h4 ~, x1 [
Commercial name : Dolby Digital8 E+ j, g6 ?! v4 c9 j+ W7 K
Codec ID : A_AC3% `8 J' S" L* b7 x* [; }
Duration : 1 h 47 min; a: _7 F' _5 l" x3 X9 \* j& S
Bit rate mode : Constant7 `) Y  S' R. E
Bit rate : 640 kb/s' ], W/ {: V0 @( a( Q; O9 c8 j. c8 C
Channel(s) : 6 channels
  k. j3 \& C- ~. B- {* \Channel layout : L R C LFE Ls Rs* R: ^/ U. {- P# j# ~  M' P
Sampling rate : 48.0 kHz+ q1 g, Y$ }# H) F7 X- l7 f
Frame rate : 31.250 FPS (1536 SPF)
( H( X- u0 G0 H9 a! tCompression mode : Lossy( a2 k# W6 I; u/ M1 U' J
Stream size : 492 MiB (1%)6 p& x; y2 k/ S
Title : Raya.and.the.Last.Dragon.2021.2160p.BluRaycd.REMUX.HEVC.DTS-HD.MA.TrueHD.Atmos.7.1-FGT
0 ?: e/ D3 H/ `( \Language : English
" \! l4 H7 z; B5 y+ }2 \Service kind : Complete Main
' F: v' D# V2 x( B) oDefault : No
8 Y7 P, Z4 `1 x  o$ t; NForced : No
4 f5 ?. s( P6 s4 }* s9 n. Y1 qOriginal source medium : Blu-ray: p0 A1 S$ h% p! |7 h

  w. z3 s: f+ _, s- bAudio #4
6 C! j' `. Y: ~# Z" }2 @) `ID : 5. R; a4 W& l8 O2 T+ Y$ K, ^
ID in the original source medium : 4353 (0x1101)
1 f8 E, D$ D& S0 Y; jFormat : AC-3% R6 q1 a2 {* {0 R2 Y/ J
Format/Info : Audio Coding 32 y; Q5 Q& `; W/ N2 A1 p
Commercial name : Dolby Digital( E: i7 \) k% y
Codec ID : A_AC3
  n+ S' A6 x. e( ^' N4 }Duration : 1 h 47 min/ m8 p3 {1 U' c8 Z
Bit rate mode : Constant
1 H2 |# }) T- T# w/ C# ^+ v9 ?4 dBit rate : 320 kb/s
9 b( M/ v# j. [Channel(s) : 2 channels5 ]* I, Y) B" w, E
Channel layout : L R
1 u, q1 o4 [' m- O, U+ y, U: DSampling rate : 48.0 kHz
" e* |* I1 F) W* L- S+ A. H$ }  X8 VFrame rate : 31.250 FPS (1536 SPF)
$ @$ P* j# L/ a( o* d, c7 `/ J+ v! bCompression mode : Lossy1 e7 u% `! ^) m4 L" ^; Y- Z6 s
Stream size : 246 MiB (0%)# z% M5 _& j  F; e
Title : Raya.and.the.Last.Dragon.2021.2160p.BluRaycd.REMUX.HEVC.DTS-HD.MA.TrueHD.Atmos.7.1-FGT* a# L0 t% y1 y1 Z
Language : English6 B- \; y( ?, b5 ~
Service kind : Complete Main7 i# F, J: _( g# ^
Default : No- V# L+ M& B4 L8 s+ t
Forced : No0 |) v9 [; o% P
Original source medium : Blu-ray
. {- j% R) p. a# \; d
8 d. c) U8 O' u* ]! NAudio #5
3 L9 N  [  v7 F! Z- MID : 6% I& E1 K3 X/ ?2 t3 Z$ R
Format : E-AC-3
7 b( {1 C5 [' M4 _" |# l2 }Format/Info : Enhanced AC-33 \5 F# Y- M) [5 L! X$ [0 [
Commercial name : Dolby Digital Plus3 ^- H4 e; G0 F- l  {+ ^
Format profile : Blu-ray Disc
- q9 G5 i' l* G% `9 P  \2 j* @Codec ID : A_EAC3- b! @6 `, Q- A
Duration : 1 h 47 min
/ R  E6 ?5 ]# K2 C$ Y2 ^" ~+ l2 K2 EBit rate mode : Constant: I8 h5 `6 v# J# k  g6 Z% O
Bit rate : 1 024 kb/s
$ L) h: Z2 p3 ~1 c' D1 _: `7 m2 }Channel(s) : 8 channels0 D9 ?; D7 D" |) [; y/ Y# H
Channel layout : L R C LFE Ls Rs Lb Rb! o8 l! g' c' r' \; V: {
Sampling rate : 48.0 kHz
  w& I5 t4 p4 n! RFrame rate : 31.250 FPS (1536 SPF)4 w* W3 a+ P. a7 [+ B
Compression mode : Lossy
* G$ m1 v/ m; v& l. D# [Stream size : 787 MiB (1%)
# o7 J& J) e% P+ F( ZTitle : Raya.and.the.Last.Dragon.2021.2160p.BluRaycd.REMUX.HEVC.DTS-HD.MA.TrueHD.Atmos.7.1-FGT5 g8 s4 i+ I* W* g
Language : French
0 x1 Q! k% Y% D5 q* ^- W! b6 tService kind : Complete Main
* ~3 M" b, {# w7 V2 dDefault : No. @" e* Z( B* i" U7 z9 j/ G
Forced : No
+ y" M5 w$ g1 r2 W7 }0 F' M' d" l6 X! l9 _8 c# m
Audio #6
3 T; S8 s- O/ X% B, EID : 7
; D) ?- J- o/ C5 J5 p) I* YID in the original source medium : 4354 (0x1102)  P. P# m  J) c
Format : AC-3
- r1 G; U# d1 z1 g2 x8 Y$ o- LFormat/Info : Audio Coding 32 ]* ?& D2 c! e$ C4 r2 e+ K
Commercial name : Dolby Digital+ y) E, J' J# j
Codec ID : A_AC3: R' V# M& U0 ]/ x; }! P. h
Duration : 1 h 47 min( O& c- D8 Q$ L  K( B4 f" \- {; |
Bit rate mode : Constant
% b# j# o+ t& ?( i' k3 I% KBit rate : 576 kb/s: j% R1 S. M  }. v9 C9 P1 o6 h
Channel(s) : 6 channels+ p" `$ s4 O2 ?1 N5 s( U
Channel layout : L R C LFE Ls Rs
/ B: B0 R# G+ PSampling rate : 48.0 kHz$ s+ t" z* D8 W( f8 ?
Frame rate : 31.250 FPS (1536 SPF)
, {0 U4 Q% E  N7 h* }7 ECompression mode : Lossy
# w( U7 C5 M1 R. P2 gStream size : 443 MiB (1%)4 b( o, x2 |/ l/ M
Title : Raya.and.the.Last.Dragon.2021.2160p.BluRaycd.REMUX.HEVC.DTS-HD.MA.TrueHD.Atmos.7.1-FGT
/ J5 p, L) e. t, }) x2 w/ RLanguage : French2 i) x& e0 Z6 G) M3 w. z' d
Service kind : Complete Main; M0 S' o$ G8 O3 N/ W. H
Default : No
; d5 X: |, W2 X1 S" ~. W4 v! \Forced : No: `6 @# ?: H$ o) h" T) L: q
Original source medium : Blu-ray
+ w8 P: q! ~  O; r
# i5 D* }: T  }% |- jAudio #7; T" o- @7 v- j5 i5 S
ID : 8( w$ a* g# \9 Q8 v' `' Q9 Y
Format : E-AC-3- M$ |7 E& B3 n  l2 A+ L( ?
Format/Info : Enhanced AC-3, F: C! j$ _) o5 ^- ~. Y" t
Commercial name : Dolby Digital Plus# a' X- v) w8 h
Format profile : Blu-ray Disc
6 j# R$ C. L0 {! u8 B, _Codec ID : A_EAC3' [- Q4 c! v5 W- R3 i  A
Duration : 1 h 47 min( e4 p% q( _8 a" F  W3 P8 s
Bit rate mode : Constant
' j$ V; b+ O4 j1 P  e8 I, ABit rate : 1 024 kb/s
7 k* |# U' i5 v! g1 ZChannel(s) : 8 channels' C; e$ ^5 |: q7 i* w
Channel layout : L R C LFE Ls Rs Lb Rb) t2 |- Y" h8 T2 P0 M
Sampling rate : 48.0 kHz
4 P$ u6 ~9 _& T- M5 O+ RFrame rate : 31.250 FPS (1536 SPF)  e: I9 l# M+ [: m, M+ j
Compression mode : Lossy! q) u6 `0 k6 M3 {/ |9 k# z
Stream size : 787 MiB (1%)  L' y6 W- _* y) c. a
Title : Raya.and.the.Last.Dragon.2021.2160p.BluRaycd.REMUX.HEVC.DTS-HD.MA.TrueHD.Atmos.7.1-FGT
0 c9 {' [7 L! {; P) {8 ~Language : Spanish* C! R' Y6 J# K" e( S4 D- Y
Service kind : Complete Main: c* v3 T1 E/ @) X) j) U- ]4 Z
Default : No
; B3 h8 M8 H- W: `5 S- n% aForced : No/ j: g' I4 y. ]5 n+ H* C

$ T5 S. t1 j. @3 `7 C% vAudio #8
- b6 F0 x; O* H7 H2 E/ K  lID : 92 Z- A: {. j* I( r
ID in the original source medium : 4355 (0x1103)
; j7 A5 j! V* r4 ]5 K* _0 R( q5 ?Format : AC-3/ J' t. X' J. g1 |
Format/Info : Audio Coding 3; `+ I6 N4 S$ {, W/ u& S* p$ |, A
Commercial name : Dolby Digital
% y! s0 X5 H5 \+ c3 L9 a2 ^Codec ID : A_AC36 d$ A% U2 ~6 O8 D% Y% r3 V. ^
Duration : 1 h 47 min, Q. Z3 a4 N( Y
Bit rate mode : Constant
. j8 V8 b, F7 ^1 C9 t, @! [Bit rate : 576 kb/s+ K- g" K: Q1 a/ @
Channel(s) : 6 channels" L" p5 x! s+ k4 o. U! Y" ]
Channel layout : L R C LFE Ls Rs: q% f# L3 l! B
Sampling rate : 48.0 kHz
8 k5 a. ^) ]9 }7 yFrame rate : 31.250 FPS (1536 SPF)
$ R2 S8 h4 u, }+ ?  W$ T/ yCompression mode : Lossy1 x. C6 z( W. c+ ]0 D$ G0 ]. _) B
Stream size : 443 MiB (1%)5 t. \2 H  d  m' G) ]
Title : Raya.and.the.Last.Dragon.2021.2160p.BluRaycd.REMUX.HEVC.DTS-HD.MA.TrueHD.Atmos.7.1-FGT/ |5 ^+ i) N# @1 u6 C
Language : Spanish0 m' y' P4 p, q& I. i& B) w
Service kind : Complete Main6 }* H4 N" C# L1 ^# z
Default : No6 v2 S# F6 h* A- n4 s
Forced : No
, W  L: G; e. G! lOriginal source medium : Blu-ray
2 c9 b& s. b% M+ S5 R2 M- Y# j1 K" Q" ]- w! [! [' [! Y; D7 x8 C& m# Y
Audio #9+ P7 d! a  W' h1 F
ID : 10
$ D, q, f0 P5 B$ b& K# @Format : E-AC-3
" ^7 r  f6 d% H$ V8 {( k1 Q1 OFormat/Info : Enhanced AC-3
; Z* P- [7 \* I: hCommercial name : Dolby Digital Plus+ L% t6 b' d: [9 ]1 h# x
Format profile : Blu-ray Disc
0 h  K5 N* S5 K8 K7 ]Codec ID : A_EAC3
  }0 T6 L5 d$ zDuration : 1 h 47 min
4 ]7 j% V; ?# X" _1 b6 d1 KBit rate mode : Constant
( z9 l! W8 h: D5 HBit rate : 1 024 kb/s
! n5 L0 y1 Q$ I6 o# zChannel(s) : 8 channels
* `; y1 ?& x5 kChannel layout : L R C LFE Ls Rs Lb Rb
' J! L) g' p2 qSampling rate : 48.0 kHz  d- f. @+ S" e3 }( N; v
Frame rate : 31.250 FPS (1536 SPF)( E0 f! a2 x* P  b
Compression mode : Lossy% G# ~2 i0 p3 N  T* \) D
Stream size : 787 MiB (1%)5 W4 V/ n% _- f. y% f1 C
Title : Raya.and.the.Last.Dragon.2021.2160p.BluRaycd.REMUX.HEVC.DTS-HD.MA.TrueHD.Atmos.7.1-FGT
# q& w. V/ S3 I- N6 _! w5 zLanguage : Japanese( T5 K5 R, d2 S1 B
Service kind : Complete Main
% B8 b" v9 m1 xDefault : No
- c7 p, e- p$ C/ sForced : No
( a+ S9 p) f3 I- N# |% Q4 Z' M4 f+ ^2 {/ E: }, k2 x' l- R
Audio #10
7 o1 }7 v3 E0 S3 b2 }! d4 k( P# GID : 11
8 T$ d  e7 g3 A# b6 {! tID in the original source medium : 4356 (0x1104)9 r, e4 Q' t' w( `9 i- O2 q
Format : AC-3
* f2 E, Y/ y" K0 q) aFormat/Info : Audio Coding 3
* k: z' r' p2 A0 t$ [Commercial name : Dolby Digital
6 L3 C0 }6 q2 N) P% N- K$ uCodec ID : A_AC30 {% E0 X. B" v! n" o' I- t9 t
Duration : 1 h 47 min
: s  Y0 R! ?) ?3 z6 k8 JBit rate mode : Constant  ^- y! b$ f; W) c, ^6 m
Bit rate : 576 kb/s
$ A. c# L) S# p+ L: wChannel(s) : 6 channels" V7 U0 v7 B- v: L9 U1 b1 K
Channel layout : L R C LFE Ls Rs- Q6 f7 g- O: E" o! r
Sampling rate : 48.0 kHz
! b! k) B  j2 U6 }( h' v/ iFrame rate : 31.250 FPS (1536 SPF); [/ {9 r& `% ]% n
Compression mode : Lossy3 o( Q5 v) c: ]  T. z+ c3 I$ q4 L% A
Stream size : 443 MiB (1%)) T7 ]% e; J2 o; [6 o1 k7 i' ^+ H' Q
Title : Raya.and.the.Last.Dragon.2021.2160p.BluRaycd.REMUX.HEVC.DTS-HD.MA.TrueHD.Atmos.7.1-FGT
% D; D) q: ^% OLanguage : Japanese6 [9 y$ W# V+ K0 R
Service kind : Complete Main
+ ]; q1 s$ @( VDefault : No  y& l8 S) ~( V
Forced : No
$ t: c9 C2 D8 m& a# a( u, b% X  WOriginal source medium : Blu-ray- ~0 M% A, a9 o1 R! P6 \

0 T; O$ g7 \( z" S. H$ R# J8 cText #1, t  R+ s4 F& H
ID : 12, b; S8 {* a; e% p; i6 D
Format : UTF-8
9 R3 q' Y; q  x8 Y% LCodec ID : S_TEXT/UTF86 X( s$ i, z( o. ~- k; o3 i( D9 }
Codec ID/Info : UTF-8 Plain Text
. e5 }9 n: J* ^7 L4 ]Duration : 1 h 37 min' G' C6 J6 w0 E7 Y$ O
Bit rate : 51 b/s" o8 Z1 Z! ?0 s
Count of elements : 13604 D$ ?' v  M6 R0 G% a# ]: C
Stream size : 37.1 KiB (0%)
# d6 [  s+ ?" U2 g$ u1 ^+ {+ GTitle : English-SRT2 @1 E$ s" }5 Y5 S! x* N( {
Language : English
+ m& c  ]1 Z$ t; jDefault : Yes9 q6 ?6 ?5 q6 ?; q2 i- T
Forced : No
- \# ?, k9 O+ `+ a0 b; e7 ?. X
: N6 O2 t' m- @" n* ZText #2
5 n- G0 T% t6 t8 DID : 13% |, K2 N0 W) Y# G. q" z
ID in the original source medium : 4768 (0x12A0)
8 o( t/ ^$ R, H2 `( j+ ?Format : PGS$ i9 }# s( b% n* y6 ~, ?
Muxing mode : zlib0 ]* a- l; ?  q; b! j
Codec ID : S_HDMV/PGS' q. {: X* U5 R! C% e) k7 h: v
Codec ID/Info : Picture based subtitle format used on BDs/HD-DVDs
; a3 ^7 z, u6 @8 o. t; r; _, L: iDuration : 1 h 46 min* q' r0 H6 j" g8 }. E
Bit rate : 44.3 kb/s. `* t; G1 R+ O; i
Count of elements : 38396 j" M: [  X' y. l% G: R# H6 U0 K
Stream size : 33.7 MiB (0%): X* S2 F1 C1 \7 k
Title : English-PGS
+ p2 o# n; n+ n  V' M7 H8 uLanguage : English3 k, p0 g3 T1 G& |9 d
Default : No: Y( d) ?7 S) R; o
Forced : No
7 y3 I8 d$ H: u2 sOriginal source medium : Blu-ray% [1 _$ G& ?2 d: d  v4 b( {
; [! h# z" j* N1 O' _" a
Text #3' g" H3 a' m* u/ f6 Q; _" J) n0 q
ID : 14
3 y* g) Q/ p5 O5 bID in the original source medium : 4769 (0x12A1)
: B) Z5 {5 \# @, B. L9 q. ]Format : PGS
/ y# n5 n/ @" e2 H8 PMuxing mode : zlib
$ ~+ D' L5 Q$ Y8 _Codec ID : S_HDMV/PGS
$ v+ p, Q  h: P& LCodec ID/Info : Picture based subtitle format used on BDs/HD-DVDs
. m6 m% m, x* bDuration : 1 h 45 min5 J  B- `$ Y0 F# y5 _6 C2 Q* K
Bit rate : 26.7 kb/s
5 q" U& M! T8 a" W! \/ s, c1 gCount of elements : 2315! V1 o' @! n' x" X5 g/ e  p
Stream size : 20.2 MiB (0%)2 d; i  t7 I0 l* V
Title : French-PGS# N$ s: x/ ^/ j3 ~$ t
Language : French
* N2 f, f# `; w' VDefault : No0 V8 e% t( D: v% y( @2 I0 `4 B" t
Forced : No6 u. Y& T8 L/ G* H8 A1 B
Original source medium : Blu-ray- F. G# r$ y- ~" o2 F# @
0 G# L: X( r" f! C  ^
Text #4
' S$ ]5 Y# F0 o# BID : 15
( D; n* G) o, j& XID in the original source medium : 4770 (0x12A2)1 n/ T* [  b) t% `- _
Format : PGS
) Y2 F4 r2 [* J7 R7 n: TMuxing mode : zlib7 h3 n# L4 q/ I  P! V+ B+ N4 {
Codec ID : S_HDMV/PGS
* E& g8 ^. b% B2 w7 Z0 n# @& UCodec ID/Info : Picture based subtitle format used on BDs/HD-DVDs, R1 |2 m2 Q3 e. {  I5 K
Duration : 1 h 45 min
3 M$ N+ A8 p5 Z6 p+ m$ RBit rate : 28.5 kb/s
) J0 ]$ K9 l+ ]. W, a7 h5 oCount of elements : 2322
& }$ H) d/ A& {7 a- X9 HStream size : 21.6 MiB (0%)) N& r$ U1 x, Z+ G
Title : Spanish-PGS- S8 `# t3 x! e% k$ _& z7 D
Language : Spanish0 m2 p5 o7 Y* f( ]  R9 \
Default : No- Z/ y; [0 Q% b
Forced : No* O7 T# u3 |8 ]  I
Original source medium : Blu-ray: d6 K) h9 e  }3 l

+ z8 F7 C( Z8 ~+ m7 D+ pText #5
4 H  T$ ]2 K4 L5 vID : 16# z3 m' T' @; q6 d
ID in the original source medium : 4771 (0x12A3): x, n. N$ e* \$ A6 b; I
Format : PGS- h% a' L; b# ?
Muxing mode : zlib. ?# P+ s: n# n( z$ I0 j
Codec ID : S_HDMV/PGS: ]+ K2 ~& e4 ~& `  _7 N% I0 {
Codec ID/Info : Picture based subtitle format used on BDs/HD-DVDs: q; b4 B9 |  X$ @
Duration : 1 h 45 min
6 q* r& I, L! l2 |Bit rate : 22.6 kb/s
* K$ x- B0 \4 w$ A2 [6 e) MCount of elements : 2208
) s( g* g+ v( j* h9 Q, l0 a- pStream size : 17.1 MiB (0%)% A" t& x. ^" R
Title : Japanese-PGS  O" B3 c+ [" n5 p1 y! t& ~
Language : Japanese  _' \% @* A& H( ]# Q
Default : No
% |7 h( B% R4 n- WForced : No! f0 \: X4 y( }4 K
Original source medium : Blu-ray
" N2 `9 v7 _5 t' F+ p- N% B1 |
5 k% W: }) k' {3 d3 @3 z' hText #6" m# J- a, p5 ?5 z
ID : 17! \2 u1 D$ c5 w
ID in the original source medium : 4772 (0x12A4)- \% T# |/ w) M9 H& g5 o
Format : PGS
5 ]# n; K4 E8 |! WMuxing mode : zlib: }' ^  K+ L( |* R5 A
Codec ID : S_HDMV/PGS
% e" h) z8 f8 O$ k( g; OCodec ID/Info : Picture based subtitle format used on BDs/HD-DVDs
# n2 [9 t/ G  Z8 YDuration : 1 h 46 min
; `1 Z( a, ~+ D$ F( i0 V5 m+ [Bit rate : 1 069 b/s
- m- N$ R( X4 B: I9 q& Z8 FCount of elements : 887 z! u7 }: B% W1 |4 \9 k
Stream size : 837 KiB (0%)3 F9 q0 _% U/ O/ @4 ~
Title : French-FORCED-PGS
6 B4 A$ T0 r; ]% M2 _1 k2 t5 pLanguage : French
" ?- A1 x7 R* h& @5 |1 _& LDefault : No4 K% l# q1 O) ?6 L& X
Forced : No
) k) c% S+ Y1 \6 k9 U8 \/ E, yOriginal source medium : Blu-ray
  a, M4 k+ H$ c' f) \( d
4 i; f6 s; L4 FText #7
2 c* ^# d. X2 ]' [, P# p2 ^ID : 18
/ T: T5 S3 R' r2 TID in the original source medium : 4773 (0x12A5)7 L* ~! X/ I0 Z4 ]! I
Format : PGS  B; S$ ]: d; j" M
Muxing mode : zlib
: W- q# j8 I: g: MCodec ID : S_HDMV/PGS
' w# o7 {1 |+ u* r2 N: \Codec ID/Info : Picture based subtitle format used on BDs/HD-DVDs# }0 Q; C, Q5 w# Q2 P
Duration : 1 h 46 min$ o4 I, p, Q0 B6 [8 O
Bit rate : 1 198 b/s* F' S' v& g0 L5 Z+ p# ^9 J
Count of elements : 1081 s8 D+ R3 y* l( q2 f, _
Stream size : 938 KiB (0%)) l7 b6 [; J1 W# z/ p9 ]- B
Title : Japanese-FORCED-PGS2 E* Q6 i- i$ J- V
Language : Japanese
  [4 G7 O  z0 DDefault : No
3 G2 s0 D% M4 d! p% B  v% j" WForced : No
3 C0 `, D4 B' E7 B6 a/ ]: g3 COriginal source medium : Blu-ray
9 L: g' e- @5 @9 p4 Y( d1 i  e& Y
Menu: @+ k* `: B$ U4 t
00:00:00.000 : Chapter 01. C- B" J8 T. {0 Y
00:08:08.696 : Chapter 02& c& h3 x4 o% J/ k! t2 S' V
00:11:00.159 : Chapter 03
8 d& n0 |% u$ o00:15:16.415 : Chapter 04
. w& ]8 @0 @& \9 T9 g00:20:15.255 : Chapter 055 x# {. \0 t* ?& s
00:28:28.498 : Chapter 06( K$ ^5 f% _. b- w3 B
00:35:56.904 : Chapter 07
) l. \4 w  G: K- z00:37:43.261 : Chapter 08
+ K6 x- p: P6 N00:41:12.595 : Chapter 09
9 \( o" T7 r( g1 U0 {5 m; }% K/ g; m00:43:19.388 : Chapter 103 b2 K0 {: u1 r$ _7 m( u
00:48:56.224 : Chapter 11: ?* B/ G7 Z4 v' v3 o4 T
00:51:31.505 : Chapter 127 Q$ I  `# K+ |- h- |
00:53:13.398 : Chapter 13* J9 D+ H, W: w: |* V0 g
00:55:20.817 : Chapter 14( \3 N6 k3 L4 C
00:59:07.669 : Chapter 15
$ m5 _8 f0 X. R0 {5 A  P01:01:57.213 : Chapter 16
8 g! J8 Y) R3 H: d8 z01:04:34.412 : Chapter 17
+ r' c# b$ A: Y  U7 j( E7 }; G% s* J01:06:47.211 : Chapter 182 I+ \# A' v1 Z
01:11:21.610 : Chapter 19
. s. n! I4 @, W+ f' ~01:15:50.921 : Chapter 20. B: k: f. D9 r8 o
01:18:41.007 : Chapter 21
) L5 V" t3 D7 ]# z- f01:28:26.050 : Chapter 22
; Z. N/ m4 K: x: _. p7 j& m+ e01:35:08.285 : Chapter 23

0 G* M! ]2 M. K9 p
游客,查看本帖隐藏内容请回复 | 加入VIP贵宾可免积分免回复 了解详情 | 还不是会员:点击获取邀请码 Invitation Code

4

主题

1141

帖子

3576

积分

Sponsor

金币
2 枚
体力
1297 点
QQ
davidqin 发表于 2021-6-12 15:47:48 | 显示全部楼层
每天都来蓝光论坛看看,我爱蓝光电影。3 ~' S# r# s# X6 A) E: Z0 T
至少是现在,我一天没有访问蓝光电影论坛就不爽!At least now, my day did not visit the Blu-ray Film Forum on unhappy!9 u* J- O! e  Q& d* Y

0

主题

27

帖子

205

积分

Sponsor

金币
102 枚
体力
47 点
QQ
boyshinehd 发表于 2021-6-16 19:02:31 | 显示全部楼层
Bluraycd又有新电影发布了,激动中……!/ P4 F, Z( k$ M" G* o
至少是现在,我一天没有访问蓝光电影论坛就不爽!At least now, my day did not visit the Blu-ray Film Forum on unhappy!

4

主题

1141

帖子

3576

积分

Sponsor

金币
2 枚
体力
1297 点
QQ
davidqin 发表于 2021-6-12 20:03:48 | 显示全部楼层
Bluraycd又有新电影发布了,激动中……!
- M4 m6 Z/ Y" c$ D至少是现在,我一天没有访问蓝光电影论坛就不爽!At least now, my day did not visit the Blu-ray Film Forum on unhappy!3 y" s! P- D8 x8 ^) [( m

2

主题

1372

帖子

4703

积分

Sponsor

金币
297 枚
体力
1596 点
livenchen 发表于 2021-5-20 20:09:28 | 显示全部楼层
谢谢楼主共享好电影!

0

主题

264

帖子

1076

积分

Sponsor

金币
0 枚
体力
538 点
RadiantYu 发表于 2021-5-22 10:30:29 | 显示全部楼层
Bluraycd又有新电影发布了,激动中……!
" `: x: D  ]# m& l# FBluraycd.com movie updates really fast, also did not release issued, whether you believe it or not, anyway, I believed!

0

主题

185

帖子

792

积分

Sponsor

金币
29 枚
体力
416 点
90years 发表于 2021-5-24 19:46:16 | 显示全部楼层
喜欢这个电影

0

主题

83

帖子

596

积分

Sponsor

金币
195 枚
体力
231 点
aacq 发表于 2021-6-6 22:31:04 | 显示全部楼层
谢谢楼主分享精彩电影

4

主题

1141

帖子

3576

积分

Sponsor

金币
2 枚
体力
1297 点
QQ
davidqin 发表于 2021-6-12 12:45:26 | 显示全部楼层
楼主发贴辛苦了,I*老*虎*U!
/ J2 j/ ^4 \! Y5 f$ h$ i1 PIn fact, I have always felt that the landlord of good taste! Ha ha!' o+ a6 g6 R2 R4 `, v6 q

4

主题

1141

帖子

3576

积分

Sponsor

金币
2 枚
体力
1297 点
QQ
davidqin 发表于 2021-6-12 12:51:58 | 显示全部楼层
看了LZ的帖子,我只想说一句很好很强大!""4 M& X4 B" I; c9 `( [+ u' @
祝愿蓝光社区越办越好!I wish Blu-ray communities better and better!
( ^5 Y/ C2 i8 X' l

4

主题

1141

帖子

3576

积分

Sponsor

金币
2 枚
体力
1297 点
QQ
davidqin 发表于 2021-6-12 12:53:02 | 显示全部楼层
啥也不说了,楼主就是给力!7 j& T% @3 w) A, }$ s- {: W% S+ |
Bluraycd.com movie updates really fast, also did not release issued, whether you believe it or not, anyway, I believed!

4

主题

1141

帖子

3576

积分

Sponsor

金币
2 枚
体力
1297 点
QQ
davidqin 发表于 2021-6-12 14:17:45 | 显示全部楼层
Bluraycd又有新电影发布了,激动中……!* h. N8 c" F9 _* h3 v% g  j8 ?: U
至少是现在,我一天没有访问蓝光电影论坛就不爽!At least now, my day did not visit the Blu-ray Film Forum on unhappy!- s5 G6 i3 {8 F  |& ]- i

本版积分规则

小黑屋|Archiver|蓝光电影资源网

GMT+8, 2021-9-20 04:19

快速回复 返回顶部 返回列表