BluRayCD Forum

 找回密码
 立即注册【分享大片】
查看: 114|回复: 1
收起左侧

[2160P极清] 寻龙传说 [4K HDR高码版] Raya and the Last Dragon 2021 2160p UHD BluRaycd x265 10bit HDR DTS-HD MA TrueHD 7.1 Atmos-SWTYBLZ 19.29GB & 19.98GB

[复制链接]

5792

主题

5966

帖子

7万

积分

Post Share

金币
13328 枚
体力
19706 点

卓越贡献勋章

黄金嫖客 发表于 2021-5-23 06:26:37 | 显示全部楼层 |阅读模式
02.jpg
8 A, v+ O$ x: a0 y9 r$ I
# R/ R6 \1 j, M◎片  名 Raya and The Last Dragon
# P2 v' y7 g3 e# l! U$ |- @% E7 c$ m◎译  名 寻龙传说/拉雅和最后的龙/魔龙王国(港)/寻龙使者:拉雅(台)/瑞亚和最后一条龙& p9 q1 c' e! I3 j5 r1 u3 I2 o
◎年  代 2021
' y+ q/ @( k$ r+ q◎产  地 美国
) r; g* N2 I2 a! g  o) @◎类  别 动画/奇幻/冒险# y* K) \9 s/ c6 i. V6 x5 R
◎语  言 英语( i8 _; r! h! |% |& U' [/ Q
◎上映日期 2021-03-05(中国大陆/美国)
( S0 j" F* D& z- A- c( ~4 U7 U6 \$ I◎IMDb评分  7.4/10 from 58,318 users8 X7 J% {$ j4 V/ R' j/ ]4 h
◎IMDb链接  https://www.imdb.com/title/tt5109280/
) c' \" k+ D" G: u% X! k◎豆瓣评分 7.2/10 from 78,165 users
* T: c. j3 k. G+ X3 W◎豆瓣链接 https://movie.douban.com/subject/34804147/2 M" e' y- ]) M) t4 w/ [
◎片  长 1 h 47 min2 E/ x/ @5 b* o- B$ X$ ?
◎导  演 唐·霍尔 Don Hall6 v6 _1 }4 b( ^0 _$ M/ V6 x
       卡洛斯·洛佩斯·埃斯特拉达 Carlos López Estrada% j: G( c- j" D' J8 X8 L2 P& ~; I/ J
       保罗·布里格斯 Paul Briggs- a; q2 ^3 S8 j$ w+ H
       约翰·瑞帕 John Ripa
4 }( r3 j7 c( I6 Z7 U; i◎编  剧 阮基 Qui Nguyen
8 V- ~, Q3 @9 w       阿黛勒·林 Adele Lim
8 c( K: r; o/ B1 }, Z' U* }       保罗·布里格斯 Paul Briggs" O7 \( ^  ~% Z2 z0 b
       唐·霍尔 Don Hall1 s9 z4 M$ Z- u+ {* d
       卡洛斯·洛佩斯·埃斯特拉达 Carlos López Estrada
) v  q, I, K! B0 G  N       基尔·默里 Kiel Murray
- r0 C8 k) l" S9 T+ ~       约翰·瑞帕 John Ripa9 H, w/ w6 y# `3 t# K& t6 a0 p% a
       迪恩·威林斯 Dean Wellins
9 ]9 N, ^5 R0 ~+ p! N5 A) k! P7 }◎主  演 凯莉·玛丽·陈 Kelly Marie Tran: A' U4 ?# ]2 X. e. l3 t; K2 v
       奥卡菲娜 Awkwafina: j1 J6 v5 ]8 Y
       嘉玛·陈 Gemma Chan
' o0 I  t) h% C+ ]# ^3 L       金大贤 Daniel Dae Kim
) }* J! g8 L/ A       吴珊卓 Sandra Oh( o. Y0 g& n* |& o: g6 @
       本尼迪克特·王 Benedict Wong
( J7 _; A/ j0 v       伊扎克·王 Izaac Wang  p4 {3 j% b/ _  d
       塔莉娅·陈 Thalia Tran
; k9 T% f0 @, D" m% t2 c2 r       艾伦·图代克 Alan Tudyk
- W7 @! V: g  J       迪辰·拉克曼 Dichen Lachman
& F- s( S/ K' m1 N. v2 ^, r8 H: z       帕蒂·哈里森 Patti Harrison
3 u3 {# d3 g; i" `' H       姜成镐 Sung Kang) ~' k0 i. J) `7 Q0 |4 j( G4 O
       罗斯·巴特勒 Ross Butler7 ]2 c; n2 H/ x2 D  M4 o
       乔娜·肖 Jona Xiao
; Y0 C' B" V4 Z. g* `       宋静秀 Lucille Soong& W7 q1 K6 q- G* Q8 x' S
       弗朗克西斯·周 Fran?ois Chau: D, z. c6 d$ s( y% Z0 ?
       保罗·扬 Paul Yen
- z4 v: X% v; t- O" k       Liza Del Mundo/ ^" f, a; h5 ]" U8 ^: w: j% ^, P
       塔妮亚·古纳迪 Tania Gunadi+ U/ E7 ]+ E3 `9 M# o* I7 u
       Jennie Kwan$ A% z1 W' |7 ^% B) F3 G- Z
       Lucian Perez' q9 Q# {4 y2 ^9 C: p8 p
       文森特·罗德里格兹三世 Vincent Rodriguez III8 v! V2 R1 x& `8 K- v& A( |
       JB Tadena6 v: D: }. E! n7 l$ x
       赵丽颖 Liying Zhao0 [/ ]0 t' c! v' h
4 H" W) ?3 f' P
◎标  签 迪士尼 | 动画 | Disney | 动画电影 | 奇幻 | 华特·迪士尼WaltDisney | 美国 | 皮克斯
+ Y/ x$ H4 p' a5 F$ t/ ], E
1 s4 f( `! a. H◎简  介     
! E" |: A) _( H' h& V1 U! m0 Z; H/ |4 ^! J
  很久以前,在充满奇幻色彩的龙佑之邦,人类和龙和谐地生活在一起。但当一股邪恶的力量袭来,龙牺牲了自己来拯救人类。500年后,同样的邪恶力量卷土重来,只有一个孤独的战士拉雅(凯莉·玛丽·陈 配音)承担重任,追踪传说中的最后一条龙,以修复这块破碎的土地,团结分裂的人民。在她的旅程中,她也会逐渐了解到拯救世界不仅仅需要一条龙,还需要信任和团队合作。
* e$ u8 V% c7 j4 p* m$ s4 m  b5 U, g9 Y; D& J
  In a land called Kumandra, split into five different regions, a warrior named Raya searches for the last dragon in the world.& H9 H: r. F! X5 d' l% j( S
9 e1 C5 @% b2 i% z3 [
SWEATY BALLZ presents" `1 G6 S+ E# `

+ X/ Q. ]( \" z3 l# g: z: d. tRaya.and.the.Last.Dragon.2021.2160p.UHD.BluRayCD.x265.10bit.HDR.DTS-HD.MA.TrueHD.7.1.Atmos-SWTYBLZ
7 W' ?2 L; X" t+ G) s' ~Screenshots are 8bit SDR
- {# S1 l$ U6 _/ ~/ [3 e4 {
) _6 D$ l+ S6 }$ I$ U# GVideo# O/ T$ v% t: L+ c6 a
ID : 19 C& n5 Y0 z! k' `8 g
Format : HEVC5 u3 f4 \6 \# X+ S
Format/Info : High Efficiency Video Coding% Y8 i2 r" T- ^3 V
Format profile : Main 10@L5.1@High1 C( P5 J. `) @1 O) ?
HDR format : SMPTE ST 2086, HDR10 compatible
, p# m9 L( v( Q& V" _Codec ID : V_MPEGH/ISO/HEVC
" J! a' L  M: ], O' X6 H1 `Duration : 1 h 47 min
7 Z6 `3 w) I1 ?6 A3 ?, n, rBit rate : 11.1 Mb/s
7 ^# t% G( m  i- tWidth : 3 840 pixels
* r5 g# c. ^3 ^1 L* cHeight : 1 608 pixels2 ]' [$ S) R/ {4 P
Display aspect ratio : 2.40:1
. p+ B; b+ q4 R6 XFrame rate mode : Constant  c1 j# b8 [4 z0 x1 [
Frame rate : 23.976 (24000/1001/189150) FPS
# C  ]0 B: J# |Color space : YUV
4 A2 N+ ^. \0 R% M& SChroma subsampling : 4:2:0 (Type 2)
3 B; q/ H" k) k# t- N3 C( I0 qBit depth : 10 bits4 g& L! n; H6 f7 p8 k6 s# @
Bits/(Pixel*Frame) : 0.0754 n+ L3 ~" v; V- w% p
Stream size : 8.31 GiB (43%)" [( D/ R; @! o6 V* ~* g0 [: a4 X/ u/ c
Title : Raya.and.the.Last.Dragon.2021.2160p.UHD.BluRaycd.x265.10bit.HDR.DTS-HD.MA.TrueHD.7.1.Atmos-SWTYBLZ7 [/ ~5 s; c# R7 Q
Writing library : x265 3.0_Aued72af837053:[Windows][GCC 8.2.0][64 bit] 10bit
* c, i$ ]2 V/ }% d) O% ZEncoding settings : cpuid=1111039 / frame-threads=6 / numa-pools=40 / wpp / no-pmode / no-pme / no-psnr / no-ssim / log-level=2 / input-csp=1 / input-res=3840x1608 / interlace=0 / total-frames=154626 / level-idc=51 / high-tier=1 / uhd-bd=0 / ref=3 / no-allow-non-conformance / repeat-headers / annexb / aud / hrd / info / hash=0 / no-temporal-layers / no-open-gop / min-keyint=1 / keyint=24 / gop-lookahead=0 / bframes=6 / b-adapt=2 / b-pyramid / bframe-bias=0 / rc-lookahead=25 / lookahead-slices=4 / scenecut=40 / radl=0 / no-splice / no-intra-refresh / ctu=64 / min-cu-size=8 / no-rect / no-amp / max-tu-size=32 / tu-inter-depth=1 / tu-intra-depth=1 / limit-tu=0 / rdoq-level=0 / dynamic-rd=0.00 / no-ssim-rd / signhide / no-tskip / nr-intra=0 / nr-inter=0 / no-constrained-intra / strong-intra-smoothing / max-merge=2 / limit-refs=3 / no-limit-modes / me=1 / subme=2 / merange=57 / temporal-mvp / weightp / no-weightb / no-analyze-src-pics / deblock=1:1 / no-sao / no-sao-non-deblock / rd=3 / no-early-skip / rskip / no-fast-intra / no-tskip-fast / no-cu-lossless / no-b-intra / no-splitrd-skip / rdpenalty=0 / psy-rd=0.40 / psy-rdoq=0.00 / no-rd-refine / no-lossless / cbqpoffs=0 / crqpoffs=0 / rc=crf / crf=14.0 / qcomp=0.60 / qpstep=4 / stats-write=0 / stats-read=0 / vbv-maxrate=160000 / vbv-bufsize=160000 / vbv-init=0.9 / crf-max=0.0 / crf-min=0.0 / ipratio=1.40 / pbratio=1.30 / aq-mode=1 / aq-strength=0.40 / cutree / zone-count=0 / no-strict-cbr / qg-size=32 / no-rc-grain / qpmax=69 / qpmin=0 / no-const-vbv / sar=1 / overscan=0 / videoformat=5 / range=0 / colorprim=2 / transfer=2 / colormatrix=2 / chromaloc=0 / display-window=0 / max-cll=0,0 / min-luma=0 / max-luma=1023 / log2-max-poc-lsb=8 / vui-timing-info / vui-hrd-info / slices=1 / opt-qp-pps / opt-ref-list-length-pps / no-multi-pass-opt-rps / scenecut-bias=0.05 / no-opt-cu-delta-qp / no-aq-motion / no-hdr / no-hdr-opt / no-dhdr10-opt / no-idr-recovery-sei / analysis-reuse-level=5 / scale-factor=0 / refine-intra=0 / refine-inter=0 / refine-mv=0 / refine-ctu-distortion=0 / no-limit-sao / ctu-info=0 / no-lowpass-dct / refine-analysis-type=0 / copy-pic=1 / max-ausize-factor=1.0 / no-dynamic-refine / no-single-sei / no-hevc-aq / qp-adaptation-range=1.00
) [7 M$ K) l# |2 T/ N* j. I+ qDefault : Yes
* j" d; e! i7 L, ?4 TForced : No0 H3 v. L, [/ `1 s. ~
( U# Y5 a5 |9 ]& L
Audio #1
( ]8 u+ V0 K" v* L: iID : 2
; j' o8 w: P+ _$ V: A% p6 UFormat : MLP FBA 16-ch  Y6 t. j# V1 g- C- F$ m
Format/Info : Meridian Lossless Packing FBA with 16-channel presentation
: x$ R7 r0 T5 W, r* z9 j2 {  B& dCommercial name : Dolby TrueHD with Dolby Atmos
3 l, c: n! _  b/ dCodec ID : A_TRUEHD( z/ ]! ]% ~$ V; h
Duration : 1 h 47 min
1 Y* F1 g6 h$ C8 f& \; W" eBit rate mode : Variable
$ s6 h* @: |% i6 i' x) o" _Bit rate : 8 470 kb/s
" \9 n) n' e: l+ ^/ I9 n  ?Maximum bit rate : 11.2 Mb/s0 K; ~) k6 V1 m  C9 h3 H
Channel(s) : 8 channels, j+ b, |6 F( q. X9 D# n9 _
Channel layout : L R C LFE Ls Rs Lb Rb) W9 I9 X! \- I. q2 ^9 p
Sampling rate : 48.0 kHz
  J' |3 v; q) D/ o. I/ wFrame rate : 1 200.000 FPS (40 SPF)# l5 A) X: |3 `* B5 m+ c+ G4 }% H4 f7 v
Compression mode : Lossless8 n& A6 x; B& E# P" B0 z" f
Stream size : 6.36 GiB (24%), e' J1 ], |8 V' H. F- ^! G
Title : Raya.and.the.Last.Dragon.2021.2160p.UHD.BluRaycd.x265.10bit.HDR.DTS-HD.MA.TrueHD.7.1.Atmos-SWTYBLZ
5 O7 `% e4 _6 v% KLanguage : English8 e" n- r4 s; U. C, ^5 ^  Y
Default : Yes8 S/ `& E, I! F. b3 Q& |8 S
Forced : No  M! T7 C$ c& W& ^! F1 v& X; q6 i
Number of dynamic objects : 13
) V$ K( T& o, E. DBed channel count : 1 channel
8 g' q+ h0 l0 k  ?" o5 EBed channel configuration : LFE0 |; \! U3 X! r! g  l! o1 y( p; H; E

+ d( i% e- c# g7 qAudio #2
$ H$ a5 x$ s- y; oID : 3# O8 ~" ~* Y" |0 M( |0 Z
Format : DTS XLL6 ~! A; o9 S8 h* a8 ?+ j
Format/Info : Digital Theater Systems
7 H1 _9 }  j1 G- }9 f% CCommercial name : DTS-HD Master Audio3 O9 J1 u6 @; m4 m! y# k
Codec ID : A_DTS5 [3 W, X1 E# I' n( ~: Y+ b7 A, [  L
Duration : 1 h 47 min+ _' O: J7 O% y
Bit rate mode : Variable
) t( {* h+ i9 [- M" }8 XBit rate : 5 285 kb/s) ^$ h' O' d7 P9 a7 Y
Channel(s) : 8 channels
: ~% {- P- e. H- I) n, dChannel layout : C L R LFE Lb Rb Lss Rss% o. B# C$ K3 O1 B
Sampling rate : 48.0 kHz
' T5 k  M, }/ ?6 j) \. v  RFrame rate : 93.750 FPS (512 SPF)3 R* x8 Y( Y9 n* L3 e
Bit depth : 24 bits
. ?4 }& Y8 N4 Y7 a$ p1 SCompression mode : Lossless3 L. G9 a+ T) ~3 Z  M
Stream size : 3.97 GiB (15%)( W! j$ ]( g6 i+ W: m4 M6 A& H6 R
Title : Raya.and.the.Last.Dragon.2021.2160p.UHD.BluRaycd.x265.10bit.HDR.DTS-HD.MA.TrueHD.7.1.Atmos-SWTYBLZ# y  x& A" w! i+ L$ }! h
Language : English" t4 h6 e' q% h
Default : No% e- m5 m# I/ L' ]5 {
Forced : No
' [: r, H. Z/ J' H/ [+ a: z( J& F# j
Audio #3! y. `) y4 J4 P) e; m
ID : 4
5 `: [5 u# v) Y- ~2 a' E) eFormat : AC-3
" j) S9 _; A8 O0 z- b4 XFormat/Info : Audio Coding 34 Z9 S9 Q/ [& s# e* x' r
Commercial name : Dolby Digital4 i* l( f$ {7 o+ G  M' c1 y+ x
Codec ID : A_AC36 ^# Y2 D" [+ x% D
Duration : 1 h 47 min. k% s3 I, i/ K" r4 h9 R/ O9 o
Bit rate mode : Constant- O2 ~  H$ n2 d. y+ R8 m& {
Bit rate : 640 kb/s7 q( _* p0 _2 o' S6 ?8 n% Q" _
Channel(s) : 6 channels
, i6 B- a7 D: P& w, m# a# t+ }/ _Channel layout : L R C LFE Ls Rs' A5 u# r. o1 i
Sampling rate : 48.0 kHz
7 f2 `! U  [: CFrame rate : 31.250 FPS (1536 SPF)
/ w* ^, y' A% l; {Compression mode : Lossy1 \( e" Q; t0 d
Stream size : 492 MiB (2%)9 {% ^/ ^# d% u& X! @4 s! a! j
Title : Raya.and.the.Last.Dragon.2021.2160p.UHD.BluRaycd.x265.10bit.HDR.DTS-HD.MA.TrueHD.7.1.Atmos-SWTYBLZ
- a# N5 M* J0 M& v1 tLanguage : English
0 Y: m2 E& H; V0 {5 [! yService kind : Complete Main/ r3 z5 `0 ]6 Y- E
Default : No# R6 u/ Z2 F+ \/ T
Forced : No
$ {/ D( F# @$ o% N! M  @9 b* j! O' W5 _, r  H4 N, o8 x2 F( r. Y
Text #1
7 q% V/ _5 R$ X! Q0 c( V0 [ID : 5& i! P7 M2 N$ [* e* Q1 t5 e& g
Format : UTF-8. H7 i/ Z8 l8 O7 K" p
Codec ID : S_TEXT/UTF89 C! z* j# ~9 Z! J
Codec ID/Info : UTF-8 Plain Text7 I3 |+ f7 f; d2 o8 z% j
Duration : 1 h 37 min# r5 ~1 I* r- z* ^8 V7 z
Bit rate : 51 b/s
. d8 ^, ]8 ~0 H) n: \2 A# K3 V& @+ BCount of elements : 1360/ F% d0 d$ r0 y' z! V; P
Stream size : 37.1 KiB (0%)
3 J" B4 L5 t! B: VTitle : English-SRT
. o+ z# g8 N; M/ U! x5 J. jLanguage : English
: w/ [& W. l; d6 J7 dDefault : Yes
$ I0 [" B$ Y" @: D1 I0 b8 hForced : No
% \& K/ e% |, \/ f
' ~, c! j" J2 cText #2
# u2 D3 R/ T1 m6 ^2 p6 f( _ID : 6& Z. ^; c: e. Z
Format : PGS! T0 G: q; P( R' r* s8 o$ K* n
Muxing mode : zlib( Q+ ~. k( V9 v4 ?" }
Codec ID : S_HDMV/PGS
  s) k& b6 D. K3 U6 dCodec ID/Info : Picture based subtitle format used on BDs/HD-DVDs
0 }* S2 G. k8 e  L) x- ^Duration : 1 h 46 min
/ [; ]7 [, E0 K/ b8 OBit rate : 44.3 kb/s5 f7 i& O) ?7 y: \+ l: h
Count of elements : 38391 t; c- |5 n  R" L. O+ M
Stream size : 33.7 MiB (0%)+ i* ?* {4 ~% H6 f) b8 E4 Z' Z
Title : English-PGS
" A3 N/ g; P. c- U3 r. l! qLanguage : English( l$ r2 v6 h, s( v! |+ ^
Default : No3 x: P4 \7 ]1 S& V) ~( T, {" C
Forced : No
7 s3 `6 K7 G4 |$ F+ d
6 u3 F. r/ h9 h, I4 X+ }7 u9 _: XText #3# y* \+ v+ Z$ ]( w7 _6 j
ID : 70 }% _7 Z' W# }; @$ S- J
Format : PGS
" Q( T8 T, l9 W/ l3 [3 n* H; q" SMuxing mode : zlib6 V6 [0 X+ o6 m9 T% k" C1 W
Codec ID : S_HDMV/PGS; e, V8 R$ J( X' W& _& r& y
Codec ID/Info : Picture based subtitle format used on BDs/HD-DVDs
+ d' T, y! e0 {" f4 r+ _- c; G4 |Duration : 1 h 45 min% n+ s- I) }# B
Bit rate : 26.7 kb/s  U2 _5 I4 R$ y. H
Count of elements : 23153 n+ _8 G! u  N( W2 ?7 n
Stream size : 20.2 MiB (0%)
" G% V. c5 d; Q# @2 m0 T. B& Y, @Title : French-PGS. ?; m9 N' L# g, h- p' v
Language : French
  ^3 E0 b6 N2 ^  {  Z4 u# W4 }8 ]0 B9 vDefault : No. Y( h# {$ U' Z1 Z  K7 h
Forced : No
0 v$ ^5 [$ }$ s+ A) b  w9 ~
  r' Q( {, u7 {, f* {5 v% zText #4
( T+ r5 a" S$ k3 tID : 8! _7 @; i! P/ `3 b; {, i/ M- }$ g
Format : PGS- a1 {2 R. O* Q* [
Muxing mode : zlib: }, r* e* `, I
Codec ID : S_HDMV/PGS! j0 t  f5 F0 V: q1 S
Codec ID/Info : Picture based subtitle format used on BDs/HD-DVDs
" [( d; E$ R" b) [7 m4 G8 QDuration : 1 h 45 min
' K6 H. N6 q! ?) rBit rate : 22.6 kb/s
/ f- N& ~* L' E0 J8 x" v9 K& s- {% ]Count of elements : 2208
6 s/ ~- g5 N3 V/ EStream size : 17.1 MiB (0%)
: ]) i9 y1 M  |Title : Japanese-PGS  _$ H/ M" _2 A$ a& Q! D
Language : Japanese
$ R* B. w7 ?# _+ K+ {$ cDefault : No% t1 H! x  U" w. V
Forced : No
# b: n$ S1 b# n1 K# N; y" T" I4 D; U( T) {! y* I" e* S  K9 m% T+ G
Text #5
: ~5 S3 ~: D/ ^ID : 9
6 c% L; ~% b; }; N! R, b- w* CFormat : PGS6 z' G+ |) S; F9 v7 C, E$ ~
Muxing mode : zlib
# f; U- e3 Q+ l* ~% K+ n7 RCodec ID : S_HDMV/PGS
: K0 d- u6 w+ E, A/ {* m+ J+ FCodec ID/Info : Picture based subtitle format used on BDs/HD-DVDs: A; v0 |9 t( a, I0 [7 Y/ E
Duration : 1 h 45 min+ j6 T3 D% _4 ^0 J
Bit rate : 28.5 kb/s7 o$ O& Z8 T0 d) a8 @: G8 }# U
Count of elements : 23221 R' [! ~. f1 e' f
Stream size : 21.6 MiB (0%)0 T1 @7 R. T" x
Title : Spanish-PGS
  o; t. e8 ^3 V$ {; NLanguage : Spanish
& z- \, y9 F$ [( I+ dDefault : No
6 L* x- T5 t8 z. i$ qForced : No8 t9 c& n- I) J
4 b5 P* B% d- ^* `- V
Menu
) u3 m2 J3 u5 `9 h1 w00:00:00.000 : Chapter 1- k8 C# g; m  [1 t
00:08:08.697 : Chapter 2' X5 k0 y9 S, i- H4 K0 q; L
00:11:00.159 : Chapter 3
& Y+ _& p2 b- F  Z3 D00:15:16.415 : Chapter 4+ [' w3 z8 R; ?
00:20:15.339 : Chapter 58 H0 x/ s' G. S! ]. x5 Z
00:28:28.749 : Chapter 6; l, N8 O4 j+ R5 ]6 |6 i
00:35:56.905 : Chapter 73 U: T5 V- X1 i" m* v4 D
00:37:43.261 : Chapter 8
1 D5 q  D# D1 [+ @) s$ F7 n00:41:12.595 : Chapter 9+ q0 u' M" m! I4 q' w/ @+ n& m
00:43:19.388 : Chapter 10& y& t8 n6 x; U
00:48:56.392 : Chapter 119 M' w- n  H0 m6 d' \/ {
00:51:31.505 : Chapter 12
; P8 M; a2 r, g0 j9 [  F0 e7 K00:53:13.732 : Chapter 13
" t/ v5 z- C* u  a5 L4 W  y- }00:55:21.068 : Chapter 14
$ i# k5 X2 m2 x  }+ p2 q00:59:08.044 : Chapter 15
, V" V7 [  ~! L01:01:57.380 : Chapter 16
" V* I& X$ ~2 f  w9 j9 C01:04:34.579 : Chapter 179 z* b( ~! P& \0 P( Q4 ^
01:06:47.295 : Chapter 18
) f( H+ P" q. E! x6 ^01:11:21.819 : Chapter 19
. u0 h  b4 A/ T8 a. Q+ k) n, a01:15:51.213 : Chapter 20
* X& i# G2 u7 i1 C# L& b; |- g01:18:41.008 : Chapter 212 C# Z4 k+ Y8 r6 E8 }/ o0 l0 |
01:28:26.217 : Chapter 22- S+ }8 b/ C) r
01:35:08.286 : Chapter 23
Video: c3 M' G4 W/ Y+ Y1 v1 y( D
ID : 1; r4 R1 L* R9 f, S) D7 L6 t: y
Format : HEVC3 s: U! D; B/ H( [! J4 F
Format/Info : High Efficiency Video Coding$ J3 \; n# O/ s; b8 N# I
Format profile : Main 10@L5.1@High
5 o1 U  t" N! r! X! m5 T( \/ ?5 ]HDR format : SMPTE ST 2086, HDR10 compatible6 K0 z4 c" A& N& H
Codec ID : V_MPEGH/ISO/HEVC
7 K0 W  p' L8 y: N- FDuration : 1 h 47 min
& H: {+ Z  q+ `, E$ vBit rate : 17.2 Mb/s
4 b: g0 L% @: i3 m0 b$ H, b; nWidth : 3 840 pixels
+ v0 d& {4 _9 Z5 g1 L; Y1 M. RHeight : 1 608 pixels/ r: m7 ?. c% H* O9 n: r3 z7 H
Display aspect ratio : 2.40:1+ y; ^8 h7 W) E( o8 S4 w5 u- `' C5 r  `
Frame rate mode : Constant
0 {# S& p1 o) \; ~2 ~# p+ z" D% ZFrame rate : 23.976 (24000/1001/189150) FPS
; F+ E( J6 s7 v! S* {Color space : YUV, {  A% K7 s/ k" o# N
Chroma subsampling : 4:2:0 (Type 2)
7 Y4 \# p/ C7 }& C. o- j, ZBit depth : 10 bits; S$ Q& z4 u4 p2 }. K
Bits/(Pixel*Frame) : 0.116
5 z7 A; W. A" ?% RStream size : 12.9 GiB (65%)) T! {: ^- B; z4 c- N6 ?/ w
Writing library : x265 3.5bf91444e0:[Windows][MSVC 1928][64 bit] 10bit
( P0 Q" z" M" A. {9 M4 j$ EEncoding settings : cpuid=1111039 / frame-threads=4 / numa-pools=16 / wpp / no-pmode / no-pme / no-psnr / no-ssim / log-level=2 / input-csp=1 / input-res=3840x1608 / interlace=0 / total-frames=154626 / level-idc=51 / high-tier=1 / uhd-bd=0 / ref=4 / no-allow-non-conformance / repeat-headers / annexb / aud / no-eob / no-eos / hrd / info / hash=0 / no-temporal-layers / open-gop / min-keyint=23 / keyint=250 / gop-lookahead=0 / bframes=4 / b-adapt=2 / b-pyramid / bframe-bias=0 / rc-lookahead=25 / lookahead-slices=4 / scenecut=40 / hist-scenecut=0 / radl=0 / no-splice / no-intra-refresh / ctu=64 / min-cu-size=8 / rect / no-amp / max-tu-size=32 / tu-inter-depth=1 / tu-intra-depth=1 / limit-tu=0 / rdoq-level=2 / dynamic-rd=0.00 / no-ssim-rd / signhide / no-tskip / nr-intra=0 / nr-inter=0 / no-constrained-intra / strong-intra-smoothing / max-merge=3 / limit-refs=3 / limit-modes / me=3 / subme=3 / merange=57 / temporal-mvp / no-frame-dup / no-hme / weightp / no-weightb / no-analyze-src-pics / deblock=-3:-3 / no-sao / no-sao-non-deblock / rd=4 / selective-sao=0 / no-early-skip / rskip / no-fast-intra / no-tskip-fast / no-cu-lossless / no-b-intra / no-splitrd-skip / rdpenalty=0 / psy-rd=2.00 / psy-rdoq=1.00 / no-rd-refine / no-lossless / cbqpoffs=0 / crqpoffs=0 / rc=crf / crf=14.0 / qcomp=0.60 / qpstep=4 / stats-write=0 / stats-read=0 / vbv-maxrate=160000 / vbv-bufsize=160000 / vbv-init=0.9 / min-vbv-fullness=50.0 / max-vbv-fullness=80.0 / crf-max=0.0 / crf-min=0.0 / ipratio=1.40 / pbratio=1.30 / aq-mode=2 / aq-strength=1.00 / cutree / zone-count=0 / no-strict-cbr / qg-size=32 / no-rc-grain / qpmax=69 / qpmin=0 / no-const-vbv / sar=1 / overscan=0 / videoformat=5 / range=0 / colorprim=9 / transfer=16 / colormatrix=9 / chromaloc=1 / chromaloc-top=2 / chromaloc-bottom=2 / display-window=0 / master-display=G(13250,34500)B(7500,3000)R(34000,16000)WP(15635,16450)L(10000000,50) / cll=0,0 / min-luma=0 / max-luma=1023 / log2-max-poc-lsb=8 / vui-timing-info / vui-hrd-info / slices=1 / no-opt-qp-pps / no-opt-ref-list-length-pps / no-multi-pass-opt-rps / scenecut-bias=0.05 / hist-threshold=0.03 / no-opt-cu-delta-qp / no-aq-motion / hdr10 / hdr10-opt / no-dhdr10-opt / no-idr-recovery-sei / analysis-reuse-level=0 / analysis-save-reuse-level=0 / analysis-load-reuse-level=0 / scale-factor=0 / refine-intra=0 / refine-inter=0 / refine-mv=1 / refine-ctu-distortion=0 / no-limit-sao / ctu-info=0 / no-lowpass-dct / refine-analysis-type=0 / copy-pic=1 / max-ausize-factor=1.0 / no-dynamic-refine / no-single-sei / no-hevc-aq / no-svt / no-field / qp-adaptation-range=1.00 / scenecut-aware-qp=0conformance-window-offsets / right=0 / bottom=0 / decoder-max-rate=0 / no-vbv-live-multi-pass8 \6 o# y/ E9 Q& ?
Default : Yes
/ `- R& {7 @2 f; M( e8 p6 H% o. jForced : No" [! d* M- m. o: }# I8 E9 `
Color range : Limited
: q: F( n# E; o+ a. OColor primaries : BT.2020& ~$ j7 e; @% y0 N7 a0 C8 |
Transfer characteristics : PQ6 j, d3 o' h4 d0 P3 Y
Matrix coefficients : BT.2020 non-constant" x1 E# L; p! ]3 v/ X3 k3 z
Mastering display color primaries : Display P38 r9 }1 }0 Q* x1 ^$ [7 b
Mastering display luminance : min: 0.0050 cd/m2, max: 1000 cd/m29 m' N! p7 m6 G- c2 \5 G) m. P- E* w

; q+ T9 y5 x+ H) z1 r0 h8 W( Q3 gAudio #1
9 q4 o+ I4 w7 j6 H9 u6 {6 bID : 2# p$ ~" z$ Z7 S9 F1 c* o
Format : MLP FBA 16-ch' V+ J1 M- N* V7 _/ V) \! |' Z9 T
Format/Info : Meridian Lossless Packing FBA with 16-channel presentation
0 |  s2 }5 K- R! [* mCommercial name : Dolby TrueHD with Dolby Atmos; X2 C, j- y  N- i/ u
Codec ID : A_TRUEHD
9 m; o2 P: o% U. t/ I7 f. P4 ~Duration : 1 h 47 min
: B+ Q( K1 I. \* S' k% r& P4 rBit rate mode : Variable0 o" r5 V9 I# y7 \, L; \
Bit rate : 8 470 kb/s2 i" E& m, N6 ^; X# q
Maximum bit rate : 11.2 Mb/s0 |9 _- ^/ ]0 U7 Y9 O
Channel(s) : 8 channels
# F6 Y; k: G" {; }9 `( Q( zChannel layout : L R C LFE Ls Rs Lb Rb% t1 B8 E/ D- K/ U- u! E0 R9 }
Sampling rate : 48.0 kHz
" Q! ]0 H8 ?7 NFrame rate : 1 200.000 FPS (40 SPF); K1 s" v+ m/ C$ g
Compression mode : Lossless6 a' c1 c8 v9 G1 h
Stream size : 6.36 GiB (32%)
- V& {0 _, z8 y+ tLanguage : English: ~6 N( w  D3 c4 G) B4 z7 f
Default : Yes7 l4 q/ K5 C& P1 w
Forced : No
; z3 I" G' g: T$ n# Y9 ]: b2 {Number of dynamic objects : 139 F/ i2 k* F1 E1 j& X9 w
Bed channel count : 1 channel
* U3 E  v, K. N, a8 XBed channel configuration : LFE7 X  n2 ]9 w4 N3 m. f& _% N! O

4 F% h- z8 @" P# S$ LAudio #2
5 F6 d3 {* q& Y$ aID : 35 o8 \2 L' h( ~* g( m3 X: o% T0 f
Format : AC-35 w0 o! q& r. E
Format/Info : Audio Coding 3
3 X# T9 h' z* d* B9 k% _Commercial name : Dolby Digital
; C8 }5 ^" o  V* Y3 UCodec ID : A_AC3: O# h2 N1 _) i! h  J
Duration : 1 h 47 min) J) w. A7 @# @6 e
Bit rate mode : Constant# y0 f+ ?# Y& A9 W
Bit rate : 640 kb/s( d: Z3 Q' o% m+ ^! q+ F
Channel(s) : 6 channels
& g- E; k" G. `( a" f* Q# M% i# nChannel layout : L R C LFE Ls Rs) P8 {# U# h+ S, [" c
Sampling rate : 48.0 kHz- ]' l" V9 J5 |! H
Frame rate : 31.250 FPS (1536 SPF)
$ U& V$ S: D9 y; J9 x( \& SCompression mode : Lossy7 x' B* X" F2 c  Q" e' }- T% _% v! [  t
Stream size : 492 MiB (2%)% G. g7 C' r* Z2 ~4 K+ R8 c% A
Language : English" O1 S* E) P+ v$ E' H/ k3 U$ s) _
Service kind : Complete Main* Q! G* R8 G5 U( }; {% e
Default : No; ?) g! `) e7 i$ F6 x
Forced : No
# t( r$ e$ Y# o5 Q! Q6 h  `
. o! f) ?8 H7 h4 T2 [* WText #16 h  U1 A* V0 S2 v0 P5 q
ID : 4
4 \5 M) D( o4 H2 @Format : PGS
4 _1 p) u. N* ^- o! d; H& i4 G: ~Muxing mode : zlib
5 a8 R  O# e( m+ J% n* M8 qCodec ID : S_HDMV/PGS0 W% c7 B8 ^7 k( e: x9 w
Codec ID/Info : Picture based subtitle format used on BDs/HD-DVDs
8 q! `3 h- u+ l/ n: S- }Duration : 1 h 46 min+ U( Y  N* ?( V2 |' m& J3 ]# K: G
Bit rate : 44.3 kb/s
; W* V1 z( \1 {+ z& G5 pCount of elements : 3839
, P4 i; i0 {3 ]5 N& lStream size : 33.7 MiB (0%)' y" `) E! B" C- Q! s
Title : SDH; C9 [6 j. w% d# c
Language : English7 E+ ~7 z  k2 w% f
Default : No
1 P+ Y  ]5 e% U' t5 |) ]1 S! w; \! NForced : No1 ^- Z5 _" L3 L; D1 x2 M
! V9 `, a2 S9 i9 e4 L! F, S
Text #2+ U2 [/ ]. j/ m# S' G
ID : 5) C, T# U2 Z0 ~1 }7 Y( M
Format : PGS1 i$ O7 S4 p* q
Muxing mode : zlib
3 e7 ?& N6 Z5 _. _8 jCodec ID : S_HDMV/PGS  \, H: F# ~7 b$ s' h5 ]
Codec ID/Info : Picture based subtitle format used on BDs/HD-DVDs, d$ v8 d; \) x& {
Duration : 1 h 45 min
0 I+ a2 d' w4 ^. U! uBit rate : 26.7 kb/s, Q5 J& G' _1 z; ^0 T+ O- O
Count of elements : 2315
) `* e9 ~! y! ], d5 {" j9 u# A. NStream size : 20.2 MiB (0%)8 z- e1 a+ O, I  P" P- L) Z
Language : French
/ x/ E- I9 ^6 P$ O8 h# XDefault : No
( F, o- A$ |! n* HForced : No
$ |  h0 ^2 j, W7 W
9 o7 u; O3 r6 D7 {. BText #3/ X8 J# K" E; h: p+ q- s
ID : 62 L6 T8 g7 T! d8 w( q# [/ E: s
Format : PGS
- @! h4 L6 B+ M1 fMuxing mode : zlib
  ]  ?! S- Z" z4 b/ D9 fCodec ID : S_HDMV/PGS8 i& z' m* z1 ~# W8 W8 H7 z
Codec ID/Info : Picture based subtitle format used on BDs/HD-DVDs
+ g# _3 P: C2 ^$ T7 s- PDuration : 1 h 45 min. i. s6 W+ J3 {- t
Bit rate : 28.5 kb/s
1 L7 J' m. }5 J3 c3 `% U# {Count of elements : 2322& n/ q$ m0 P* R1 r
Stream size : 21.6 MiB (0%)
  e; X# d) j" L/ |2 J9 YLanguage : Spanish3 ?. M7 E. f+ f9 v2 T
Default : No- `3 m  x/ R, Z, R
Forced : No
/ v% {  h2 [- J/ \! v* e
4 F5 u+ y6 I  f0 ]Text #4
- ~( t1 L+ A) Y2 EID : 7
" W, g& I( l$ c- v0 FFormat : PGS, g7 J% U9 t+ _% L# W2 M
Muxing mode : zlib8 v$ ]$ E: z( P
Codec ID : S_HDMV/PGS6 K' n9 A' y# V) [
Codec ID/Info : Picture based subtitle format used on BDs/HD-DVDs+ o8 c6 D% o9 |/ T. }0 [
Duration : 1 h 45 min
0 U9 g4 A& S* [( sBit rate : 22.6 kb/s
1 F8 T/ U3 V8 f) y# gCount of elements : 22083 o! E8 ?% h# \# B' Q2 B: Z
Stream size : 17.1 MiB (0%)* Z4 v' k# y0 ?* O  A
Language : Japanese0 [. G6 Y- `4 [; F
Default : No6 z/ M; Y4 J; f5 R) Q$ Q
Forced : No# @; D6 X5 U9 x; P

, l0 z/ l' Q# H7 I7 C" m) v0 mMenu0 n% a" ]7 U% F
00:00:00.000 : :Chapter 01
; N. c3 o/ Z7 g' ~7 R00:08:08.697 : :Chapter 02/ e) H& L4 V7 U, a2 R# o9 b# f- q. j
00:11:00.159 : :Chapter 03
/ f6 E; x. }( I2 Q9 I4 z& Z! K00:15:16.415 : :Chapter 04, }8 g) I4 w, q8 Q3 F  p+ Q
00:20:15.339 : :Chapter 05
7 R5 p0 v9 ~. A2 Y8 o. }00:28:28.749 : :Chapter 06" u( j4 {  f: z4 u$ c" I- ]
00:35:56.905 : :Chapter 073 }, m" t4 F; Y
00:37:43.261 : :Chapter 088 h# h/ V1 t7 {: E- c
00:41:12.595 : :Chapter 09
. X# {1 Q' d' e) Q: R* `7 s00:43:19.388 : :Chapter 104 ?7 C/ \) Y) K9 E2 v" D7 R  v
00:48:56.392 : :Chapter 11  R% Q% {) q1 [0 |6 K
00:51:31.505 : :Chapter 12
% J9 N3 D- @# ]7 ~00:53:13.732 : :Chapter 13
( m* _2 ~8 \2 n! A$ h00:55:21.068 : :Chapter 148 {! m" ~7 p: j4 B+ t# ]
00:59:08.044 : :Chapter 15. v2 U. q2 }8 ~6 L% y
01:01:57.380 : :Chapter 16
, P7 C5 E' X7 o1 p01:04:34.579 : :Chapter 172 |; s; ~1 h# b0 ~
01:06:47.295 : :Chapter 18; c: {1 E; E8 }) x7 x6 ~
01:11:21.819 : :Chapter 193 Y- y5 B$ }# O/ t
01:15:51.213 : :Chapter 20: }0 B. M+ X/ h5 r0 s1 K; Q1 d
01:18:41.008 : :Chapter 21/ {! q5 y3 N0 A3 k
01:28:26.217 : :Chapter 22( ?& S( K2 `$ M: W6 e9 i
01:35:08.286 : :Chapter 235 x& k9 C3 }% F
01:47:28.942 : :Chapter 24
$ i$ S" v5 _2 H/ M
游客,查看本帖隐藏内容请回复 | 加入VIP贵宾可免积分免回复 了解详情 | 还不是会员:点击获取邀请码 Invitation Code

0

主题

27

帖子

223

积分

Sponsor

金币
110 枚
体力
61 点
myhxq 发表于 2021-6-4 19:17:56 | 显示全部楼层
谢谢楼主分享!
* r+ x! R. ]3 U4 p+ D

本版积分规则

小黑屋|Archiver|蓝光电影资源网

GMT+8, 2021-8-3 15:57

快速回复 返回顶部 返回列表