BluRayCD Forum

 找回密码
 立即注册【分享大片】
查看: 20|回复: 2
收起左侧

[2160P极清] 寻龙传说 [4K SDR高码版] Raya and the Last Dragon 2021 2160p BluRaycd x265 10bit & 8bit SDR DTS-HD MA TrueHD 7.1 Atmos-SWTYBLZ 26.97GB & 30.25GB

[复制链接]

5792

主题

5966

帖子

7万

积分

Post Share

金币
13328 枚
体力
19706 点

卓越贡献勋章

黄金嫖客 发表于 2021-5-23 06:41:07 | 显示全部楼层 |阅读模式

* q! o/ r! J  {% M/ d1 g, y0 h$ ]6 ?  q& W+ l# v% r
◎片  名 Raya and The Last Dragon4 v+ y' Y$ j" _+ ]2 X8 B' F, R
◎译  名 寻龙传说/拉雅和最后的龙/魔龙王国(港)/寻龙使者:拉雅(台)/瑞亚和最后一条龙
- ]  d% O8 J& J8 Y( S( D( J◎年  代 2021* t2 Z( z7 g0 ?$ o2 W( P
◎产  地 美国9 r- K! F* O( G0 {& v7 B& _5 o
◎类  别 动画/奇幻/冒险6 J  M9 j. g+ D. l+ |
◎语  言 英语$ H) `6 {# F' {& F
◎上映日期 2021-03-05(中国大陆/美国)
2 e6 W. _. I+ G. ]2 z◎IMDb评分  7.4/10 from 58,318 users
+ G" v- ?$ T# W6 @6 U◎IMDb链接  https://www.imdb.com/title/tt5109280/+ G+ O7 I, ^* }: y
◎豆瓣评分 7.2/10 from 78,165 users$ T0 @$ S( b' e% `% S
◎豆瓣链接 https://movie.douban.com/subject/34804147/! p& t* \6 F8 N) }" C' Z; W
◎片  长 1 h 47 min8 g0 d3 N! A( k$ I; o% n
◎导  演 唐·霍尔 Don Hall  A$ k) z( E9 ^; O* c
       卡洛斯·洛佩斯·埃斯特拉达 Carlos López Estrada
& `/ `! a; K5 v, E& L+ I       保罗·布里格斯 Paul Briggs
8 f: B6 P  r2 d$ q% e       约翰·瑞帕 John Ripa0 V% |! w$ C+ {
◎编  剧 阮基 Qui Nguyen
. U' p3 {7 o( j( M+ |$ v       阿黛勒·林 Adele Lim# J: U8 J0 A6 h" z" O* k, o! Y
       保罗·布里格斯 Paul Briggs5 T' H4 j. X* g8 N7 ~$ o
       唐·霍尔 Don Hall0 r' w+ A2 X1 _7 ?$ `% b
       卡洛斯·洛佩斯·埃斯特拉达 Carlos López Estrada
. N* ~8 M7 e0 |! \2 W  @; y7 D       基尔·默里 Kiel Murray3 O9 X' J* `$ W  ^* a! E' Q
       约翰·瑞帕 John Ripa
- k% k8 m# ]$ k) L& Q       迪恩·威林斯 Dean Wellins+ Q9 t* G+ J$ ]# t* {7 E- G
◎主  演 凯莉·玛丽·陈 Kelly Marie Tran
  Y# I! Q5 M* U" F9 B; b2 t       奥卡菲娜 Awkwafina$ m, F/ A# Z1 d: m% E6 V1 l
       嘉玛·陈 Gemma Chan
0 l5 _2 P% c; m& H- f       金大贤 Daniel Dae Kim
! t7 ?6 c& q2 ]: O6 g6 H3 c       吴珊卓 Sandra Oh0 l* L5 I" J8 D# @! G4 ~- P
       本尼迪克特·王 Benedict Wong
" J, k' o. k! y9 q% c. j       伊扎克·王 Izaac Wang  B. g8 a4 f1 t5 Z+ O+ m1 L
       塔莉娅·陈 Thalia Tran) n; D" v) F7 C# W6 M- c
       艾伦·图代克 Alan Tudyk
* L- r5 o/ i) y       迪辰·拉克曼 Dichen Lachman
* H' L  H* Z! n# _* E       帕蒂·哈里森 Patti Harrison
) M3 E) X9 D3 n2 p9 S2 L       姜成镐 Sung Kang
3 r% I6 W  a2 Y, n4 s       罗斯·巴特勒 Ross Butler3 v; I5 l, U5 T; e9 F4 Q
       乔娜·肖 Jona Xiao
3 w2 ]3 R4 C6 c. R       宋静秀 Lucille Soong
# m& C3 s* W6 I       弗朗克西斯·周 Fran?ois Chau' T+ L* T% I; b& {: \1 ]9 _
       保罗·扬 Paul Yen7 w/ w8 |7 @. G' r  d
       Liza Del Mundo' L( n' [3 {# o! o, z5 C
       塔妮亚·古纳迪 Tania Gunadi
. H. ]" E  w' R% e       Jennie Kwan
8 b6 j) D* S* k/ A       Lucian Perez
' |: b% P" i5 k! d       文森特·罗德里格兹三世 Vincent Rodriguez III
0 H& ]  D0 q7 z       JB Tadena
4 N7 A/ U% K8 T$ P. I       赵丽颖 Liying Zhao1 T! t5 a2 e! T1 C9 _2 k$ W) T* O
) j9 x) l- B6 e5 L; A6 ?
◎标  签 迪士尼 | 动画 | Disney | 动画电影 | 奇幻 | 华特·迪士尼WaltDisney | 美国 | 皮克斯
) l# g1 P$ V# e9 J# L, b. _
0 S1 o5 c* r5 B! q: C◎简  介     ' a3 m7 t  T/ U3 s0 K: U
2 Z5 O/ r8 ?$ O
  很久以前,在充满奇幻色彩的龙佑之邦,人类和龙和谐地生活在一起。但当一股邪恶的力量袭来,龙牺牲了自己来拯救人类。500年后,同样的邪恶力量卷土重来,只有一个孤独的战士拉雅(凯莉·玛丽·陈 配音)承担重任,追踪传说中的最后一条龙,以修复这块破碎的土地,团结分裂的人民。在她的旅程中,她也会逐渐了解到拯救世界不仅仅需要一条龙,还需要信任和团队合作。
8 T( M) w7 C& z, r  h, Y2 C1 q! }( i% O/ C4 E' ~6 u- L( \: q
  In a land called Kumandra, split into five different regions, a warrior named Raya searches for the last dragon in the world.9 \1 h- w9 i6 h8 ~' J7 \9 x; R( o

5 {) ~' K2 n$ A& n
SWEATY BALLZ presents7 l9 K( ~% ]# |3 H' X
; t( L, O/ J% k8 @# E8 u! M
Raya.and.the.Last.Dragon.2021.2160p.BluRayCD.x265.10bit.SDR.DTS-HD.MA.TrueHD.7.1.Atmos-SWTYBLZ
7 Z1 H  z9 S) n" Y0 i$ ^Converted from 10 bit HDR to 10 bit SDR using tripple mixed Hable-Reinhard-JJ per scene+frame analysis algorithm# i, ?  D% a2 B
Screenshots are 8bit SDR8 k4 E9 C( R' k+ ?0 |/ z) v
' T! a1 `" O& n- ~/ g
Video
+ T' a7 V# u  h, JID : 1
$ Y' _' y3 r, \% g) P3 \Format : HEVC
8 ]9 u9 [( w. B8 i0 HFormat/Info : High Efficiency Video Coding
; s; S/ |% g* FFormat profile : Main 10@L5.1@High
; G/ N7 p! B4 S, ZCodec ID : V_MPEGH/ISO/HEVC8 X% }& N  y- k2 y- A5 \( k
Duration : 1 h 47 min" _* `) Y3 g8 o
Bit rate : 21.2 Mb/s2 y* ?4 l# o$ I9 d- B
Width : 3 840 pixels
1 i- {2 n) o( b4 gHeight : 1 608 pixels! z  O: T" F; G) l
Display aspect ratio : 2.40:1
3 F" r2 l# s2 g, VFrame rate mode : Constant
0 A2 L# C: P; h' D2 ^Frame rate : 23.976 (24000/1001/189150) FPS
9 R1 {3 h& x% z( ~) y3 e$ qColor space : YUV& F3 R* Q& z' O1 q) B2 E2 L
Chroma subsampling : 4:2:0! X! _4 J8 |7 H$ C. s
Bit depth : 10 bits
/ \1 W& I  v) r& ^Bits/(Pixel*Frame) : 0.143
8 }( J. F, s: N/ a+ y, @6 d* zStream size : 15.9 GiB (59%)/ b4 o3 @% C7 t- a
Title : Raya.and.the.Last.Dragon.2021.2160p.BluRaycd.x265.10bit.SDR.DTS-HD.MA.TrueHD.7.1.Atmos-SWTYBLZ
0 c" a/ U7 ?- U1 q1 nWriting library : x265 3.0ed72af837053:[Windows][GCC 8.2.0][64 bit] 10bit
4 j) W2 {1 C% K- g2 fEncoding settings : cpuid=1111039 / frame-threads=6 / numa-pools=40 / wpp / no-pmode / no-pme / no-psnr / no-ssim / log-level=2 / input-csp=1 / input-res=3840x1608 / interlace=0 / total-frames=154626 / level-idc=51 / high-tier=1 / uhd-bd=0 / ref=3 / no-allow-non-conformance / repeat-headers / annexb / aud / hrd / info / hash=0 / no-temporal-layers / no-open-gop / min-keyint=1 / keyint=24 / gop-lookahead=0 / bframes=6 / b-adapt=2 / b-pyramid / bframe-bias=0 / rc-lookahead=25 / lookahead-slices=4 / scenecut=40 / radl=0 / no-splice / no-intra-refresh / ctu=64 / min-cu-size=8 / no-rect / no-amp / max-tu-size=32 / tu-inter-depth=1 / tu-intra-depth=1 / limit-tu=0 / rdoq-level=0 / dynamic-rd=0.00 / no-ssim-rd / signhide / no-tskip / nr-intra=0 / nr-inter=0 / no-constrained-intra / strong-intra-smoothing / max-merge=2 / limit-refs=3 / no-limit-modes / me=1 / subme=2 / merange=57 / temporal-mvp / weightp / no-weightb / no-analyze-src-pics / deblock=1:1 / no-sao / no-sao-non-deblock / rd=3 / no-early-skip / rskip / no-fast-intra / no-tskip-fast / no-cu-lossless / no-b-intra / no-splitrd-skip / rdpenalty=0 / psy-rd=0.40 / psy-rdoq=0.00 / no-rd-refine / no-lossless / cbqpoffs=0 / crqpoffs=0 / rc=crf / crf=14.0 / qcomp=0.60 / qpstep=4 / stats-write=0 / stats-read=0 / vbv-maxrate=160000 / vbv-bufsize=160000 / vbv-init=0.9 / crf-max=0.0 / crf-min=0.0 / ipratio=1.40 / pbratio=1.30 / aq-mode=1 / aq-strength=0.40 / cutree / zone-count=0 / no-strict-cbr / qg-size=32 / no-rc-grain / qpmax=69 / qpmin=0 / no-const-vbv / sar=1 / overscan=0 / videoformat=5 / range=0 / colorprim=2 / transfer=2 / colormatrix=2 / chromaloc=0 / display-window=0 / max-cll=0,0 / min-luma=0 / max-luma=1023 / log2-max-poc-lsb=8 / vui-timing-info / vui-hrd-info / slices=1 / opt-qp-pps / opt-ref-list-length-pps / no-multi-pass-opt-rps / scenecut-bias=0.05 / no-opt-cu-delta-qp / no-aq-motion / no-hdr / no-hdr-opt / no-dhdr10-opt / no-idr-recovery-sei / analysis-reuse-level=5 / scale-factor=0 / refine-intra=0 / refine-inter=0 / refine-mv=0 / refine-ctu-distortion=0 / no-limit-sao / ctu-info=0 / no-lowpass-dct / refine-analysis-type=0 / copy-pic=1 / max-ausize-factor=1.0 / no-dynamic-refine / no-single-sei / no-hevc-aq / qp-adaptation-range=1.00
( l, N# v; w" ?; f& {6 @Default : Yes
/ g4 A) E( }4 U: b& K- m/ x. r4 N0 P3 ?Forced : No
0 a7 v" g8 ]) y$ @' g% `; O% L+ ~: t, j
Audio #12 b3 ?# k+ M5 @- z
ID : 2& _: ~3 c8 D* {
Format : MLP FBA 16-ch9 R6 ^, U' _, _1 F3 G+ }
Format/Info : Meridian Lossless Packing FBA with 16-channel presentation2 z. r" a; u# F2 m1 @6 q4 m
Commercial name : Dolby TrueHD with Dolby Atmos7 R. \, G, j! E0 s, y- V/ [" E( F0 j
Codec ID : A_TRUEHD
4 s  l: h, ^7 P7 UDuration : 1 h 47 min2 J! x4 {0 Z* }% z8 y( k/ n
Bit rate mode : Variable
  X: Y7 n6 |, G/ z. [) w! bBit rate : 8 470 kb/s' k( N1 t- `6 K' Z
Maximum bit rate : 11.2 Mb/s4 ?) W2 w8 _: m+ a. r* P' y9 R2 U
Channel(s) : 8 channels; H9 {6 t: _0 M% g5 B3 `% D0 l
Channel layout : L R C LFE Ls Rs Lb Rb
0 M, Q0 g8 c+ r4 ]1 [- _9 JSampling rate : 48.0 kHz
* U8 W+ l5 A; mFrame rate : 1 200.000 FPS (40 SPF)
9 E3 O4 f' u" E1 R9 |& K( HCompression mode : Lossless! k! Z" r* E/ t+ q! s
Stream size : 6.36 GiB (24%)
3 i& G; b0 b  r' f8 l: M& {" iTitle : Raya.and.the.Last.Dragon.2021.2160p.BluRaycd.x265.10bit.SDR.DTS-HD.MA.TrueHD.7.1.Atmos-SWTYBLZ: H) ]% t! d) |& B3 w/ M0 H6 G
Language : English0 d. c  F& D* }& u
Default : Yes$ e. B- h1 ^, f# d2 W
Forced : No
( b. y$ V0 v2 {6 ANumber of dynamic objects : 13
0 u! }( q7 Y6 J/ E' z& h0 f* o; SBed channel count : 1 channel" i1 A# R) Z% R4 T+ m+ l+ N
Bed channel configuration : LFE
+ t: N1 a3 T& b6 F4 [/ Y; K0 g+ a3 K" D" m6 n6 [" @5 r
Audio #23 {4 h1 [' X! m! R# e) h% @- t/ _
ID : 3
4 }4 ]/ m0 D+ Y! [Format : DTS XLL
8 j" [+ E* H& f+ U9 w4 QFormat/Info : Digital Theater Systems
, r8 r* ^0 b5 _0 D+ Y( QCommercial name : DTS-HD Master Audio) W3 t6 @# I; D
Codec ID : A_DTS
; L5 P% Y6 P1 zDuration : 1 h 47 min
( Z6 }9 B; M4 MBit rate mode : Variable
2 Y/ R( `- P' N5 E# BBit rate : 5 285 kb/s2 F: g- w' ]  }
Channel(s) : 8 channels
3 s  F+ d0 Q% E) N, q  K/ Z5 sChannel layout : C L R LFE Lb Rb Lss Rss3 }) N6 Q3 G  v$ [: X4 L* h
Sampling rate : 48.0 kHz. a7 z6 H, H( r! ^7 }& n  g) I
Frame rate : 93.750 FPS (512 SPF)
+ W" T0 S: a* D1 O7 D1 P- IBit depth : 24 bits& @( B7 a  I' l/ k$ [
Compression mode : Lossless
4 N+ [* E9 h5 T( l# j4 LStream size : 3.97 GiB (15%)
+ c. L* G1 g! Z/ Q- t  i6 M" `Title : Raya.and.the.Last.Dragon.2021.2160p.BluRaycd.x265.10bit.SDR.DTS-HD.MA.TrueHD.7.1.Atmos-SWTYBLZ
" W9 z1 d' N0 Z0 F- ZLanguage : English
3 {& }/ P5 C6 u# s5 rDefault : No6 k0 E) k8 I2 _5 Q( X
Forced : No# a6 r) u; C- e" x, n

9 Z  l2 G. q9 a& c) ]Audio #35 S9 w& C& T& L- J; N# ?
ID : 4
7 D8 g' ]: L" M4 ?. MFormat : AC-3! E  U. \0 W) B% j
Format/Info : Audio Coding 3
, s$ B0 s% ~. {0 p6 k, bCommercial name : Dolby Digital! p. S% S+ _2 J5 Y: W* Q
Codec ID : A_AC3. j8 T7 d7 {4 N) ?8 S$ t
Duration : 1 h 47 min3 Z9 M, C5 j1 v# X1 o: h
Bit rate mode : Constant4 H% R2 y( _. [* L1 \- R8 c
Bit rate : 640 kb/s9 C3 S9 Q/ d* t( J- K+ B
Channel(s) : 6 channels$ ]/ c' ]/ ^) G8 c! ]6 @8 |
Channel layout : L R C LFE Ls Rs& M6 V0 F$ O: @7 v* Z2 M( t6 O
Sampling rate : 48.0 kHz. m, o) m! p# [) U
Frame rate : 31.250 FPS (1536 SPF)1 Z  O9 L  w) x, X3 V3 J7 j1 K, T- v
Compression mode : Lossy
( q4 m8 h8 }& n1 i  mStream size : 492 MiB (2%)7 k, x  F# Y2 j# F
Title : Raya.and.the.Last.Dragon.2021.2160p.BluRaycd.x265.10bit.SDR.DTS-HD.MA.TrueHD.7.1.Atmos-SWTYBLZ* E9 T* b* i/ q  T* Z3 G1 c
Language : English
7 b( m% o9 V- E1 y8 }# lService kind : Complete Main" \8 _# f2 G; Z$ [2 R
Default : No7 s1 y. z: l7 Y$ p
Forced : No
/ m" o% S4 w9 I" i2 D) U! \) x# P
+ ?1 F6 q- n" FText #1' R- C. A* R  k: S0 }6 m
ID : 5
% k  c* B6 U" D4 P$ G8 QFormat : UTF-8# _( N- j* w' X& c7 b; M1 ]# w
Codec ID : S_TEXT/UTF8
! S+ a3 P1 e9 |2 e4 l8 ^Codec ID/Info : UTF-8 Plain Text
0 {8 ^8 W. b: @Duration : 1 h 37 min
, `' }3 D0 Q. |! L  ]$ aBit rate : 51 b/s, j' W' k' C& V% K! \1 }3 v
Count of elements : 13606 C. ?5 y+ Z$ g3 c+ q7 |* B
Stream size : 37.1 KiB (0%)
" {# F8 `/ U, r' |2 FTitle : English-SRT
* X" P0 x3 @5 a4 kLanguage : English' f4 X' M; A$ X: w+ Q: A5 G1 S
Default : Yes
( L: W& O5 V- [* vForced : No
3 l/ J* |' h+ C7 N) x1 T# ?
! ^& }4 d: _: T1 c. ?6 Y& P& X+ `Text #2
2 k) t3 ?: [3 @1 |ID : 6
0 c0 k& Y3 Z, q6 g& uFormat : PGS1 ?! q) [+ o9 m' o6 w% d
Muxing mode : zlib% Q0 F9 T* l1 F# ?( x! b3 ~
Codec ID : S_HDMV/PGS- i; h7 y4 K& u2 L- T
Codec ID/Info : Picture based subtitle format used on BDs/HD-DVDs
, u5 _$ u+ B8 L+ Y# N( `Duration : 1 h 46 min+ I0 {' W( Q& v
Bit rate : 44.3 kb/s
, a( ^: y) l$ n7 aCount of elements : 3839' K$ H/ e, n7 c9 f7 u
Stream size : 33.7 MiB (0%)
5 h. H8 M/ ^0 n0 Z* T# r% [6 C8 ~Title : English-PGS: X7 y- k9 R" {& q8 b
Language : English
0 A2 t  I& x$ \  }. v2 l$ tDefault : No
# z9 i, t  [) o' b, DForced : No
1 \$ I  j4 s3 r, q2 I; w: J% S. P- f1 K7 C
Text #3
, I2 {; a( T" Q, k8 q- YID : 7
7 b4 g9 B8 I- C9 n" o) c  yFormat : PGS
9 R# i% E& \! PMuxing mode : zlib0 j- A8 X8 d% h& Z
Codec ID : S_HDMV/PGS& y2 f* p& `+ q; Y4 }& X
Codec ID/Info : Picture based subtitle format used on BDs/HD-DVDs
7 A6 ~" N# ]( T) U% m, h: eDuration : 1 h 45 min9 c0 T% E, }: O+ g1 x: o7 C
Bit rate : 26.7 kb/s
( B" A! k$ o7 DCount of elements : 2315% r: Z9 c* n. y" b, `3 Z! G
Stream size : 20.2 MiB (0%)5 ^8 [* ^8 w8 m; h
Title : French-PGS
7 y2 Q; |' P7 R% x; rLanguage : French' R) x- M: {% b2 o1 G# q; y6 w: S
Default : No7 Q% z) }) M% P9 m* t
Forced : No# v2 x! J: C* S- M3 e

  x8 j4 `8 e* z8 F  a( sText #49 o3 q8 A& L4 T2 Y( I! ~) Z% s
ID : 8
1 V% K1 w& b5 e! s' bFormat : PGS
$ N( r3 P& _! L4 m( dMuxing mode : zlib0 v# G& L2 g0 m
Codec ID : S_HDMV/PGS
8 |6 V' p9 t! gCodec ID/Info : Picture based subtitle format used on BDs/HD-DVDs
) ?3 C) ^: h# b1 }) N( aDuration : 1 h 45 min+ @  J( \: l7 ?) z; o3 z1 |6 s
Bit rate : 22.6 kb/s
8 H8 S5 R0 t0 E' l* NCount of elements : 2208
- w. s! e3 X4 Z/ e9 A: @& n9 PStream size : 17.1 MiB (0%)
6 \: \, G+ ?; Y# Q  w* w& \Title : Japanese-PGS9 \9 \9 \0 \% e3 v  L
Language : Japanese
: Q) l  Z) E+ }- T  Z+ i& PDefault : No; f1 @! j! L7 V! C: I9 o- G* I6 ~
Forced : No5 t8 `) z) j. I8 q
# ~( W0 A/ I, W3 e
Text #5' o- M" w' S4 X) D$ z
ID : 9
) ~: E! a/ Q- S- B' ?" vFormat : PGS9 \% I4 {0 E* x/ S3 n4 W
Muxing mode : zlib
: N* c  d* e0 C6 z- l' pCodec ID : S_HDMV/PGS+ P+ n# x. ^( Y- J/ f
Codec ID/Info : Picture based subtitle format used on BDs/HD-DVDs
2 z) m! ?% K4 ?Duration : 1 h 45 min
6 w; }3 v. B5 Z# S* ^; G9 \3 NBit rate : 28.5 kb/s  D/ d) v" m3 a  Y
Count of elements : 2322/ E8 R* A6 s: A: u
Stream size : 21.6 MiB (0%)& P$ ~! l* r4 x  C6 [8 `: _/ m
Title : Spanish-PGS) b/ R5 e9 Z! z/ ~+ F0 _$ x' \$ P
Language : Spanish
/ |! X/ H% l# VDefault : No4 Z  T' b: }5 v! E6 _# @
Forced : No; \+ |/ K6 t8 D
6 E3 M. U# m: }6 y0 K
Menu
% Y( T8 k, ?9 u, s00:00:00.000 : Chapter 1
* p* k) }: f& L8 Y; W00:08:08.697 : Chapter 25 H' i* I. _5 R$ Q3 ^" m: {
00:11:00.159 : Chapter 3
6 ?6 r, u0 k4 |5 r7 I0 v00:15:16.415 : Chapter 4& E. \/ ]" Q2 M6 O, I$ r- A
00:20:15.339 : Chapter 54 M$ k$ x  \" C5 z+ J% ]" `; u( v. u
00:28:28.749 : Chapter 62 o: D  H; h! Z4 t" g# e
00:35:56.905 : Chapter 73 l8 h  j3 i* P9 E+ U+ x
00:37:43.261 : Chapter 8! g" s* h- c8 u
00:41:12.595 : Chapter 9
9 [* y( f3 ~$ p7 k! O+ O00:43:19.388 : Chapter 10. G6 v+ D% Y* v# @
00:48:56.392 : Chapter 11
- \' Z. c0 K  W3 t; _3 b00:51:31.505 : Chapter 12
( ]* B- o6 S! Y0 n" Y00:53:13.732 : Chapter 13: ]6 l) g% [2 |, s1 A; o
00:55:21.068 : Chapter 146 ~. Y6 I6 W% S; b
00:59:08.044 : Chapter 15
5 x" }  D5 u. D2 F01:01:57.380 : Chapter 16
, Y* O3 e% C/ q( B: j01:04:34.579 : Chapter 17- B) A* o* @; x+ m4 O4 M, @
01:06:47.295 : Chapter 18
$ m4 L1 e! Q! V" w01:11:21.819 : Chapter 19
$ R7 Z( B( A1 `( u5 ^' W- U8 R7 c01:15:51.213 : Chapter 20% b4 i! t* n0 R5 u. X4 U9 g. Q: O
01:18:41.008 : Chapter 21( Q  |5 V) c/ Z' [0 n6 `
01:28:26.217 : Chapter 221 |. n4 ~/ s' M0 C' L
01:35:08.286 : Chapter 23
SWEATY BALLZ presents
" z1 V9 h1 T* h! P$ {$ M- H8 T+ ~' p2 e( G2 A
Raya.and.the.Last.Dragon.2021.2160p.BluRaycd.x264.8bit.SDR.DTS-HD.MA.TrueHD.7.1.Atmos-SWTYBLZ( m! o6 H2 j, e$ e0 c( H
Converted from 10 bit HDR to 8 bit SDR using tripple mixed Hable-Reinhard-JJ per scene+frame analysis algorithm3 l4 j& G5 N* ?8 ?8 P5 p% `. Y
) _- _5 H* E, \1 b: X+ F3 p  u
Video
- q7 ^9 i( q2 Y8 xID : 1: R( [" u( B9 S% O9 }9 P
Format : AVC; G, p' D' ?- Y' [# C$ ^& S* @
Format/Info : Advanced Video Codec! G* d, W8 y" q2 k* w
Format profile : High@L5.1
" a7 f2 k7 g8 E9 gFormat settings : CABAC / 7 Ref Frames
7 G8 S' k5 i1 x, z. }Format settings, CABAC : Yes" V& n) h. h$ G/ q/ ?$ l" s- Z
Format settings, Reference frames : 7 frames
6 S3 t" b+ L! N2 B8 ICodec ID : V_MPEG4/ISO/AVC  _( j# D2 ^) P7 s; z
Duration : 1 h 47 min( @$ m  D$ q7 O3 ^
Bit rate : 25.6 Mb/s+ s7 N! P+ U# j3 G4 n: m
Width : 3 840 pixels
. S- R' `: c8 v% I( z  O; uHeight : 1 608 pixels
2 h% u  p  F* g" M0 ^Display aspect ratio : 2.40:11 h8 X* R: p5 \+ s) }+ O
Frame rate mode : Constant  e, [* h* ~- Z, ^
Frame rate : 23.976 (24000/1001/189150) FPS
/ v8 E, N% h6 b$ l) ~& W! t; WColor space : YUV
/ a7 [9 |3 q. A# d4 b% pChroma subsampling : 4:2:0
/ _  w6 {, D1 L: VBit depth : 8 bits
) T4 n# n" ?8 `$ t% {7 d0 }% fScan type : Progressive5 A5 [4 c' x% t
Bits/(Pixel*Frame) : 0.173
2 g4 H+ r' A1 a4 {& CStream size : 19.2 GiB (64%)
) o) a( b0 T$ r* _Title : Raya.and.the.Last.Dragon.2021.2160p.BluRaycd.x264.8bit.SDR.DTS-HD.MA.TrueHD.7.1.Atmos-SWTYBLZ( ?) M( P7 V( ~7 ]& L5 o
Writing library : x264 core 157 r2935 545de2f6 D* v" K& C# g7 `+ a* {1 \2 l
Encoding settings : cabac=1 / ref=7 / deblock=1:1:1 / analyse=0x3:0x113 / me=umh / subme=10 / psy=1 / psy_rd=0.40:0.00 / mixed_ref=1 / me_range=48 / chroma_me=1 / trellis=2 / 8x8dct=1 / cqm=0 / deadzone=21,11 / fast_pskip=1 / chroma_qp_offset=-2 / threads=48 / lookahead_threads=5 / sliced_threads=0 / nr=0 / decimate=0 / interlaced=0 / bluray_compat=0 / constrained_intra=0 / bframes=5 / b_pyramid=2 / b_adapt=2 / b_bias=0 / direct=3 / weightb=1 / open_gop=0 / weightp=2 / keyint=250 / keyint_min=23 / scenecut=40 / intra_refresh=0 / rc_lookahead=50 / rc=crf / mbtree=1 / crf=16.0 / qcomp=0.60 / qpmin=0 / qpmax=69 / qpstep=4 / ip_ratio=1.40 / aq=1:0.60
# i& J4 J) z- [7 Z4 [Default : Yes
+ @& v2 q3 O. a1 r# _! F  qForced : No3 D( `* k& S+ z$ R+ \8 e0 ^6 V
+ G, i! G, G7 r- C
Audio #12 d* H# R, r' D1 \: `3 G( u
ID : 2
- U. h2 g+ N7 O3 y- h/ F8 ?Format : MLP FBA 16-ch. z" [& H# y% D
Format/Info : Meridian Lossless Packing FBA with 16-channel presentation
/ l3 |+ X! _$ p5 I7 y3 p1 OCommercial name : Dolby TrueHD with Dolby Atmos
4 E# M4 ]$ ]: p9 s' g$ L' XCodec ID : A_TRUEHD
4 s; B3 Y0 D/ r4 H0 x+ ^Duration : 1 h 47 min; Z! D1 c  ~4 t  t4 k
Bit rate mode : Variable7 G% g) H4 A+ m9 O
Bit rate : 8 470 kb/s: G; D8 F4 `( N3 e! W2 Z/ D
Maximum bit rate : 11.2 Mb/s, p4 E. |5 A1 R. d5 O% I
Channel(s) : 8 channels
0 K7 G, o+ J) C% p6 _Channel layout : L R C LFE Ls Rs Lb Rb
! Y' ^% h& Y& ^- |. \Sampling rate : 48.0 kHz
' r, R) W0 X* z. ~/ _Frame rate : 1 200.000 FPS (40 SPF)
1 c  G1 ^9 |6 U2 m3 A( fCompression mode : Lossless9 Y6 D7 u) g; Q, J2 y
Stream size : 6.36 GiB (21%)
- C, c& |  h6 g* k' yTitle : Raya.and.the.Last.Dragon.2021.2160p.BluRaycd.x264.8bit.SDR.DTS-HD.MA.TrueHD.7.1.Atmos-SWTYBLZ
6 _1 z( O7 y2 j  q% oLanguage : English% T1 y9 p1 c: N( \* j' Y& _
Default : Yes
. D, j  Y7 J* @. I2 {# P% n, j: tForced : No$ i) W0 v% m/ E. w, Q
Number of dynamic objects : 13
: k; u$ }  m+ l" ^$ PBed channel count : 1 channel
/ b9 M$ y1 w5 XBed channel configuration : LFE
; W% \1 j" R; @" C5 k( u$ c. f* ^! k, g# E" [
Audio #2
0 g8 q/ |4 m: n: L( F; P. kID : 3
- t$ T" K3 U3 H6 Q- L0 Y- OFormat : DTS XLL
/ m. v' P' `0 s1 AFormat/Info : Digital Theater Systems
9 F2 h% S4 A% ]3 C' W% eCommercial name : DTS-HD Master Audio
% g6 [& S% k9 \6 T% fCodec ID : A_DTS
5 H! ~  W& x+ \, t6 d9 N& e5 `4 I; bDuration : 1 h 47 min2 Q& x3 X' K3 T5 s
Bit rate mode : Variable
) K  I+ l" V: T3 mBit rate : 5 285 kb/s
. i: g2 u8 J* t. G$ n4 ?Channel(s) : 8 channels+ S# [. \( a. r' P  l; `( E
Channel layout : C L R LFE Lb Rb Lss Rss3 x1 U' W" |3 o, D" s" n9 Y5 Z
Sampling rate : 48.0 kHz
/ _" `6 {# Z* `3 j* OFrame rate : 93.750 FPS (512 SPF)
+ J8 A9 e9 B- Q3 i$ I* {Bit depth : 24 bits
3 u; R" C0 [* O7 z& T' w. v. PCompression mode : Lossless
" g+ S# y9 t' `* ?: n- AStream size : 3.97 GiB (13%)
4 k7 R9 H* t, A' c# \$ H* x/ h% KTitle : Raya.and.the.Last.Dragon.2021.2160p.BluRaycd.x264.8bit.SDR.DTS-HD.MA.TrueHD.7.1.Atmos-SWTYBLZ
" w% j4 O; U$ `/ S) KLanguage : English
  [! x0 x  [, ~4 X- _+ D4 ]1 U4 u) @Default : No
: b6 _" S  m: K' h' I7 L9 ~; RForced : No
8 |& t4 N. m0 W# f% q2 Z$ d3 g# T  w
Audio #3, o& }( A/ V. F& s
ID : 40 q( o6 S& Y1 n- E! q0 Y4 ?' d* D
Format : AC-3
( u- _7 S& u; }( p! j9 ]Format/Info : Audio Coding 3
/ D+ A5 ~9 F0 T  K+ H/ k' {Commercial name : Dolby Digital$ e, ]0 \$ \+ }0 W& b4 K
Codec ID : A_AC3! d  j% y6 L4 ~9 H5 }
Duration : 1 h 47 min
! M0 p! ^! z  D2 _: fBit rate mode : Constant% x: e* ^* S) l. k
Bit rate : 640 kb/s
" l  N( ]( `" w- ?- M. H6 IChannel(s) : 6 channels& C3 ~# Y3 r4 p9 x1 @+ {3 u- W
Channel layout : L R C LFE Ls Rs
9 j" t- O+ o% Z7 \9 o3 r+ sSampling rate : 48.0 kHz7 a4 @. ~" J1 T8 o
Frame rate : 31.250 FPS (1536 SPF)
. `% O6 |+ u6 @( ]) z8 e3 uCompression mode : Lossy
% G$ y' s! p  ^4 C' K1 _, vStream size : 492 MiB (2%)1 N$ R. F: X6 ]; K3 [
Title : Raya.and.the.Last.Dragon.2021.2160p.BluRaycd.x264.8bit.SDR.DTS-HD.MA.TrueHD.7.1.Atmos-SWTYBLZ0 t/ ~, l9 h  j) m  f* P# d
Language : English9 F- N% N, U0 S9 Y2 W
Service kind : Complete Main
1 v( {, l) {( O8 H! B1 GDefault : No
- D0 q4 ]& s  O  y9 |9 u( r8 k7 PForced : No
% e8 ~0 G/ A$ X" z: e  {6 q
2 M# }1 o% X$ S' ^) r* bText #1
7 @/ j" H  z9 }- i6 {$ Q# }2 H  yID : 5
( S4 N3 _$ E; b, C9 N* u8 n" [Format : UTF-86 a; |( o+ ?9 o( k
Codec ID : S_TEXT/UTF8
7 T' X8 R) k5 h0 G% QCodec ID/Info : UTF-8 Plain Text2 X- X4 ]  U. ^7 B
Duration : 1 h 37 min
' F5 Q' t; K# @5 B6 P; G# z' b* E& T6 oBit rate : 51 b/s# O2 t) D9 L# V( Z
Count of elements : 13604 H8 C1 j# Z' w8 E3 M0 i( ?
Stream size : 37.1 KiB (0%)
( ]* z  Q3 d1 p/ TTitle : English-SRT( K8 h  D, X; V! R& m  e% |
Language : English: x' x5 n& P; X( Z# ~2 J5 S
Default : Yes# a- t0 Y. Z" }9 T+ I
Forced : No
( {- H9 E( s% J; \! ?
+ z; I/ J* A- j- s/ o; ^' hText #28 z; A5 I8 ?3 P: i: J9 h
ID : 6
) Y, A  G5 Z5 R7 _" B0 T. KFormat : PGS
; M. k' e- k; f; p0 Y( q/ XMuxing mode : zlib  F# ^; W) w) j: U
Codec ID : S_HDMV/PGS
$ O3 K# x) A: D; I+ ZCodec ID/Info : Picture based subtitle format used on BDs/HD-DVDs
5 m  b/ [  u" F( R0 t  v3 r" n9 sDuration : 1 h 46 min
2 |) m+ {8 I' s8 `Bit rate : 44.3 kb/s
& P. Z; R' R  a" E2 XCount of elements : 3839, ?  A1 y. Q% u
Stream size : 33.7 MiB (0%)
8 x/ S# p* V/ a) DTitle : English-PGS9 ^, \: z( i* D1 t& u# w6 q
Language : English2 \/ G: F9 Q- w3 P& ]% s- p
Default : No9 o8 k( R3 ~  n5 t( l% O
Forced : No' C+ S$ K0 a$ A, G: l4 A( }  W# @' e

" Z7 \" l, r" ~# `) UText #31 Y8 l5 P0 [5 a- |$ H# B
ID : 7
. t6 S( G. u, M$ eFormat : PGS) ]* V* d# o+ ]% }2 _* _3 g. L- b) V
Muxing mode : zlib/ d. I3 t. H1 G( n/ F& M
Codec ID : S_HDMV/PGS' m$ {' @/ H. G" ]
Codec ID/Info : Picture based subtitle format used on BDs/HD-DVDs
7 I! r# N) T& p; G9 |( I# j# eDuration : 1 h 45 min
" I! ]5 v; {, P) B1 A' F% QBit rate : 26.7 kb/s  B4 m6 s& W8 a4 N; E7 o
Count of elements : 23155 x3 i7 i' L# `
Stream size : 20.2 MiB (0%)
. q, c+ W( M" C2 @1 p" {Title : French-PGS, H$ n9 z0 `, h) _3 p5 Q4 x
Language : French: E0 |2 `: @5 ?! R* n5 p  D
Default : No6 N& Q4 B2 v# Q8 U$ x/ [/ V% }. H
Forced : No
+ `0 v8 \( Z- @5 u2 V1 |0 r6 Q6 E, A8 G6 p, r  D: _& P* ]) D
Text #48 x7 K/ S; V) ~6 A' @% }1 U
ID : 8
7 a, f+ K  U. t) Q. H; o4 |( ?  _Format : PGS
( r" o) {' G9 R  q- J4 J8 e( [Muxing mode : zlib
! ]; A  j2 [5 e" wCodec ID : S_HDMV/PGS
" q' Z6 U6 f) M" ]) kCodec ID/Info : Picture based subtitle format used on BDs/HD-DVDs" ~. S% g1 Z4 p
Duration : 1 h 45 min% Z2 T1 W3 g+ D( J0 L8 v5 H' e2 L
Bit rate : 22.6 kb/s% U6 \1 y  N0 Q& D* }
Count of elements : 2208
2 u- @3 N+ |4 F# B6 w& D/ L7 IStream size : 17.1 MiB (0%)
1 J8 d$ m% E7 O/ ?- ^7 m3 O9 X$ gTitle : Japanese-PGS
1 \; j9 |6 d1 F  `- FLanguage : Japanese  s" n/ K7 f2 X& u% t$ U
Default : No
; b. O7 C0 S! d2 N2 M9 zForced : No# l* j% o# U, V) C  A% C
1 j: t9 L( S. o# U, @- F; X
Text #5
) m. b) u( J7 X0 W& W* @" F! |( G' bID : 9$ k- g* k2 D+ G+ m4 y0 Q
Format : PGS
0 i5 Y. ]' F4 S. M) vMuxing mode : zlib
: {( R7 I- s3 S. [" nCodec ID : S_HDMV/PGS# N! g5 j# [9 S# ?
Codec ID/Info : Picture based subtitle format used on BDs/HD-DVDs- R  Z) \3 H  _. w; U( G0 I  H, N' c- v
Duration : 1 h 45 min" l+ @! n8 e1 M" G" p+ I
Bit rate : 28.5 kb/s0 p, t- k) q+ B2 K
Count of elements : 2322
% Z9 ?4 B2 u4 v1 J: J; F4 V7 EStream size : 21.6 MiB (0%)) K, ^7 U8 X0 o8 m' I3 }
Title : Spanish-PGS
. @4 i0 j% v" v3 eLanguage : Spanish
1 b, b( O0 w2 C* Y. t; d/ _Default : No
' N/ K# ?2 Z; B3 tForced : No
+ l6 Q6 n: N% k( J1 q3 O) b  j# o9 D- }( ~  K9 L9 E& N
Menu
5 X9 k6 ~. j( M& ]2 L; Y2 h( v4 w00:00:00.000 : Chapter 1
9 F# T  d. A; {, Z00:08:08.697 : Chapter 2% U% r% Q2 {% o/ x+ v/ `- q
00:11:00.159 : Chapter 3$ l( h. [! j0 D1 V' N
00:15:16.415 : Chapter 45 Q9 t* o* ?6 f
00:20:15.339 : Chapter 5
2 c  R3 C6 a$ y( A# q00:28:28.749 : Chapter 62 T  I/ x- |1 g3 N) M% b3 L
00:35:56.905 : Chapter 7  b5 |; E) \8 F1 t
00:37:43.261 : Chapter 84 E/ _, I! {7 Z5 O  R7 s% ?
00:41:12.595 : Chapter 9% s6 Q! e# W( a. J7 m
00:43:19.388 : Chapter 10' L$ I! A# e6 U6 v& O8 ]
00:48:56.392 : Chapter 11
/ m3 A5 ^: a# u% H. K/ N3 k! @00:51:31.505 : Chapter 12
) m% {+ T2 t8 t7 X' Q) d0 `* J3 k) c00:53:13.732 : Chapter 130 b" i4 y2 f$ n3 J* \6 n7 R6 M+ L
00:55:21.068 : Chapter 14
3 e9 m. |7 O: c00:59:08.044 : Chapter 155 j" s. Z5 A2 ?2 B
01:01:57.380 : Chapter 16
9 M, `- \0 k" b1 W01:04:34.579 : Chapter 17+ b8 P* c) P' q5 T5 T% b: f
01:06:47.295 : Chapter 18
- }1 B; ^9 a" X* f  ]+ n- q4 ?( H+ X& R01:11:21.819 : Chapter 19
( `; J; T0 }0 n) B01:15:51.213 : Chapter 20
* s6 W: M4 i& X8 b9 Q01:18:41.008 : Chapter 21
4 C9 b. O' n# i* R% H* M01:28:26.217 : Chapter 226 h- F' d! q( r9 p6 D; z; o- `( G
01:35:08.286 : Chapter 23

7 g" ~  L0 A) U0 e+ O+ x
游客,查看本帖隐藏内容请回复 | 加入VIP贵宾可免积分免回复 了解详情 | 还不是会员:点击获取邀请码 Invitation Code

0

主题

131

帖子

1436

积分

Sponsor

金币
66 枚
体力
1109 点
mycjk 发表于 2021-5-23 16:26:32 | 显示全部楼层
啥也不说了,楼主就是给力!
) g0 W; R! O0 J3 }6 cThank you for sharing such a good resource polite reply, very sorry for myself!
" T  \8 r6 ~) q& t5 E

0

主题

87

帖子

498

积分

Sponsor

金币
2 枚
体力
315 点
paopichao 发表于 2021-5-23 20:58:52 | 显示全部楼层

/ f; d+ P" @. }$ E+ o啥也不说了,楼主就是给力!

本版积分规则

小黑屋|Archiver|蓝光电影资源网

GMT+8, 2021-8-3 15:18

快速回复 返回顶部 返回列表