BluRayCD Forum

 找回密码
 立即注册【分享大片】
查看: 8|回复: 0
收起左侧

[剧情悬疑] 星尘/大卫宝儿:无尽星麈/摇滚变色龙:大卫鲍伊 Stardust 2020 1080p BluRaycd x264 DTS-HD MA 5.1-FGT 11.35GB & 13.41GB

[复制链接]

5884

主题

6263

帖子

6万

积分

Post Share

金币
14283 枚
体力
11232 点

卓越贡献勋章

mvods 发表于 2021-6-11 14:31:41 | 显示全部楼层 |阅读模式
8 h1 H2 G1 K! V
4 N3 Q) R. Z% @* ~
◎译  名 星尘/大卫宝儿:无尽星麈(港)/摇滚变色龙:大卫鲍伊(台)  \0 F+ n& e4 S' d8 W: [
◎片  名 Stardust
5 j, |5 d7 P* _1 }, J* ^+ g◎年  代 2020
+ g0 _( d8 }/ X◎产  地 英国
5 T  i/ a, s# g. A1 ^  Y) v' P◎类  别 剧情/传记/音乐& Q0 H2 e' N" H+ {, n
◎语  言 英语' A  D7 H+ k0 q; F; {" x. L# m  H$ Z
◎上映日期 2021-01-15(英国)/2020-04-15(翠贝卡电影节)/2020-11-25(美国); s- {6 U- n+ E( Q( G
◎IMDb评分  4.1/10 from 1,088 users' T. ~. p$ r9 }; y$ H; [# `4 f) J
◎IMDb链接  https://www.imdb.com/title/tt9694312/
6 l" M! r1 a/ Y/ W1 |7 o( E◎豆瓣评分 3.8/10 from 153 users' W( U* \# Y8 d& I) r2 ~
◎豆瓣链接 https://movie.douban.com/subject/30450250/( [/ M$ d  i2 T: Y0 c. A# y: A
◎片  长 1 h 48 min+ k9 Z5 e, r1 R! r7 }/ n
◎导  演 加布里埃尔·兰格 Gabriel Range
2 Q6 S# g6 Z& g* m◎编  剧 加布里埃尔·兰格 Gabriel Range3 m4 M% ]: D8 w) Z: e1 Z
◎主  演 强尼·弗林 Johnny Flynn
: T0 i3 K8 W* D- ^/ Q9 x6 N       吉娜·马隆 Jena Malone
3 X! k5 J: a2 D. q4 d       马克·马龙 Marc Maron
2 G) i! u% I) V       亚伦·普尔 Aaron Poole
9 ?( G) f  T4 h8 ]0 J7 a( r       保利诺·努内斯 Paulino Nunes
0 a: t9 L  Q! n4 Y) y, V1 r       安东尼·弗拉纳根 Anthony Flanagan
* h9 v5 l) f$ N1 C: B% Z3 \       吉米·斯达 Jimmy Star
  m4 T, k7 I5 ~. r       瑞恩·布雷克利 Ryan Blakely
! e6 K7 S4 W8 ?5 z/ P6 }       杰瑞米·勒加特 Jeremy Legat- Y" g3 G" \+ k$ Y

! I1 [5 ~3 ~! C' H2 X5 ^2 p◎标  签 传记 | 大卫鲍伊 | DavidBowie | 音乐 | 英国 | 2020 | Bowie | 剧情
+ [3 A  w7 i) n! [
! v- q9 B5 J0 T3 P' k% r+ M* \◎简  介   + M! r5 Q2 G* V9 D* F: b: C7 Z5 e

' W( M2 D3 D( V4 `. A3 N  大卫·鲍伊的传记片真的来了。一部名为《星尘》(Stardust)的影片已在运作中,聚焦1971年,年轻的鲍伊第一次去往美国,激励了他创作出举世闻名的专辑和音乐形象“Ziggy Stardust”。定由歌手兼演员约翰尼·弗林(《野兽》)饰演鲍伊。
% t+ `! J$ Z7 I' L# N- J* v
- `- I" P5 @) v! B  还有吉娜·马隆(《饥饿游戏》)饰演鲍伊的第一任妻子Angie,马克·马隆(《美女摔角联盟》)饰演他的唱片公司宣传。导演则宣布为Gabriel Range(《我是奴隶》),今年6月开拍。
2 H/ \+ }8 ^! }9 Z3 O2 \! V6 j- u1 S  W
  Stardust will chronicle the young David Bowie's first visit to the US in 1971 - a trip that inspired the invention of his iconic alter ego Ziggy Stardust./ p' L1 H8 R/ Z6 i% U6 C) v. X
Video) D* Q3 `; A) K$ \# t, o( _# @
ID                                       : 1; ^& a: L7 }" c2 W/ Z  D& o$ i3 Y  p
Format                                   : AVC3 Y: z( [4 E5 Q5 s$ Z
Format/Info                              : Advanced Video Codec
3 X9 }/ `0 K1 kFormat profile                           : [email protected]0 G( I4 V% g9 H
Format settings                          : CABAC / 4 Ref Frames2 h7 c% X- s- E- c
Format settings, CABAC                   : Yes
# l  g; E9 Y: h; W  RFormat settings, Reference frames        : 4 frames
; X- E) q8 X5 ?) O& OCodec ID                                 : V_MPEG4/ISO/AVC
# f% C  J, I  r  GDuration                                 : 1 h 48 min( i4 v5 F; i7 y% I, m( |3 N5 \
Bit rate                                 : 11.5 Mb/s& v" y( {# W. E: }4 h. _
Width                                    : 1 920 pixels
" J7 t0 N! E  m8 P0 zHeight                                   : 1 040 pixels. N2 X2 k# j6 }$ k! p. D' c
Display aspect ratio                     : 1.85:1. X- N) s3 I9 b' ^
Frame rate mode                          : Constant
0 s+ Z# J) s- d3 @$ U  D5 V: tFrame rate                               : 24.000 FPS- b& P5 w/ s7 I& q+ x2 ^
Color space                              : YUV
0 k+ D7 R' W- {' xChroma subsampling                       : 4:2:0+ h1 C' I3 x- {' |+ g% B5 a
Bit depth                                : 8 bits2 p' H+ I  J6 B; `8 H, Y8 F
Scan type                                : Progressive
6 K/ K, Q  G6 L, \* sBits/(Pixel*Frame)                       : 0.240
% x$ f& F( R1 sStream size                              : 8.74 GiB (77%)
9 h9 `2 \7 {" g& s' BTitle                                    : Stardust.2020.1080p.BluRayCD.x264.DTS-HD.MA.5.1-FGT; H( |- _9 \: g- D( I: [; w
Writing library                          : x264 core 148 r2748 97eaef2- _+ |" I* ^- s+ l3 E- s9 r
Encoding settings                        : cabac=1 / ref=4 / deblock=1:-2:-2 / analyse=0x3:0x113 / me=umh / subme=9 / psy=1 / psy_rd=1.00:0.15 / mixed_ref=1 / me_range=16 / chroma_me=1 / trellis=2 / 8x8dct=1 / cqm=0 / deadzone=21,11 / fast_pskip=1 / chroma_qp_offset=-3 / threads=72 / lookahead_threads=3 / sliced_threads=0 / nr=0 / decimate=1 / interlaced=0 / bluray_compat=0 / constrained_intra=0 / bframes=3 / b_pyramid=2 / b_adapt=1 / b_bias=0 / direct=3 / weightb=1 / open_gop=0 / weightp=2 / keyint=250 / keyint_min=25 / scenecut=40 / intra_refresh=0 / rc_lookahead=50 / rc=2pass / mbtree=1 / bitrate=11500 / ratetol=1.0 / qcomp=0.60 / qpmin=0 / qpmax=69 / qpstep=4 / cplxblur=20.0 / qblur=0.5 / vbv_maxrate=31250 / vbv_bufsize=31250 / nal_hrd=none / filler=0 / ip_ratio=1.40 / aq=1:1.00; o9 L7 d! d% ~3 T
Language                                 : English3 Z1 ]: v+ T: Y& k
Default                                  : Yes
, L' K7 ]3 U! O& D9 ]) ^( JForced                                   : No; R; |  _) o7 O8 W5 G- i

) _# A# R& O2 J# }  a$ H9 Y+ E5 \Audio# {  E, U2 W2 w) _8 M4 w4 P7 f: U  |
ID                                       : 2
6 I( m* `5 Z. _% J* w8 FID in the original source medium         : 4352 (0x1100)9 Y, ^; ]( U5 d. F; i
Format                                   : DTS XLL
8 }/ T4 Z9 R+ p5 P1 `Format/Info                              : Digital Theater Systems- {3 M) g  w6 [6 k  E
Commercial name                          : DTS-HD Master Audio0 c4 Z6 f* K- m# O  P1 n- G
Codec ID                                 : A_DTS
1 A; C& M; f) W( pDuration                                 : 1 h 48 min0 b( k' B# \2 ^  [$ U& J2 q
Bit rate mode                            : Variable
3 m+ M& h( c3 r; O9 mBit rate                                 : 3 426 kb/s% b+ E" S/ D; @
Channel(s)                               : 6 channels
! K1 j2 S8 h; R2 IChannel layout                           : C L R Ls Rs LFE. n1 P) R4 x4 W* R0 Y0 n- o
Sampling rate                            : 48.0 kHz
6 O4 V* i- q- A; T# A9 FFrame rate                               : 93.750 FPS (512 SPF)$ p! C6 ~) p( F8 I
Bit depth                                : 24 bits
: [8 C6 N5 Y' a; g5 }( Y# aCompression mode                         : Lossless
7 H6 i- ~+ x! H/ R: S9 q$ oStream size                              : 2.60 GiB (23%)
* H7 r% D& ^7 jTitle                                    : Stardust.2020.1080p.BluRaycd.x264.DTS-HD.MA.5.1-FGT
  W; `# M4 {% v. C- vLanguage                                 : English
& p  a" S$ E7 K) w+ _) mDefault                                  : Yes1 D4 @! H3 b" [1 \  ^1 c
Forced                                   : No- r" `' T; T* y% J# U
Original source medium                   : Blu-ray
0 f" J! \2 L, v" d
7 c+ \; }2 D) u/ @) v% y( cText
8 [; M$ P, o' c- \ID                                       : 3) M# k4 g+ s# j
Format                                   : UTF-8' _% W! @' Q4 B! [8 w* B
Codec ID                                 : S_TEXT/UTF8
# R5 ^  l! a* Q: _1 j# ECodec ID/Info                            : UTF-8 Plain Text
* H5 I! x5 D0 u( E# R7 P+ D; YDuration                                 : 1 h 44 min
7 o7 k* Z7 S- v% L& k( i! P& PBit rate                                 : 63 b/s
* w+ x" ?' J3 h7 C/ P+ |; H2 yCount of elements                        : 17094 X6 Y4 Q6 M: L* Z
Stream size                              : 48.7 KiB (0%)+ @9 r' M5 v& S/ x( B' Z: D) u
Language                                 : English
6 }* c# {# Z) {+ d8 IDefault                                  : Yes
" @8 p: Q  S8 l8 |Forced                                   : No0 o! j) B4 e! s( Y9 R# I" w' E
6 T( u* B+ c  {7 `9 t6 D
Menu
. O" f4 x0 X& d/ R8 U' m# ?& ?00:00:00.000                             : Chapter 01" }$ I# t8 t3 g7 D/ A2 G, |
00:09:00.291                             : Chapter 02" r8 c% v- W" @% P& \
00:16:11.125                             : Chapter 03
' S. K8 O; m) _00:25:08.041                             : Chapter 04
" v" V* B' n+ c* g* L00:33:09.625                             : Chapter 05
6 a8 l& K  l  i& h" Q00:41:51.333                             : Chapter 06% D- o4 U' p5 V
00:52:18.333                             : Chapter 07
% h0 _- U' R  {% a3 [6 r3 v00:59:27.708                             : Chapter 08
% h+ I1 ^( @6 q8 V4 n9 ^01:08:08.625                             : Chapter 09
4 O/ @" `3 y" ^# w01:17:33.708                             : Chapter 10; E: v) z/ K# x/ B: P
01:23:44.625                             : Chapter 11
2 e; A0 Z, V& a2 R01:33:17.375                             : Chapter 12* F/ S: g6 H) ]  q9 I3 F6 I* {
01:41:54.458                             : Chapter 13
1 y0 o  h- x" s! R9 T01:45:32.958                             : Chapter 14
Video
  B3 u( ~! i  B& u  S, V1 e/ WID                                       : 1
% ~7 E1 a& S/ K$ `' HFormat                                   : AVC
3 i: ]( X, k2 xFormat/Info                              : Advanced Video Codec5 W, q  a+ ^; y) b
Format profile                           : [email protected]$ X2 X# b4 N$ W3 ~2 K! A5 \
Format settings                          : CABAC / 4 Ref Frames+ I% H- m& ?  u- H" m8 {
Format settings, CABAC                   : Yes
: v: H2 G/ t2 J4 R8 n: A: ^- ^7 mFormat settings, Reference frames        : 4 frames* b, N6 R5 Q$ S' t0 {
Codec ID                                 : V_MPEG4/ISO/AVC0 t$ y, s. _: ^
Duration                                 : 1 h 48 min( _/ V2 m$ b1 |' [' b: S/ c
Bit rate                                 : 11.5 Mb/s" C& E; d/ e! T+ F- v- C' N
Width                                    : 1 920 pixels/ j& S$ R! Q: J: G: P8 l- w) |
Height                                   : 1 040 pixels
0 n  R  u* j% _; W  ^( `Display aspect ratio                     : 1.85:1. }! t. `. t" ~2 a, n( Z
Frame rate mode                          : Constant9 g: p: t0 d4 j8 w1 h( b8 n
Frame rate                               : 24.000 FPS3 R9 {3 |3 V8 X: f
Color space                              : YUV& |1 X; P9 r% l! A7 y8 m
Chroma subsampling                       : 4:2:0
8 k. R& r2 A) j) e# yBit depth                                : 8 bits# W- T9 P2 q3 d' M
Scan type                                : Progressive! A. p0 I* ?0 r$ r0 Q; d
Bits/(Pixel*Frame)                       : 0.240, |  P; a9 i, D, ^0 m
Stream size                              : 8.74 GiB (88%). K6 ]! g- t: G4 L; U* T
Title                                    : Stardust.2020.1080p.BluRaycd.x264.DTS-FGT1 S6 H) m  S- d# z
Writing library                          : x264 core 148 r2748 97eaef2
  E% K% j$ I5 N6 m; g8 I" @Encoding settings                        : cabac=1 / ref=4 / deblock=1:-2:-2 / analyse=0x3:0x113 / me=umh / subme=9 / psy=1 / psy_rd=1.00:0.15 / mixed_ref=1 / me_range=16 / chroma_me=1 / trellis=2 / 8x8dct=1 / cqm=0 / deadzone=21,11 / fast_pskip=1 / chroma_qp_offset=-3 / threads=72 / lookahead_threads=3 / sliced_threads=0 / nr=0 / decimate=1 / interlaced=0 / bluray_compat=0 / constrained_intra=0 / bframes=3 / b_pyramid=2 / b_adapt=1 / b_bias=0 / direct=3 / weightb=1 / open_gop=0 / weightp=2 / keyint=250 / keyint_min=25 / scenecut=40 / intra_refresh=0 / rc_lookahead=50 / rc=2pass / mbtree=1 / bitrate=11500 / ratetol=1.0 / qcomp=0.60 / qpmin=0 / qpmax=69 / qpstep=4 / cplxblur=20.0 / qblur=0.5 / vbv_maxrate=31250 / vbv_bufsize=31250 / nal_hrd=none / filler=0 / ip_ratio=1.40 / aq=1:1.007 E- m  D5 k; Q* c& C  H0 _, f
Language                                 : English
- m! [, D, H: Q2 I: HDefault                                  : Yes
: K. f6 B) M% ]  r/ g* `2 T9 mForced                                   : No: Q3 u- r6 c! i

# a* g; o1 w0 f6 _5 k! mAudio
8 W' A2 k2 ]0 x. W! UID                                       : 2
$ r: M4 W1 H3 S1 X- b6 D7 J' SID in the original source medium         : 4352 (0x1100)( Q2 T1 K( s; W1 E
Format                                   : DTS# Z0 @! l5 c+ A  C- M  J6 X
Format/Info                              : Digital Theater Systems
, g  X( J5 r; H1 F# B$ u3 m0 u( LCodec ID                                 : A_DTS+ u8 j5 j6 U. k# ?
Duration                                 : 1 h 48 min0 g$ g$ e# Y2 ]3 o# T, K4 q/ K" L; d
Bit rate mode                            : Constant
6 [) |9 G# g* Q) [. KBit rate                                 : 1 509 kb/s2 o3 i7 S* H) t5 B2 o
Channel(s)                               : 6 channels
" l( H5 k, ^9 x% @1 ^3 aChannel layout                           : C L R Ls Rs LFE7 R9 I1 T0 r! y+ M) ~3 g1 Z, {
Sampling rate                            : 48.0 kHz* e! D+ U2 I3 O) R) m
Frame rate                               : 93.750 FPS (512 SPF)( [% {1 P' c" g2 J
Bit depth                                : 24 bits
6 P4 i+ v! g; wCompression mode                         : Lossy
; s" t) g* ^  vStream size                              : 1.15 GiB (12%)
% `! {( o9 x$ }6 iTitle                                    : Stardust.2020.1080p.BluRaycd.x264.DTS-FGT
( B( b+ g. d/ x7 ?  B( H/ l' L% @Language                                 : English
1 @* T7 P. [) m/ I; x: d( CDefault                                  : No
, O( g& a! I/ K" Q1 OForced                                   : No$ h# l! T( |8 s! b
Original source medium                   : Blu-ray/ A4 o4 ~" J- u; B: ~

, f; k2 l2 D& z3 r$ C" @Text! Q8 {+ r7 ]& K
ID                                       : 3% T( S2 @# _! i" d$ ~6 b
Format                                   : UTF-8
$ [- f7 M% d3 R. Y5 A. QCodec ID                                 : S_TEXT/UTF8' `3 d: a% v2 m
Codec ID/Info                            : UTF-8 Plain Text% g3 k4 N/ P4 \5 a
Duration                                 : 1 h 44 min# X5 C. X0 L, {1 Q1 f' R/ G
Bit rate                                 : 63 b/s
2 c# S' z, F! ], O9 a- X; UCount of elements                        : 1709
! U" H5 J0 y. i1 J# X  yStream size                              : 48.7 KiB (0%)
* k) d0 x2 a0 i( PLanguage                                 : English
+ J. B3 g- O9 i0 \+ uDefault                                  : Yes
6 i# X' N1 e' E, @8 hForced                                   : No, u0 \7 q" @/ X# c
9 E/ j6 T$ h+ j2 Q
Menu6 j( i( J& T8 g1 h
00:00:00.000                             : Chapter 018 H) F# q  S7 h( x
00:09:00.291                             : Chapter 029 a' d6 O4 E# I6 {% l6 {
00:16:11.125                             : Chapter 03
/ l* L3 A- _* g9 w1 a% Y: _4 }00:25:08.041                             : Chapter 04# R! Z& l( i4 I- p# L1 ^- G
00:33:09.625                             : Chapter 05
( u6 U# R- ?5 s& i$ w00:41:51.333                             : Chapter 06
# U  e9 ?, O* v00:52:18.333                             : Chapter 072 s$ g  N' ?: W8 h( R
00:59:27.708                             : Chapter 08/ t! o# q3 V% m5 W8 M  ]* ?2 D
01:08:08.625                             : Chapter 09
: P8 J5 v8 `% d4 y  t01:17:33.708                             : Chapter 10& A3 W- s6 ?6 M$ j
01:23:44.625                             : Chapter 114 p# B' g. ]* C( ?3 r' D
01:33:17.375                             : Chapter 128 {7 E# T8 E/ `; R4 i4 L
01:41:54.458                             : Chapter 13
4 Q6 t6 y; Z$ n1 j01:45:32.958                             : Chapter 14
Video6 l4 k- x) }2 A0 U3 U2 r0 p
ID                                       : 1
# Q- k4 E. e3 L4 T  G7 N6 ~Format                                   : AVC% k! B3 O3 B3 ^: F  o, V8 [/ X! b, K
Format/Info                              : Advanced Video Codec3 m) H% d, b: e- ^7 J5 b
Format profile                           : [email protected]
8 b0 O8 |: O9 E& xFormat settings                          : CABAC / 4 Ref Frames  C; P) C+ i; W
Format settings, CABAC                   : Yes
* l6 p* Z( g% m9 c3 sFormat settings, Reference frames        : 4 frames" L* O' V# O8 @- a: m: @
Codec ID                                 : V_MPEG4/ISO/AVC
, n+ [' N8 ^" D5 I: _5 c7 fDuration                                 : 1 h 48 min% L9 ^8 Y, Y# c7 k9 s5 V
Bit rate                                 : 14.2 Mb/s1 s$ c4 G4 r0 q$ y
Width                                    : 1 920 pixels' ^, e3 T1 a7 A4 ^/ X+ j% }8 }& W
Height                                   : 1 040 pixels0 _/ d3 u4 y. o/ h7 I- N. @- y# D: o
Display aspect ratio                     : 1.85:1
7 s6 R! [0 [* W/ G) ]5 G5 ^Frame rate mode                          : Constant
2 C$ l! I7 |0 A) b! GFrame rate                               : 24.000 FPS
5 {: H1 l# p/ q7 kColor space                              : YUV# o5 {" T: a+ R0 E  j6 K
Chroma subsampling                       : 4:2:0, s: b3 i5 I/ b; q& z% @8 Y
Bit depth                                : 8 bits0 X/ g; v! ^# J) c  V5 E! k
Scan type                                : Progressive7 _1 ~( L/ c0 z* A
Bits/(Pixel*Frame)                       : 0.297
# ?4 h- [& p. ~( P# |Stream size                              : 10.8 GiB (81%)
  i6 y# U1 s  A0 K' NWriting library                          : x264 core 163 r3059 b684ebe
! G. Z" P2 ~1 ZEncoding settings                        : cabac=1 / ref=4 / deblock=1:-3:-3 / analyse=0x3:0x133 / me=umh / subme=10 / psy=1 / psy_rd=1.20:0.00 / mixed_ref=1 / me_range=24 / chroma_me=1 / trellis=2 / 8x8dct=1 / cqm=0 / deadzone=21,11 / fast_pskip=0 / chroma_qp_offset=-2 / threads=24 / lookahead_threads=4 / sliced_threads=0 / nr=0 / decimate=0 / interlaced=0 / bluray_compat=0 / constrained_intra=0 / bframes=8 / b_pyramid=2 / b_adapt=2 / b_bias=0 / direct=3 / weightb=1 / open_gop=0 / weightp=2 / keyint=250 / keyint_min=24 / scenecut=40 / intra_refresh=0 / rc_lookahead=60 / rc=crf / mbtree=1 / crf=17.0 / qcomp=0.60 / qpmin=0 / qpmax=69 / qpstep=4 / ip_ratio=1.40 / aq=3:0.90+ ]1 N+ X" w2 X2 S/ S2 }/ I
Default                                  : Yes3 d% c( Z; I! V8 @- |
Forced                                   : No
6 U9 w8 i+ O# l  ^Color range                              : Limited
- K/ s1 X0 C; l+ n' A( @Matrix coefficients                      : BT.709* a0 f$ Q3 R' K7 [6 q$ `" k
* B+ A' y) z3 h$ ^6 t% G
Audio, A0 a( X% U( v1 I' i1 g
ID                                       : 2
7 t' A- p0 P; ]3 _! }Format                                   : DTS XLL
$ Z/ {. K, L2 |" i/ {" EFormat/Info                              : Digital Theater Systems
: L# }8 J6 n3 T( `7 V6 ~Commercial name                          : DTS-HD Master Audio
* w9 j: n% u/ H* ?Codec ID                                 : A_DTS! j1 O8 x# `  {& V
Duration                                 : 1 h 48 min
# L$ d6 h. Y0 g- g1 jBit rate mode                            : Variable
  I& c+ Y& R( [0 V  `- I* ?2 V) R0 IBit rate                                 : 3 426 kb/s! Y6 e4 w+ ^* t: x* q
Channel(s)                               : 6 channels
1 }3 s5 v2 Z+ G2 `6 V& LChannel layout                           : C L R Ls Rs LFE
, u; k/ z* h2 T: q' qSampling rate                            : 48.0 kHz( i9 Q/ Q7 S8 O+ s: ~6 B& b
Frame rate                               : 93.750 FPS (512 SPF)
. D5 k0 A/ z5 Y9 z$ F1 `Bit depth                                : 24 bits
. X  x7 B' E* z: u8 \Compression mode                         : Lossless# q" a5 `) o$ k. [; Y) q  x( W
Stream size                              : 2.60 GiB (19%)! s# I: I/ k7 C+ n
Language                                 : English  x" M# a2 b$ E
Default                                  : Yes1 _3 D# D4 C' Z8 Y+ z/ S! |2 F
Forced                                   : No
0 q$ J1 h+ z8 A! ^! I, ?* i. K. c+ t
Menu6 l# f) T1 J. b* T; H
00:00:00.000                             : en:Chapter 01
2 k7 O  O! M2 I. s: s# U9 {4 Z00:09:00.500                             : en:Chapter 02
3 h; ~4 t4 j) l( R$ q- y00:16:11.375                             : en:Chapter 033 q: p6 u& ?" d( n5 g, l; w7 D& Q+ w
00:25:08.417                             : en:Chapter 04
  t3 X* G$ P( K% {5 H00:33:09.750                             : en:Chapter 05- I- z. A4 D( ^  p2 _
00:41:51.292                             : en:Chapter 06
$ y0 N$ q( n! f00:52:18.375                             : en:Chapter 07* V  b' O% r" v1 \" z
00:59:27.958                             : en:Chapter 08+ J6 {: W5 j' R/ j! W
01:08:08.625                             : en:Chapter 09
& i7 [9 n  f# m' ^7 Q1 p: V1 p; U01:17:33.917                             : en:Chapter 10
( \  M6 X" T$ g1 d* Y01:23:44.625                             : en:Chapter 11$ r7 u+ U4 x# X, ?1 H% O2 b2 `
01:33:17.625                             : en:Chapter 12
$ ~, A0 Q, Z: A01:41:54.792                             : en:Chapter 135 l  _1 I( u  P
01:45:33.208                             : en:Chapter 14. w# s, u: f: M9 `5 Y$ f
01:48:49.125                             : en:Chapter 15
$ k  H7 C% X4 o$ K
$ f5 j  m4 g3 ]' [- Z; G- [7 JStardust.2020.1080p.BluRaycd.x264-SCARE% M7 |: U4 f; c9 E8 {- Z# T/ ~& ^, t
; v7 ?8 d8 v) j7 S$ s# b, t+ R8 k
https://www.imdb.com/title/tt9694312
; W0 [7 F+ \9 K. V' a4 K, x8 ~' P
7 [( w$ N6 L! y7 M2 P' i, FPicture -----> CRF 17 (14220 Kbps)  52.55% of source (27058 Kbps)
# }) q9 X% f5 q) p& e9 vSound -------> English  DTS-HD MA 5.1 (3426 Kbps)
: e5 F4 S$ o. N, S. N+ ]/ x7 LText --------> None# Q% y- W/ l+ m
Dimension ---> 13737 MB
. R) g5 u$ B8 |( D7 X+ z  |9 g, L
游客,查看本帖隐藏内容请回复 | 加入VIP贵宾可免积分免回复 了解详情 | 还不是会员:点击获取邀请码 Invitation Code

本版积分规则

小黑屋|Archiver|蓝光电影资源网

GMT+8, 2021-8-5 21:57

快速回复 返回顶部 返回列表