BluRayCD Forum

 找回密码
 立即注册【分享大片】
查看: 6|回复: 1
收起左侧

[剧情悬疑] 星尘/摇滚变色龙:大卫鲍伊/大卫宝儿:无尽星麈 Stardust 2020 720p BluRaycd x264 DTS-FGT 5.33GB & 4.55GB

[复制链接]

5884

主题

6263

帖子

6万

积分

Post Share

金币
14283 枚
体力
11232 点

卓越贡献勋章

mvods 发表于 2021-6-11 14:54:30 | 显示全部楼层 |阅读模式
& B: }$ K7 h% p# k. L0 I
& c6 d: j" {  N# X, |/ D1 X" x4 r7 h
◎译  名 星尘/摇滚变色龙:大卫鲍伊(台)/大卫宝儿:无尽星麈(港)# M8 s# b& m% |
◎片  名 Stardust
+ z/ p: x1 t; d9 {& ^4 N) _◎年  代 2020
4 W* Z1 I# l1 y1 ?6 p2 ~◎产  地 英国: t' Z/ G8 K+ `. s- m8 E8 x" d
◎类  别 剧情/传记/音乐/ d+ @, l. b0 z- \
◎语  言 英语
8 f3 F' z8 i3 S' F, I$ _6 t◎上映日期 2021-01-15(英国)/2020-04-15(翠贝卡电影节)/2020-11-25(美国)
( B, H/ b7 Q6 p% F, g- c+ b# U: J! q: p! o◎IMDb评分  4.1/10 from 1,088 users, @3 C# o/ H& ^
◎IMDb链接  https://www.imdb.com/title/tt9694312/
+ |: I0 ^# ]% e+ y/ f% X◎豆瓣评分 3.8/10 from 153 users
( B$ B  ?) ?& a: r* n* K◎豆瓣链接 https://movie.douban.com/subject/30450250/
; Z/ C) ~# }; v3 \. n% U+ Q◎片  长 1 h 48 min
: J1 g5 F# m) T# w- }% h, [! J◎导  演 加布里埃尔·兰格 Gabriel Range
# Q* k6 e8 \5 p* C; D0 o◎编  剧 加布里埃尔·兰格 Gabriel Range
, @8 H; z1 n! r4 W% g◎主  演 强尼·弗林 Johnny Flynn
( S# D" W' c  ^$ p       吉娜·马隆 Jena Malone
6 J/ x$ x5 N. V2 `       马克·马龙 Marc Maron4 V6 K6 y% |% d& \  s) h6 S' J
       亚伦·普尔 Aaron Poole3 b4 N- P* o* y9 c! @& [
       保利诺·努内斯 Paulino Nunes2 M' q( R. R" T- g
       安东尼·弗拉纳根 Anthony Flanagan6 A% n3 O) h1 O! R' B. M3 \
       吉米·斯达 Jimmy Star
6 S+ i, w5 M3 a) w       瑞恩·布雷克利 Ryan Blakely$ d5 V* F  T! ^3 Y9 v: Q5 N; f
       杰瑞米·勒加特 Jeremy Legat
- s2 e4 j, t7 ]) S8 [8 Y5 ?* i, _. e) j5 r; Y( ~/ G& ~. J. a
◎标  签 传记 | 大卫鲍伊 | DavidBowie | 音乐 | 英国 | 2020 | Bowie | 剧情
' ^) c! N# ?% X  G" w9 s7 B+ N% Z& E9 g6 j( |: [9 ]8 {& H) e+ f8 K6 d
◎简  介   
' }) n+ G/ Q! d: u  |$ Q
1 a+ b; h0 |3 O& C* `, F. c  大卫·鲍伊的传记片真的来了。一部名为《星尘》(Stardust)的影片已在运作中,聚焦1971年,年轻的鲍伊第一次去往美国,激励了他创作出举世闻名的专辑和音乐形象“Ziggy Stardust”。定由歌手兼演员约翰尼·弗林(《野兽》)饰演鲍伊。- t9 D4 Z& C( m% z- ~% s

: r+ D" I4 }2 k# N% k( }! R  还有吉娜·马隆(《饥饿游戏》)饰演鲍伊的第一任妻子Angie,马克·马隆(《美女摔角联盟》)饰演他的唱片公司宣传。导演则宣布为Gabriel Range(《我是奴隶》),今年6月开拍。) k) B9 T5 _( q! g- @
Video
3 d  J1 y4 N4 B2 u4 [ID                                       : 19 e! x, D2 @! T6 D8 i4 {4 w
Format                                   : AVC
0 R, N( E: S" m; {) o  q3 Q; p- @1 dFormat/Info                              : Advanced Video Codec0 Q" _  i5 B% b
Format profile                           : [email protected]' x5 J2 o$ K- b/ v% g' |7 f6 F
Format settings                          : CABAC / 4 Ref Frames
9 Z+ @! e  D( x8 Y- n: YFormat settings, CABAC                   : Yes" {4 x! S$ q, ], l% F# `
Format settings, Reference frames        : 4 frames) K! s7 |2 t) C" g0 E; _$ `
Codec ID                                 : V_MPEG4/ISO/AVC$ M0 y5 B: z8 b( [1 |6 i
Duration                                 : 1 h 48 min
  N6 D, c* T6 M& ~& ]; `) E6 QBit rate                                 : 5 500 kb/s
0 j* v7 _( F; Z, L) {  CWidth                                    : 1 280 pixels& s; a: }4 }2 i
Height                                   : 694 pixels
# F$ [' ?1 ~6 G% xDisplay aspect ratio                     : 1.85:1! q" G- W9 x; n
Frame rate mode                          : Constant7 w8 H7 S/ E' m9 R  X
Frame rate                               : 24.000 FPS
; m8 J8 `0 Q8 a0 f! t2 [# XColor space                              : YUV
8 E% W: B. b% ?Chroma subsampling                       : 4:2:0+ O% Q5 u: G8 D8 b% ]& d
Bit depth                                : 8 bits& N" S. o* o. `* v7 _& m& f
Scan type                                : Progressive
7 s+ v, x& s2 |4 e- I/ r  p4 FBits/(Pixel*Frame)                       : 0.258
- e/ N% U" d; M+ ?4 N* A! T7 E  V" qStream size                              : 4.18 GiB (78%)! }! k' U+ A; L9 J, l1 ^
Title                                    : Stardust.2020.720p.BluRayCD.x264.DTS-FGT
3 ~" ^# m8 |" F1 bWriting library                          : x264 core 148 r2748 97eaef2
, r& `+ |( B  e& @. HEncoding settings                        : cabac=1 / ref=4 / deblock=1:-2:-2 / analyse=0x3:0x113 / me=umh / subme=9 / psy=1 / psy_rd=1.00:0.15 / mixed_ref=1 / me_range=16 / chroma_me=1 / trellis=2 / 8x8dct=1 / cqm=0 / deadzone=21,11 / fast_pskip=1 / chroma_qp_offset=-3 / threads=72 / lookahead_threads=3 / sliced_threads=0 / nr=0 / decimate=1 / interlaced=0 / bluray_compat=0 / constrained_intra=0 / bframes=3 / b_pyramid=2 / b_adapt=1 / b_bias=0 / direct=3 / weightb=1 / open_gop=0 / weightp=2 / keyint=250 / keyint_min=25 / scenecut=40 / intra_refresh=0 / rc_lookahead=50 / rc=2pass / mbtree=1 / bitrate=5500 / ratetol=1.0 / qcomp=0.60 / qpmin=0 / qpmax=69 / qpstep=4 / cplxblur=20.0 / qblur=0.5 / vbv_maxrate=31250 / vbv_bufsize=31250 / nal_hrd=none / filler=0 / ip_ratio=1.40 / aq=1:1.00
( L+ `6 v3 M+ a5 r+ ?* _2 c- D1 vLanguage                                 : English
  R; R, W. g; @1 @5 RDefault                                  : Yes
3 b/ h. N5 f9 y* B0 \Forced                                   : No
9 l- S+ b/ }0 S
3 e( b# w7 P4 e$ e) k* KAudio5 I" @( V, F* I% _+ j
ID                                       : 2
6 b: ~' P4 s* @; aID in the original source medium         : 4352 (0x1100)# J, w% z' |* T0 V9 R9 v0 {
Format                                   : DTS
* o  Q, n+ I& }, \9 L  l: VFormat/Info                              : Digital Theater Systems
/ S& X6 D5 P# V! k) S* SCodec ID                                 : A_DTS
* c6 {6 P" o$ M' u" m7 z1 WDuration                                 : 1 h 48 min/ u( U9 Y4 f& b. D0 ^. b
Bit rate mode                            : Constant
" r- j8 M  Z4 R; z: o3 BBit rate                                 : 1 509 kb/s
, N* _( n+ A7 p+ D6 p( u: j$ LChannel(s)                               : 6 channels/ G2 z+ m& T  }& n
Channel layout                           : C L R Ls Rs LFE
2 E/ G, M9 k: w7 _% P+ k3 ^Sampling rate                            : 48.0 kHz
  Q  [9 `1 |7 }2 [: F8 U8 h/ DFrame rate                               : 93.750 FPS (512 SPF)( d& @' w1 g$ i6 S! A# f
Bit depth                                : 24 bits
1 m+ q$ V3 J8 l. J+ W  j1 xCompression mode                         : Lossy
( D/ [" P4 ^3 J5 I( i* b7 OStream size                              : 1.15 GiB (22%)' B  X& B; {4 i7 E+ t8 s/ {$ Q2 C
Title                                    : Stardust.2020.720p.BluRaycd.x264.DTS-FGT
: m7 _* h+ j6 G8 ^Language                                 : English
+ Y1 Q0 J# K; W8 V% j2 wDefault                                  : No
  i2 H( Z8 F0 J" {8 j2 I: ?Forced                                   : No
# I! ~4 _9 F" l& H8 R- V+ B7 KOriginal source medium                   : Blu-ray
" }# I3 C+ I  {$ W( R3 c7 A
+ \0 u+ i2 C( h: }+ RText5 u% c# E% e6 B1 M6 Z
ID                                       : 3& K' k1 Y9 e* ~. q6 d/ n# V
Format                                   : UTF-8
% J8 |* M# _+ s+ HCodec ID                                 : S_TEXT/UTF8# s7 i' q( f$ B! q
Codec ID/Info                            : UTF-8 Plain Text! I5 n/ N' E5 [5 @
Duration                                 : 1 h 44 min
  A2 Q, J$ I- X; s8 E4 {$ NBit rate                                 : 63 b/s
2 F4 Z  h  b' S% |5 K7 b! _Count of elements                        : 1709
3 t# z( a. \' TStream size                              : 48.7 KiB (0%)
5 G7 U* B; R6 vLanguage                                 : English
" J) g! b  ]0 B$ nDefault                                  : Yes
8 S9 B. N( h, D( dForced                                   : No& k# c2 D" g1 v& p

8 l3 K" ^# f8 F+ g! SMenu4 {1 X) z7 L6 u4 ~0 \; ^
00:00:00.000                             : Chapter 01) h7 R0 ]- _: S
00:09:00.291                             : Chapter 02
/ S( G& l0 ]5 R( v# c6 C, R00:16:11.125                             : Chapter 03
# H- a9 F& s. l5 k0 y" L00:25:08.041                             : Chapter 042 N/ ^( T) v+ u. M5 B
00:33:09.625                             : Chapter 05" g- H7 Q8 n: D( `$ [$ G
00:41:51.333                             : Chapter 06# S) C8 Y' d* o$ f( i9 v
00:52:18.333                             : Chapter 07, C$ t( H7 R& B; D. S& u* i
00:59:27.708                             : Chapter 08# q& \! J; x! E# u8 e
01:08:08.625                             : Chapter 09) b4 V9 e1 q  P- T# i2 D) u
01:17:33.708                             : Chapter 10
6 S$ T  `1 c, Z3 s2 H& I+ F' t01:23:44.625                             : Chapter 11
; t4 P& x3 W2 `( h3 t01:33:17.375                             : Chapter 12! q7 n( _: ?( M7 e, J
01:41:54.458                             : Chapter 13& H- C4 {; t& h5 j) }
01:45:32.958                             : Chapter 14
Video
: q; B  [. W$ y* x; ~7 x- ^9 ~ID                                       : 1! I6 G. ^: f9 Q, ~6 b# m) o/ }
Format                                   : AVC+ X3 o6 W/ {2 b
Format/Info                              : Advanced Video Codec
) |2 Z# G5 a& ?6 O8 @/ HFormat profile                           : [email protected]
# o) Z+ q. A  w2 d" _9 W& kFormat settings                          : CABAC / 9 Ref Frames
$ m  w6 R, W2 {* ?4 ^) [$ PFormat settings, CABAC                   : Yes4 G$ P( [2 e2 a! X0 I4 [
Format settings, Reference frames        : 9 frames
: Z( B0 {  z4 Y  {8 \Codec ID                                 : V_MPEG4/ISO/AVC
$ A5 `5 S! R, I6 ]# uDuration                                 : 1 h 48 min5 b4 c+ ]% a* |) B, x/ Z
Bit rate                                 : 5 347 kb/s
+ B' v. _3 o% @Width                                    : 1 280 pixels* P- y* i' e$ F; c1 h; ^
Height                                   : 694 pixels) V, F: O9 k" q- H4 f
Display aspect ratio                     : 1.85:11 d! I! D6 T- O! \' k: l
Frame rate mode                          : Constant
5 r1 I1 w! E, G& q! u$ p7 d* aFrame rate                               : 24.000 FPS+ T4 P% n. y( c
Color space                              : YUV
7 V0 Q: |9 ]3 a, Y4 E0 cChroma subsampling                       : 4:2:0- G, J1 H- g, d2 [; c. i% v
Bit depth                                : 8 bits
. y, t3 B. y3 YScan type                                : Progressive4 ~* A& U  _1 C+ I7 E) q
Bits/(Pixel*Frame)                       : 0.2517 ^6 w$ [# v) p
Stream size                              : 4.06 GiB (89%)4 U! O- @. W7 u/ c; b8 b- j
Writing library                          : x264 core 163 r3059 b684ebe
/ l) y( ~1 j( S3 HEncoding settings                        : cabac=1 / ref=9 / deblock=1:-3:-3 / analyse=0x3:0x133 / me=umh / subme=10 / psy=1 / psy_rd=1.20:0.00 / mixed_ref=1 / me_range=24 / chroma_me=1 / trellis=2 / 8x8dct=1 / cqm=0 / deadzone=21,11 / fast_pskip=0 / chroma_qp_offset=-2 / threads=22 / lookahead_threads=3 / sliced_threads=0 / nr=0 / decimate=0 / interlaced=0 / bluray_compat=0 / constrained_intra=0 / bframes=8 / b_pyramid=2 / b_adapt=2 / b_bias=0 / direct=3 / weightb=1 / open_gop=0 / weightp=2 / keyint=250 / keyint_min=24 / scenecut=40 / intra_refresh=0 / rc_lookahead=60 / rc=crf / mbtree=1 / crf=16.0 / qcomp=0.60 / qpmin=0 / qpmax=69 / qpstep=4 / ip_ratio=1.40 / aq=3:0.90
+ j% {5 G' W  M0 X7 s; h8 b4 uDefault                                  : Yes
, F. z: S# c) b. IForced                                   : No# }5 m! Z6 W* s* m. ^( M2 Q9 i
Color range                              : Limited) x; O  g- |+ s- \
Matrix coefficients                      : BT.7092 \3 Q, S7 m4 z2 w% Y$ C" X
) F/ a: a$ W# v! w" o- g
Audio; _+ h* s/ y' ^) A6 M$ D1 C( h
ID                                       : 2
: \  T3 r5 F  b. Z: `3 m' W0 cFormat                                   : AC-3
  Q. D; f0 ^. e4 s- }' VFormat/Info                              : Audio Coding 38 D. Y& X" G! |- ]
Commercial name                          : Dolby Digital
/ e2 ^" K) b7 m' y& n8 `Codec ID                                 : A_AC3+ Z7 A( I  N( j6 T
Duration                                 : 1 h 48 min
# s0 O4 |; [2 Z2 ^4 `Bit rate mode                            : Constant# k7 T  ^0 |6 |) a
Bit rate                                 : 640 kb/s# `( Y; e- D5 ^7 x
Channel(s)                               : 6 channels
- e1 O  K% w8 h$ K* B5 j; jChannel layout                           : L R C LFE Ls Rs$ h; p) S! e) Q5 G% W0 k8 I/ P
Sampling rate                            : 48.0 kHz6 N/ p0 U3 C1 {6 s
Frame rate                               : 31.250 FPS (1536 SPF)- n' n; O4 b. V$ Q) o
Compression mode                         : Lossy9 P: z; a  C9 A* j& x
Stream size                              : 498 MiB (11%)( H1 \+ e. v# T3 x5 S) }' S; |
Language                                 : English
. _+ w) L0 t0 i, A% ZService kind                             : Complete Main
* S( n/ Y' Y4 q/ ?; I4 s, u0 U; w3 A' IDefault                                  : Yes
# ~$ ]; }+ j; r% f8 n2 p) X  ]4 DForced                                   : No
: g3 G( Z8 I9 O
. Y3 f  V$ i% y6 MMenu
' z0 p- o8 K- v" j% P+ G7 j00:00:00.000                             : en:Chapter 01
% B7 f( x4 Z! p5 w% P00:09:00.500                             : en:Chapter 02/ w& {0 P& h& j! c
00:16:11.375                             : en:Chapter 03, p4 e0 f5 B1 [) A5 o
00:25:08.417                             : en:Chapter 046 Y" s1 ^9 \# z2 p) E9 g4 p% ~
00:33:09.750                             : en:Chapter 05
, x3 i% A( W8 Q2 X* a$ F9 H* |00:41:51.292                             : en:Chapter 065 W0 C* N8 q& X5 @. ~
00:52:18.375                             : en:Chapter 07" J# L8 \1 }( z+ I, N
00:59:27.958                             : en:Chapter 08# f: |8 g( s3 j' v: O
01:08:08.625                             : en:Chapter 09
- r/ x; J+ m+ K; i2 ~01:17:33.917                             : en:Chapter 10
$ _% r. ^9 S# s3 P/ m5 S01:23:44.625                             : en:Chapter 11
% U6 K1 D& {) a# p) F4 o01:33:17.625                             : en:Chapter 12; F! ]2 F" A: v0 h$ k; {2 X% _0 i
01:41:54.792                             : en:Chapter 13/ g  B; p* @4 y* }/ F
01:45:33.208                             : en:Chapter 14
1 E" Y' y: l# Y: I* ]! F$ c01:48:49.125                             : en:Chapter 15* G; W$ t5 Y2 V4 a1 s  X% j, J
/ @2 I" ^) x- h* ]8 v3 U" i
Stardust.2020.720p.BluRaycd.x264-SCARE6 ?2 Z8 _7 x$ ]# U: O' u, x

8 C) k( m! S' n) Bhttps://www.imdb.com/title/tt9694312
. N' z6 C1 H$ ]1 r9 g
, }; s. Z4 V0 u- L# `% dPicture -----> CRF 16 (5347 Kbps)  19.76% of source (27058 Kbps)
* F3 u& I' F' Q8 r% _* rSound -------> English  AC3 5.1 (640 Kbps)3 Y9 E% l* b$ X* \- o: g. f' `6 C6 n
Text --------> None
2 Q  ~5 W/ P1 e+ ]; D5 i& FDimension ---> 4661 MB

! J1 P7 a( I, y  Y' h6 a8 k! K
游客,查看本帖隐藏内容请回复 | 加入VIP贵宾可免积分免回复 了解详情 | 还不是会员:点击获取邀请码 Invitation Code

2

主题

1371

帖子

4654

积分

Sponsor

金币
296 枚
体力
1550 点
livenchen 发表于 2021-6-25 16:53:25 | 显示全部楼层
谢谢楼主发帖共享好电影!

本版积分规则

小黑屋|Archiver|蓝光电影资源网

GMT+8, 2021-8-5 23:46

快速回复 返回顶部 返回列表