BluRayCD Forum

 找回密码
 立即注册【分享大片】
查看: 150|回复: 19
收起左侧

[动作战争] 神秘海域:德雷克船长的宝藏/秘境探险 Uncharted 2022 1080p BluRaycd x264 DTS-HD MA 5.1-MT 14.13GB & 13.55GB

[复制链接]

1万

主题

1万

帖子

11万

积分

Post Share

金币
23176 枚
体力
23474 点

卓越贡献勋章

mvods 发表于 2022-4-24 20:02:18 | 显示全部楼层 |阅读模式

! f; a5 E2 B! w  J
9 u- p% q% k, Y◎译  名 神秘海域/秘境探险(港/台)/神秘海域:德雷克船长的宝藏
- u; b3 O2 a1 I1 [5 R3 o◎片  名 Uncharted / Uncharted: Drake's Fortune
, U3 S: s9 k* I9 i/ z, N$ t◎年  代 2022
# x4 u( N: r) ?  R% n- }  l( i◎产  地 美国/西班牙# T. S, x( A7 d  c3 y
◎类  别 动作/冒险/ |* ^! n3 ]" }4 x# B
◎语  言 英语/西班牙语( m  b- {3 A( ~* J# I& U
◎上映日期 2022-03-14(中国大陆)/2022-02-18(美国)6 }6 H+ J2 i9 A
◎IMDb评分  6.6/10 from 68,235 users
; H& {' ~5 s' F& C. A◎IMDb链接  https://www.imdb.com/title/tt1464335/! q/ _0 a0 [7 g6 j4 S% {
◎豆瓣评分 6.3/10 from 43,739 users2 b$ S$ X( B5 F* C' b! q& M
◎豆瓣链接 https://movie.douban.com/subject/3822687/# ~% F& G( S  |7 Z* f5 r
◎片  长 1 h 55 min
# H, D+ y( z7 z/ d- v; w( I◎导  演 鲁本·弗雷斯彻 Ruben Fleischer 7 u2 r4 S3 W. s, S
◎编  剧 雷夫·贾金斯 Rafe Judkins 7 _2 l" |  O4 O7 r& s( P
       阿特·马库姆 Art Marcum
+ ]& P( I# j  V6 P, k% u- v4 {: R       马特·霍洛维 Matt Holloway
0 v5 u) v1 Y$ D4 i* p◎演  员 汤姆·赫兰德 Tom Holland + W4 z. T" t( `/ p* S
       马克·沃尔伯格 Mark Wahlberg
: c# g( N8 o1 [5 l       索菲娅·阿里 Sophia Ali
1 P" R* V* z. ^% r( i. h* h/ L       塔蒂·加布里埃 Tati Gabrielle
- j3 y; R, c9 X       安东尼奥·班德拉斯 Antonio Banderas
2 \" r) D( J% ?3 d3 L. g       史蒂芬·威丁顿 Steven Waddington
7 F: K, m1 u. S# m  b" ^' V       乔治娅·古德曼 Georgia Goodman 8 ]% C' y" x/ W1 O/ L
       迪尔梅德·默塔 Diarmaid Murtagh " D5 {( F0 g* s5 w* h0 L
       约瑟夫·巴德拉玛 Joseph Balderrama 0 P, U9 x% \/ c  @' v
       阿拉娜·博登 Alana Boden
$ ^6 C  {0 y/ p7 ^8 e! X       罗伯特?马瑟 Robert Maaser
; g4 C+ A* H: {; G       埃斯金迪尔·特斯法 Eskindir Tesfay
+ G7 [0 C* V8 K7 ~! B       曼纽尔·德·巴拉斯 Manuel de Blas ( C" p: I  k: k5 \% r
       帕特丽夏·梅登 Patricia Meeden
+ p( \* E, l- N7 r, I- _+ I5 w' ~3 T       诺兰·诺斯 Nolan North 8 T0 U8 s; E; h, u3 V% O$ }
       吉米·哈特 Jimmy Hart
+ F6 v8 E3 [6 j( I       皮鲁·埃斯贝克 Pilou Asbæk
' x4 z& a- K. t/ r$ P; T       莎拉·佩特里克 Sarah Petrick
; [" H$ n2 O$ W: m       平吉·莫里 Pingi Moli  - ^4 \5 D: H/ I/ {% S# E1 Q6 L
       蒂尔南·琼斯 Tiernan Jones  ! {! L5 U% W" K7 s- @3 x. v
       鲁迪·潘科 Rudy Pankow  
1 m( h1 M) C# i# Y- r! R# V       乔纳森·法伊拉 Jonathan Failla  
" r: F4 [  Y( }       安东尼·托马斯 Anthony Thomas  . ]: u2 _$ l$ d. Z
       彼得·锡顿-克拉克  Peter Seaton-Clark  
! k/ p$ a/ l" |' Q' O! e8 K       查尔斯·罗文 Charles Roven
" \& p+ T" u2 s8 G  U+ Z       阿维·阿拉德 Avi Arad
6 S1 {( Q  A  {1 z       亚历克斯·加特纳 Alex Gartner / V2 s$ I) g( v' O
       阿里·阿拉德 Ari Arad & C$ y$ ~% M2 \
       鲁本·弗雷斯彻 Ruben Fleischer
0 j/ j. e4 V( x4 f       阿萨德·齐齐尔巴什 Asad Qizilbash 3 p4 F% b% H7 w
       丁正勋 Chung-hoon Chung
0 X: A0 s* i3 i% M5 P       玛琳·斯图尔特 Marlene Stewart 9 S* e+ ]8 N$ x8 \. w
       贾斯汀·理查蒙德 Justin Richmond
3 S( @6 R! E- s: l4 G- z8 \$ N+ Z: N+ g: g+ d
◎简  介   : C# ~8 B) o* I4 {7 B
/ C5 c# Q5 N3 b, [& `4 K4 y7 r
  足智多谋的内森·德雷克(汤姆·赫兰德 饰)和经验丰富的寻宝者维克多·苏利文(马克·沃尔伯格 饰)组成搭档,追寻费迪南·麦哲伦500年前遗失的宝藏。一开始,这似乎只是个简单的寻宝工作,但很快演变成了一场惊险刺激、横跨全球的竞赛。他们必须赶在冷酷无情的蒙卡达(安东尼奥·班德拉斯 饰)之前寻得宝藏。蒙卡达坚信他和他的家族才是宝藏的正当继承人。若内森和苏利文能破译线索,解开这世界上最古老的谜团,他们便能找到价值50亿美元的宝藏,甚至还可能找到内森失踪已久的哥哥……但首先,他们必须学会通力合作。  r2 {3 i( l) M

8 L/ q4 q2 C! G3 ]5 A  Street-smart Nathan Drake is recruited by seasoned treasure hunter Victor "Sully" Sullivan to recover a fortune amassed by Ferdinand Magellan, and lost 500 years ago by the House of Moncada.
/ t+ _* z. ]4 ]' q9 }: I. v% E/ ^: {6 b+ I
Uncharted.2022.1080p.BluRayCD.x264.DTS-HD.MA.5.1-MT 14.13 GB ! w9 O# v% J2 f" r' |& M
3 \( q$ [! D2 U! k! L
Video/ G  e# Z# B3 [- \) K$ K; U/ R
ID                                       : 1; j* i7 E$ o8 j
Format                                   : AVC& v: W4 k' |& m
Format/Info                              : Advanced Video Codec' U1 O: N$ x1 v
Format profile                           : [email protected]& N1 A6 t" ~6 U- W* W+ G) V6 ~# s" l
Format settings                          : CABAC / 5 Ref Frames; w3 C0 \+ e! W, U( m0 M
Format settings, CABAC                   : Yes. I- V6 ~4 b- \% e) N) m  D( j
Format settings, Reference frames        : 5 frames/ j/ T! x1 o& K0 l! ?3 e
Codec ID                                 : V_MPEG4/ISO/AVC/ R1 i4 R& c3 O! [) a4 t
Duration                                 : 1 h 55 min# u- B1 V$ ?( E; ?, q% e4 \6 {
Bit rate                                 : 15.2 Mb/s
9 I; L6 G) i- y- p1 |0 s# aWidth                                    : 1 920 pixels$ r8 q# S2 [4 Z; k; u; ?
Height                                   : 804 pixels
' [% K. H' |( |5 l! S8 oDisplay aspect ratio                     : 2.40:16 o& k6 |* A! f  g. _7 ~( z4 @
Frame rate mode                          : Constant
/ l' q1 j+ Q- R; F; fFrame rate                               : 23.976 (24000/1001/189150) FPS
( p+ a( e6 }7 B" H+ G6 p" k: cColor space                              : YUV
8 b# J" z& c$ K- NChroma subsampling                       : 4:2:0
$ S" i! Q0 n6 ^# d8 O: m0 h/ f3 rBit depth                                : 8 bits
* m7 [2 {' `6 t, H7 r* UScan type                                : Progressive! J4 d5 n4 U. o, c
Bits/(Pixel*Frame)                       : 0.411- t5 h- b5 C8 q) M3 m1 n
Stream size                              : 12.3 GiB (87%)
# \0 u0 \% K+ }$ l+ ]Writing library                          : x264 core 157 r2938 2b00a84 [email protected] Mod( A) D6 k& x$ Z! l: C- K
Encoding settings                        : cabac=1 / ref=5 / deblock=1:-3:-3 / analyse=0x3:0x133 / me=umh / subme=10 / psy=1 / psy_rd=1.05:0.00 / mixed_ref=1 / me_range=32 / chroma_me=1 / trellis=2 / 8x8dct=1 / cqm=0 / deadzone=21,11 / fast_pskip=0 / chroma_qp_offset=-2 / threads=12 / lookahead_threads=2 / sliced_threads=0 / nr=0 / decimate=0 / interlaced=0 / bluray_compat=0 / constrained_intra=0 / bframes=8 / b_pyramid=2 / b_adapt=2 / b_bias=0 / direct=3 / weightb=1 / open_gop=0 / weightp=2 / keyint=250 / keyint_min=24 / scenecut=40 / intra_refresh=0 / rc_lookahead=250 / rc=crf / mbtree=0 / crf=16.8 / qcomp=0.60 / qpmin=0 / qpmax=69 / qpstep=4 / vbv_maxrate=62500 / vbv_bufsize=78125 / crf_max=0.0 / nal_hrd=none / filler=0 / ip_ratio=1.30 / pb_ratio=1.20 / aq=3:0.807 B( F0 g  T  A* b" |
Language                                 : English
/ S7 `! M4 A* M7 {5 pDefault                                  : Yes- m4 {( `5 f$ f& F! x
Forced                                   : No. G7 M/ [$ _% Y" F3 u, Z* K
Color range                              : Limited9 S2 ]( V1 }9 H' `
Color primaries                          : BT.709& L+ _) m% G, u# r. t3 w- O
Matrix coefficients                      : BT.7091 a3 j) N! H/ F" d* g* z4 v" b& k

8 V" z4 c0 p" y8 I2 D8 fAudio
# d0 W; d1 }. ?: X' d1 p* WID                                       : 2
: }+ r4 _) A' N/ v* O$ }Format                                   : DTS XLL
$ c7 Z' ~, u  k3 ]: z4 C% v# U3 MFormat/Info                              : Digital Theater Systems
# l. N% i4 v2 O6 E6 sCommercial name                          : DTS-HD Master Audio! `) L- R& e' A) g0 J, g
Codec ID                                 : A_DTS4 T5 ]8 l$ _7 M$ l2 l- b5 ^6 _
Duration                                 : 1 h 55 min
+ w7 V# u; O: r: B5 uBit rate mode                            : Variable
) |! O2 R# e6 G& R# V( d, }; W. lBit rate                                 : 2 213 kb/s' V  V) z* s; Y0 O
Channel(s)                               : 6 channels  n9 q: Z8 _; g5 j  Q
Channel layout                           : C L R Ls Rs LFE
+ A5 k' @9 f$ J0 WSampling rate                            : 48.0 kHz
' |9 {: q: k. S! @3 j5 EFrame rate                               : 93.750 FPS (512 SPF)8 h$ h$ Q# h% L, u8 x4 |( @
Bit depth                                : 16 bits. D& a" _3 R8 \! g/ C; [
Compression mode                         : Lossless  w; A( ?9 Y* J' I# E
Stream size                              : 1.79 GiB (13%)& o6 _$ L; ]- o7 `1 `9 _
Language                                 : English
! T, e& x3 S* U0 g  K- }Default                                  : Yes
1 m% S' n( A9 c. V9 G: g# PForced                                   : No
5 s% X% K8 \$ k; M
0 o1 c6 L4 e( vText #1! j2 P* A: P- H
ID                                       : 3) }1 Q1 e! u8 Q2 d% w
Format                                   : UTF-8
, e- d' a( c, L) h1 I1 I8 I( OCodec ID                                 : S_TEXT/UTF8
, N) R3 J1 S! q8 K+ TCodec ID/Info                            : UTF-8 Plain Text4 I. [( o1 _5 W, d/ G0 |
Duration                                 : 4 min 20 s5 K# J# y1 {7 W
Bit rate                                 : 18 b/s! W* J( F" ?2 l2 V
Count of elements                        : 24
6 _/ H' Y0 R0 S, S: q  PStream size                              : 593 Bytes (0%)! `: e! D1 R# A3 w' w/ R
Title                                    : FORCED: |' r" ?, q: L: J# B/ y' l2 v. H
Language                                 : English: i- Z. ]1 ^& \
Default                                  : No
0 t- R  [; \8 Z5 p2 m: u/ y9 }Forced                                   : Yes/ a, s' D! f1 X% ~8 T
+ g# a3 V4 R& ?
Text #21 R" q) T0 L* l& h, {% t! D
ID                                       : 4
6 ^4 z* F; H) k6 b" \, cFormat                                   : UTF-8
/ H3 t2 q0 p/ G. sCodec ID                                 : S_TEXT/UTF89 }, D- i8 g% s" U
Codec ID/Info                            : UTF-8 Plain Text/ E( x4 b( k# h  h. A$ z; k
Duration                                 : 1 h 47 min$ y, `) [: H* O  I7 q
Bit rate                                 : 57 b/s8 O6 N3 P: q1 w0 t" }
Count of elements                        : 1628. r1 s  F; h. H- ~: H6 G, J
Stream size                              : 45.0 KiB (0%)$ |2 `1 d$ i/ a; A( [4 V2 r
Language                                 : English
. v: }" h# p% A4 O/ dDefault                                  : Yes- \2 w# L! X( w% s' `
Forced                                   : No
1 q9 h* K; v" p) W9 {
: p/ n$ O% c- L/ b* r" Z$ i8 HText #3
$ q2 @. m7 C. W! H7 W1 {* B* nID                                       : 5
, X$ l0 l! u0 E; KFormat                                   : UTF-8
* S2 p1 Y! Q' P0 F9 M5 RCodec ID                                 : S_TEXT/UTF8
( R( C6 q+ R0 r9 a  F7 ]Codec ID/Info                            : UTF-8 Plain Text1 r0 G+ z$ C2 q7 @8 }3 l1 V
Duration                                 : 1 h 54 min7 c7 D# s! n& K7 O8 R
Bit rate                                 : 66 b/s. v1 y' Y0 _- {6 x/ f: J& I1 |
Count of elements                        : 2054
4 J1 ?- ?" V$ d. y* \) q) gStream size                              : 55.4 KiB (0%)
; Z7 x; A) Z  X0 g% L% _Title                                    : SDH
& u6 m& g0 F& p: K: V. JLanguage                                 : English+ e1 J3 J$ ~0 d; x2 s9 N
Default                                  : No
* w8 ]! z" m9 e& lForced                                   : No2 d1 F) S! Q1 L1 J6 }
  E4 |" p7 a- J+ `5 Z4 [
Text #4
: }9 u9 M* f2 ~# ?+ x" pID                                       : 6
6 `8 t% ]* H. b8 E6 bFormat                                   : PGS$ O- z6 p2 B! S9 M5 _- F. m! v
Muxing mode                              : zlib; m2 H2 p5 }3 m9 ~2 }% @
Codec ID                                 : S_HDMV/PGS
$ T0 L$ @3 X7 K) _2 |- T- zCodec ID/Info                            : Picture based subtitle format used on BDs/HD-DVDs
8 @# \1 Y9 c1 U0 z7 `! J: gDuration                                 : 1 h 48 min  T% M( W; V, ?) C
Bit rate                                 : 39.3 kb/s5 p  [- G1 r) ~
Count of elements                        : 32050 ~6 C6 B$ o1 r0 n8 G0 |
Stream size                              : 30.4 MiB (0%)
3 v" @  p7 C5 vLanguage                                 : English, W% ^  l( L2 n* P5 ~
Default                                  : No* K% e! M/ s( [& t
Forced                                   : No2 K4 Y2 m2 X6 }

, O( |* Q! E: J7 {; VMenu5 l" ?. H! o2 k7 P2 G( k* e
00:00:00.000                             : en:Chapter 01/ s  I& K! ?" X5 d- R
00:08:16.496                             : en:Chapter 02
6 H1 j% J) Y$ u! }00:12:23.409                             : en:Chapter 03
0 Z- W! U. H/ C3 I00:18:56.886                             : en:Chapter 04
9 r/ [* V5 {- h00:24:30.219                             : en:Chapter 05$ M1 R  Y) Q1 i( u: Z. i0 ~
00:31:35.102                             : en:Chapter 06* `+ O4 L/ i* r# |& C
00:36:14.464                             : en:Chapter 07
6 t5 i# a. v9 v00:41:26.984                             : en:Chapter 08& Q9 w5 i4 ]- d$ u; t
00:48:05.174                             : en:Chapter 09
! t# A) [8 r1 v& g00:53:18.404                             : en:Chapter 10$ }* w5 A! ]/ Z. V
00:59:13.258                             : en:Chapter 11
3 ^7 |! H7 o9 Z) N+ s01:05:53.199                             : en:Chapter 12
+ Q# {8 q7 V0 _8 Y2 _9 X) v01:12:02.944                             : en:Chapter 13
% t' `$ y' S: _, q+ I4 v01:17:33.065                             : en:Chapter 140 l9 T  y- q% `) K* C
01:25:00.387                             : en:Chapter 15
" n, `! Y  f) y; f2 }& r: H1 f01:34:41.843                             : en:Chapter 16
Uncharted.2022.1080p.BluRaycd.x264.DTS-MT 13.55 GB0 K- g4 x+ Y  p: V/ Q0 P* A1 E
4 @! k3 F$ y8 E% B
Video+ b4 u3 P/ v7 `: p. Q- _
ID                                       : 1+ j' P. n* K& j
Format                                   : AVC
& v# T3 A9 K: V+ fFormat/Info                              : Advanced Video Codec
. e- E5 L# y( YFormat profile                           : [email protected]
) C" D' \2 n6 Q4 F, f$ Q, OFormat settings                          : CABAC / 5 Ref Frames+ I! [! r% q5 u6 j) f
Format settings, CABAC                   : Yes7 A8 e0 O: q2 Q/ r9 Q
Format settings, Reference frames        : 5 frames# e+ A6 A* Y2 D# [9 z+ s5 l' R
Codec ID                                 : V_MPEG4/ISO/AVC
' r& }0 G* d% }& k: v* f& QDuration                                 : 1 h 55 min: M0 y8 I3 X% |6 w) m1 e
Bit rate                                 : 15.2 Mb/s
' E( f+ _# h6 jWidth                                    : 1 920 pixels
3 B! S: T/ v2 g8 [4 J: F8 YHeight                                   : 804 pixels
# L% u( z: r4 S; r2 k" gDisplay aspect ratio                     : 2.40:19 h/ D2 g# h: V; h3 g, e
Frame rate mode                          : Constant% L6 J! y; ~" i
Frame rate                               : 23.976 (24000/1001/189150) FPS/ h* B: F0 F3 h" Y
Color space                              : YUV3 }  _  o9 `/ Y" @5 n, e6 \
Chroma subsampling                       : 4:2:0
  R7 J0 B6 o& E- Z, OBit depth                                : 8 bits
, i# ~  ^! m3 R$ k* |- m! m6 ^! ZScan type                                : Progressive7 X6 o6 L0 P' u- s/ y; u& `7 o) M
Bits/(Pixel*Frame)                       : 0.411
5 P4 j/ K9 ^, ~. [1 ZStream size                              : 12.3 GiB (91%)
1 k7 d0 R' a$ u, M. P+ I3 `; CWriting library                          : x264 core 157 r2938 2b00a84 [email protected] Mod- T( ~" o) K1 B: w
Encoding settings                        : cabac=1 / ref=5 / deblock=1:-3:-3 / analyse=0x3:0x133 / me=umh / subme=10 / psy=1 / psy_rd=1.05:0.00 / mixed_ref=1 / me_range=32 / chroma_me=1 / trellis=2 / 8x8dct=1 / cqm=0 / deadzone=21,11 / fast_pskip=0 / chroma_qp_offset=-2 / threads=12 / lookahead_threads=2 / sliced_threads=0 / nr=0 / decimate=0 / interlaced=0 / bluray_compat=0 / constrained_intra=0 / bframes=8 / b_pyramid=2 / b_adapt=2 / b_bias=0 / direct=3 / weightb=1 / open_gop=0 / weightp=2 / keyint=250 / keyint_min=24 / scenecut=40 / intra_refresh=0 / rc_lookahead=250 / rc=crf / mbtree=0 / crf=16.8 / qcomp=0.60 / qpmin=0 / qpmax=69 / qpstep=4 / vbv_maxrate=62500 / vbv_bufsize=78125 / crf_max=0.0 / nal_hrd=none / filler=0 / ip_ratio=1.30 / pb_ratio=1.20 / aq=3:0.80: k! M5 U, i' G# E/ f+ r5 A
Language                                 : English' U. \# S7 O! y0 y- A( K/ y
Default                                  : Yes( P- ]/ ?1 b) v! f6 e
Forced                                   : No8 l5 U. I; v$ n& D8 J
Color range                              : Limited
( j0 d, p: m! J0 x% ~" MColor primaries                          : BT.709
5 p  K% F0 U7 u. C' x: ^Matrix coefficients                      : BT.709
0 n8 T$ A% |3 W2 m
6 N1 ]( n* |5 f) H0 X. EAudio3 R4 E" C' Z/ x+ y) C; D  P
ID                                       : 2
8 q7 j/ _5 t3 S  [4 @# {Format                                   : DTS
+ F0 D* D) s# z9 F$ {9 W8 PFormat/Info                              : Digital Theater Systems
! d" @2 d) |0 ZCodec ID                                 : A_DTS
9 m$ Z  X/ U2 P* F8 z/ H0 ]Duration                                 : 1 h 55 min
1 t% o1 s3 W  k0 A( bBit rate mode                            : Constant
1 M$ S& I* \( o, ~+ \: RBit rate                                 : 1 509 kb/s2 Q& E6 ]2 t% ~9 y2 ]. L
Channel(s)                               : 6 channels
( o; M4 K4 v8 S# T$ c# n9 |Channel layout                           : C L R Ls Rs LFE% d0 J6 @  w, |6 l6 w" x* K
Sampling rate                            : 48.0 kHz
1 b1 B! y( n( m  gFrame rate                               : 93.750 FPS (512 SPF)
6 f# m2 b0 V" |4 g6 U0 n8 S, qBit depth                                : 16 bits+ l, ?3 U$ L# @9 l; P2 a" l) O
Compression mode                         : Lossy6 W$ L; `6 ?7 [7 y, L
Stream size                              : 1.22 GiB (9%)( R' ~- R9 ?) x/ L: E. ^! ~( B8 x
Language                                 : English
1 U& J; k: L, G8 l9 [5 S; J! g6 gDefault                                  : Yes
0 b' A  \2 t/ c8 x$ _- F8 v) }Forced                                   : No
; x% @- ?& ?9 n: I& o2 h
4 V' b' X' e" q3 |( CText #1
8 h) u2 @' U8 B$ Y: SID                                       : 3
( b- }9 T9 E# yFormat                                   : UTF-8, D& p5 }; h; q6 O- f2 G
Codec ID                                 : S_TEXT/UTF8
: N. Y( u0 D6 v# a  H$ lCodec ID/Info                            : UTF-8 Plain Text# w0 K( c/ D4 D$ @6 G
Duration                                 : 4 min 20 s5 q# }1 p7 F0 X9 v8 f2 k% x3 ^
Bit rate                                 : 18 b/s
6 ^- R" P$ m! sCount of elements                        : 249 G$ G: h2 Q/ F; K1 ^
Stream size                              : 593 Bytes (0%)0 Y6 v7 [! o! U! {+ k+ B3 m
Title                                    : FORCED
" v* d: x1 R- S2 V, I3 RLanguage                                 : English
5 _0 J' I8 c2 q& gDefault                                  : No
3 @& H* k+ _/ m* z8 P+ p' P  yForced                                   : Yes0 _/ V' x7 x$ v& {. _) @( R

8 D  l. m& M; D  nText #2
' n/ S* m' g  S, I# GID                                       : 4
9 r" D+ c" {8 c- B. SFormat                                   : UTF-8
9 c' k) B. b  {. u0 _" i; U- ~Codec ID                                 : S_TEXT/UTF8- G9 E/ u; s, l1 l2 A$ M; _
Codec ID/Info                            : UTF-8 Plain Text
% |) P; a7 H- V+ ^# wDuration                                 : 1 h 47 min
6 Q* t8 ~- b2 C" YBit rate                                 : 57 b/s5 ~5 R) W% w# W8 P3 ^
Count of elements                        : 1628
' w) @: h( Q2 I0 r. Y' a6 TStream size                              : 45.0 KiB (0%)
3 h% t) @9 I& ~1 MLanguage                                 : English
7 Q0 l; U! Q' f' M. j" YDefault                                  : Yes8 N/ A! Q3 k: _' L  e3 e# r! Y
Forced                                   : No
6 J, `& j! B( m. ^& t1 g6 C6 v$ o. @% U- @- ?. I* h3 f2 C5 B
Text #3
/ d( A; O( F7 B2 i2 A2 jID                                       : 5
1 U; e+ a$ W1 yFormat                                   : UTF-8
1 b8 C' j# S" r& |; A) K; F: ECodec ID                                 : S_TEXT/UTF8
& O# ]5 G+ t% x. a, PCodec ID/Info                            : UTF-8 Plain Text6 h  T. B( n# z- d5 P* I
Duration                                 : 1 h 54 min( P) ?; W0 H" Q# {4 v/ {
Bit rate                                 : 66 b/s* P6 {( X/ u4 e. z6 H) Y
Count of elements                        : 2054
. H# V3 Z5 [2 K: L$ O/ |, p7 ~Stream size                              : 55.4 KiB (0%)& C6 r9 w( N" V
Title                                    : SDH
' V' T) S3 h# mLanguage                                 : English
% _  X& s* D- ]% _) M) KDefault                                  : No. p- f- p' D7 e2 ]. h+ R& F
Forced                                   : No
: r  s1 N! }# f* [+ Y. {; a% r
; E: K* t6 x4 ^' v  k, aMenu
- U( X) T% W$ [6 c4 a+ G; g7 s* w8 g00:00:00.000                             : en:Chapter 01. o( a' ?; ~" W
00:08:16.496                             : en:Chapter 029 Z8 B; K1 J0 Y) a8 y, n- \' R% v
00:12:23.409                             : en:Chapter 03+ q  [/ M7 _- C5 ^; K
00:18:56.886                             : en:Chapter 04& H( |7 p0 R" y! }
00:24:30.219                             : en:Chapter 05
$ D  \, y& g! c5 h, l: G00:31:35.102                             : en:Chapter 06
+ I% u9 \, r( d! K7 {00:36:14.464                             : en:Chapter 07/ @5 w4 ]# C5 h* v
00:41:26.984                             : en:Chapter 08
( @) k$ S3 V" P7 r3 a8 _00:48:05.174                             : en:Chapter 09
6 ]' _6 Q+ z1 B4 q00:53:18.404                             : en:Chapter 10
+ Q3 W+ P) B% \- ]6 y* X00:59:13.258                             : en:Chapter 112 J, C# x! A6 ^8 j3 Z
01:05:53.199                             : en:Chapter 128 K) {: J8 W4 m- a( F
01:12:02.944                             : en:Chapter 13
$ [8 c) b+ p: X1 x" x) _01:17:33.065                             : en:Chapter 14
; ~: ?0 W8 a0 i* u$ n7 g+ I- H, }01:25:00.387                             : en:Chapter 15
1 U0 D& Z+ M+ H+ H. Z1 ]01:34:41.843                             : en:Chapter 16
8 _/ _, D- _* W8 m2 |3 {5 n
游客,查看本帖隐藏内容请回复 | 加入VIP可免积分免回复 了解详情 | 还不是会员:点击获取邀请码 Invitation Code

0

主题

62

帖子

927

积分

Sponsor

金币
75 枚
体力
648 点
QQ
wyhappybj 发表于 2022-4-27 11:17:13 | 显示全部楼层
每天都来蓝光论坛看看,我爱蓝光电影。/ P4 a1 P/ ]: J+ O4 k
要想蓝光电影论坛发展好,资源多,就靠你我他!To the development of Blu-ray movies forum, resources and more depend on you and me!1 l8 ~1 _7 L7 M' A; \9 g

0

主题

662

帖子

2647

积分

Sponsor

金币
255 枚
体力
1046 点
lfvvzc 发表于 2022-4-27 08:44:11 | 显示全部楼层
其实我一直觉得楼主的品味不错!呵呵!+ h7 d* J* f1 `
The decisive Replies sink is I get the sinking feeling great sense of accomplishment!
1 T9 ?& U( C" _' I( q

0

主题

46

帖子

367

积分

Sponsor

金币
81 枚
体力
191 点
xiaoshatao 发表于 2022-5-26 17:59:57 | 显示全部楼层
神秘海域:德雷克船长的宝藏/秘境探险 Uncharted 2022 1080p BluRaycd x264 DTS-HD MA 5.1-MT 14.13GB & 13.55G

0

主题

31

帖子

526

积分

Sponsor

金币
74 枚
体力
360 点
marttn 发表于 2022-4-24 20:20:42 | 显示全部楼层
哇,谢谢分享啊

78

主题

4334

帖子

1万

积分

Sponsor

金币
2456 枚
体力
6228 点
lanpanshuma 发表于 2022-4-25 08:35:27 | 显示全部楼层
楼主发贴辛苦了,I*老*虎*U!: |5 {9 l3 Q5 z' g
In fact, I have always felt that the landlord of good taste! Ha ha!
1 u, q! N5 V. J: b" P  d, F6 @

2

主题

655

帖子

3641

积分

Sponsor

金币
448 枚
体力
1930 点
QQ
ccfys888 发表于 2022-4-25 15:13:18 | 显示全部楼层
Bluraycd又有新电影发布了,激动中……!% m  U* B8 d+ c9 X
I love your Blu-ray movies Forum!6 j: U" \* f7 T  P3 c; o7 M, R

1

主题

135

帖子

725

积分

Sponsor

金币
74 枚
体力
365 点
bravehunter 发表于 2022-4-26 16:06:39 | 显示全部楼层
又有新电影发布了,激动中

0

主题

12

帖子

210

积分

Sponsor

金币
143 枚
体力
40 点
QQ
847690496 发表于 2022-4-26 19:28:09 | 显示全部楼层
哇塞 谢谢分享
4 k  `) `. f, s6 Z. z1 @

0

主题

152

帖子

1065

积分

Sponsor

金币
338 枚
体力
419 点
defend 发表于 2022-4-26 19:49:54 | 显示全部楼层
这个资源不错!

0

主题

1205

帖子

4592

积分

Sponsor

金币
363 枚
体力
1840 点
QQ
fangfang789 发表于 2022-4-26 22:22:04 | 显示全部楼层
每天都来蓝光论坛看看,我爱蓝光电影。
5 l4 r! i- |1 |! j4 N+ [+ ENot see, I am a novice, the inadequacies of the first Please bear with me!5 o7 \) m8 c' h- ^) ~" a& C8 D

0

主题

1205

帖子

4592

积分

Sponsor

金币
363 枚
体力
1840 点
QQ
fangfang789 发表于 2022-4-26 22:32:28 | 显示全部楼层
Bluraycd又有新电影发布了,激动中……!
; @+ G+ u5 w4 S8 w' R5 `( }In fact, I have always felt that the landlord of good taste! Ha ha!
/ d, E* n& _' B6 V* m! r/ w- q

0

主题

1205

帖子

4592

积分

Sponsor

金币
363 枚
体力
1840 点
QQ
fangfang789 发表于 2022-4-26 22:36:33 | 显示全部楼层
啥也不说了,楼主就是给力!
; ~# r: h" o$ V/ p$ G1 d  ~' N5 eBlu-ray movies Community: my favorite!) [& ~8 t+ W2 {) T) K7 W

本版积分规则

小黑屋|Archiver|蓝光电影资源网

GMT+8, 2022-7-7 07:02

Copyright © Tencent Cloud.

快速回复 返回顶部 返回列表