BluRayCD Forum

 找回密码
 立即注册【分享大片】
查看: 12|回复: 0
收起左侧

[喜剧爱情] 反正我就废/秘密与谎言 Zokki 2020 JAPANESE 1080p BluRaycd x264 DDP5.1-EA 7.92GB & 11.16GB

[复制链接]

1万

主题

1万

帖子

11万

积分

Post Share

金币
23176 枚
体力
23474 点

卓越贡献勋章

mvods 发表于 2022-5-24 11:03:09 | 显示全部楼层 |阅读模式

/ Z5 N: A& i8 j. C6 S+ b9 l! k
◎译  名 反正我就废/秘密与谎言
2 g9 V9 }6 W+ [9 X( q0 Q5 Z◎片  名 ゾッキ / ZOKKI) D2 |" S: o) N6 W! z9 e! \
◎年  代 2020
! K) t1 G: a5 @* p& V+ F) K◎产  地 日本* J! E8 _3 a0 J/ N# s. x
◎类  别 喜剧
% x' k* {+ k0 u◎语  言 日语
1 m1 X  _+ q9 `8 q$ n% b◎上映日期 2020-11-04(东京电影节)/2021-04-02(日本)
$ s8 O8 t3 j: F4 V7 X( P◎IMDb评分  6.5/10 from 67 users
* ^% Y7 R# ^+ f  ?9 i5 U◎IMDb链接  https://www.imdb.com/title/tt14444620/( i& B9 C$ a% c) I/ m$ [! m. S
◎豆瓣评分 5.8/10 from 712 users
# ]$ p  g2 A9 X◎豆瓣链接 https://movie.douban.com/subject/34951263/
4 i) R) |  V. L% v, z  X1 g◎片  长 1 h 53 min9 R$ j7 ~6 u2 X1 N1 _
◎导  演 竹中直人 Naoto Takenaka
/ p4 q; s9 g8 r3 f       山田孝之 Yamada Takayuki
5 ^& o. w# G) S3 }0 R! n  {. _# [       斋藤工 Takumi Saitô, W- I8 f9 X, h9 m
◎编  剧 仓持裕 Yutaka Kuramochi
( I2 G/ ?9 q( M+ T0 ]! M) b) a       大桥裕之 Hiroyuki Ohashi
' Z* S' i1 B$ v5 `& f◎演  员 吉冈里帆 Riho Yoshioka & K, \7 g% y6 B
       满岛真之介 Shin'nosuke Mitsushima 1 F! P1 s& }4 Z! |1 f& F  R' R
       铃木福 Fuku Suzuki . I8 m) x! J2 _1 S' L) J4 [; c
       柳百合菜 Yurina Yanagi
8 F! n( h/ G$ L: k       南沙良 Sara Minami
" T- i$ p' ~* @; z, O" B* @: I       安藤政信 Masanobu Andô, I6 `" i3 Z  T2 ^7 j$ P) k/ X7 o
       泷正则 Pierre Taki * H: x# o8 F7 E0 O# a/ S
       森优作 Yusaku Mori7 Z3 f- p" {* x0 B7 N* R
       木龙麻生 Mai Kiryû
: j3 X8 v0 G+ ~% q4 r; w       幸田来未 Koda Kumi . i+ p( @7 T7 t: {' @  Z
       竹原皮斯托 Pistol Takehara 4 \0 O% W  j% |1 [1 @8 I+ Y
       润浩 Yunho " |$ t6 @) i/ I, I0 X* u7 H
       松井玲奈 Rena Matsui * D7 j3 x3 T9 R6 Q  I; K
       渡边佑太朗 Yutaro Watanabe
8 Y' \7 t- Y- B9 X( Q) l       石坂浩二 Kôji Ishizaka- E  w5 q4 D0 g6 G& Q8 d, I
       松田龙平 Ryûhei Matsuda  F. W! J, f( C+ K1 v$ ~; @
       国村隼 Jun Kunimura * C# n$ L$ ]; P) K9 \
9 u8 b2 W7 |# j2 \
◎简  介   & J* N% s+ |' e; X( a' Q, ~$ y* C
" _) }1 n3 l; Q- V
  中年怪咖突然想带着睡袋与捡到的色情书刊一路向西;高二小宅男唯一的朋友是个一心想死的少年;废柴老爹带着儿子夜袭高中校园偷沙袋居然遇到鬼?还有一个在DVD出租店打工的孤独青年。平凡而细琐,但仍充满灵魂的小故事,看似漫不经心,却无缝组成如拼布般多彩而亲切的篇章。在庶民日常间提炼日系干燥幽默,无以名状的神来之笔,让人嘴角不争气地上扬。
0 X: L8 q; l+ @, t" K, ~! H
; N6 H5 e% {- B( H7 R+ }9 n, a, B9 D  三位重量级斜杠影人竹中直人、山田孝之、齐藤工联手改编「孤高天才漫画家」大桥裕之的早期代表作品,力求原汁原味萃取原作精神,全片在漫画家故乡爱知县蒲郡市拍摄,政府民间全员全力支持!将数个短篇故事串起,吉冈里帆、松田龙平、满岛真之介、国村隼等人轮番上阵,幕前幕后豪华阵容通力合作,打造趣味横生的魔性小品。
1 P) z; Y: k# |) K/ I2 O4 O. N# i" I
  Three of Japan's most talented and prolific actor-directors have joined forces to adapt Hiroyuki Ohashi's cult manga series about characters in "an obscure corner" of the world. The film's five loosely connected storylines concern the secrets and lies, the fears and tears, and the puerile potty jokes that punctuate their daily (and in one eerie case, nightly) encounters.
& J* |7 F7 |/ D9 ^* Z0 @" y
, d; P; h8 N" n" }" x4 S0 P◎获奖情况  
+ O1 s9 z% y; C) m/ I+ C
; V7 ^4 C7 ~% ?6 E) h& d. O  第33届东京国际电影节 (2020)0 m. E) @2 j) o* J: m6 S
  东京首映2020(提名)
( W# x! }# _6 V% v& d6 x2 \
Zokki.2020.JAPANESE.1080p.BluRayCD.x264.DDP5.1-EA 7.92 GB! Q( A+ b3 K- x6 j6 G

3 k# S- E: {; p% kVideo4 N2 X3 r* Z( N4 o
ID                                       : 1. S! u; L$ e. p( `5 f' F
Format                                   : AVC
3 k' @, Q" l. u0 CFormat/Info                              : Advanced Video Codec+ H4 t5 @5 G2 b$ i0 e0 o+ Z! F
Format profile                           : [email protected]( i1 k  X. I; K" h* n) m
Format settings                          : CABAC / 4 Ref Frames* r& k0 `5 }' C% [. t1 n  f, r
Format settings, CABAC                   : Yes
+ y- d) {/ \6 |8 F# j3 \4 MFormat settings, Reference frames        : 4 frames
% g& R, z+ g7 Z3 a7 ]7 yCodec ID                                 : V_MPEG4/ISO/AVC) V8 y$ M( B7 b( l
Duration                                 : 1 h 53 min
& Y  S! [$ J+ }# r* e+ cBit rate                                 : 8 949 kb/s+ Z) z' L2 g6 N0 f& }4 f/ O) f* M
Width                                    : 1 920 pixels
4 E! Z3 q, B! _2 b" Q  ^' {, g- IHeight                                   : 1 038 pixels
' f  N+ E- I. R1 d% u+ n5 TDisplay aspect ratio                     : 1.85:1
. O! u% m$ N9 {; D- OFrame rate mode                          : Constant
, u3 {- q4 J% u/ S0 _9 Y5 i& FFrame rate                               : 23.976 (24000/1001/189150) FPS( R2 @% u7 Y* S  O
Color space                              : YUV; {& L1 d" ]2 P- d) H
Chroma subsampling                       : 4:2:0
) a0 [. ^* ^2 }" ?& X3 IBit depth                                : 8 bits) o( p+ L0 f3 x/ w8 j
Scan type                                : Progressive2 @9 d2 h0 |: t* U3 i
Bits/(Pixel*Frame)                       : 0.187* }( Q, u) @; z) [; C2 n7 O0 I
Stream size                              : 7.10 GiB (90%)6 S7 N0 H* T- B- u* b
Title                                    : -EA
' V7 k+ y- ^0 I3 F0 p0 `Writing library                          : x264 core 164 r3085+55M 938b6d0 t_mod_New [(8 & 10)[email protected] X86_64]( I1 ?' C0 r/ |7 ~; S* j
Encoding settings                        : cabac=1 / ref=4 / deblock=1:-3:-3 / analyse=0x3:0x133 / me=umh / subme=10 / psy=1 / fade_compensate=0.00 / psy_rd=0.97:0.00 / mixed_ref=1 / me_range=32 / chroma_me=1 / trellis=2 / 8x8dct=1 / cqm=0 / deadzone=21,11 / fast_pskip=0 / chroma_qp_offset=-2 / threads=18 / lookahead_threads=4 / sliced_threads=0 / nr=0 / decimate=0 / interlaced=0 / bluray_compat=0 / constrained_intra=0 / fgo=0 / bframes=14 / b_pyramid=2 / b_adapt=2 / b_bias=0 / direct=3 / weightb=1 / open_gop=0 / weightp=2 / keyint=240 / keyint_min=23 / scenecut=40 / intra_refresh=0 / rc_lookahead=60 / rc=crf / mbtree=0 / crf=18.2000 / qcomp=0.65 / qpmin=0:0:0 / qpmax=69:69:69 / qpstep=4 / vbv_maxrate=62500 / vbv_bufsize=78125 / crf_max=0.0 / nal_hrd=none / filler=0 / ip_ratio=1.35 / pb_ratio=1.25 / aq=3:0.85 / aq-sensitivity=10.00 / aq-factor=1.00:1.00:1.00 / aq2=0 / aq3=0
* c, [# F7 @) G6 F% a+ R1 K& i1 VLanguage                                 : Japanese
/ Z* r* I# B  {, h! C! e) g7 M$ i  NDefault                                  : Yes, S5 c' [5 C. r& }
Forced                                   : No
/ f& ]: ]* z( F2 ^, eColor range                              : Limited$ D2 C7 X4 \* a6 {( L" H  h( ~
Color primaries                          : BT.7092 t" t, T/ T" g( ?
Transfer characteristics                 : BT.709
6 t; r% i) x2 f% U6 w& EMatrix coefficients                      : BT.709) L" e: l9 q+ R1 Q
0 _  {- y2 q2 q
Audio9 K: Z/ }0 d" e& k+ O2 B8 s0 Y. D
ID                                       : 2. q1 F5 a+ P, {% {' E: w
Format                                   : E-AC-3
; q% i  r1 ^& G& u6 PFormat/Info                              : Enhanced AC-3
3 H  B# y. H/ `, ECommercial name                          : Dolby Digital Plus
! h& N4 p' }) B' Z9 i+ aCodec ID                                 : A_EAC30 t, z3 D) B6 j1 R8 k  c0 L6 s
Duration                                 : 1 h 53 min" g' Q' g1 E- x
Bit rate mode                            : Constant3 L+ Z' c  e) o1 @" N7 ^- {. T9 v7 Y
Bit rate                                 : 1 024 kb/s+ u, `3 U8 ~% @& \
Channel(s)                               : 6 channels5 a/ F7 c4 `2 ^* Y" r* n2 `
Channel layout                           : L R C LFE Ls Rs
, w: m( W! L/ v* }9 j9 eSampling rate                            : 48.0 kHz
: }9 u; K  j0 o" b5 r/ I2 \Frame rate                               : 31.250 FPS (1536 SPF)
' W  J) u& O1 v/ X: V* G+ |* `Compression mode                         : Lossy( V! T6 Z# S3 |+ S! Q: J, Q' ?
Stream size                              : 832 MiB (10%)- {/ M# C2 z% F% Z( b
Language                                 : Japanese
9 M& Z$ ?$ ~; w7 R  f; ?, qService kind                             : Complete Main
# C+ r+ `* F1 S0 o. ]Default                                  : Yes. ~7 x( k! @$ f0 X- }& ^+ _# {
Forced                                   : No
! h! o- u! W6 d, r
5 |" C3 Q/ N: E% _, `" WText #1
+ D+ q5 L3 j+ m1 _# B- C6 X8 F0 XID                                       : 37 q2 u/ P2 I# K. f  g
Format                                   : UTF-8
( v* q' [! W, Y: }* E, q& xCodec ID                                 : S_TEXT/UTF8$ M- H+ l( H0 S8 h
Codec ID/Info                            : UTF-8 Plain Text, L0 _, ~9 m- o3 e) @2 |" P5 y# ^' _8 h
Duration                                 : 1 h 52 min
1 x1 t5 [" F4 h& I' Y4 X: zBit rate                                 : 24 b/s
5 Q6 `8 H, O/ U7 O9 b+ s) }Count of elements                        : 8557 ?* j$ d9 `7 e# O
Stream size                              : 20.5 KiB (0%): w/ n8 A& ^4 T3 ^
Title                                    : srt
, W( E  _( V$ z7 BLanguage                                 : English
! a. ^  V2 J4 h: \0 Q  c: FDefault                                  : Yes
9 p: M3 ]. Z7 @/ M" S1 H. QForced                                   : No
0 B6 b% L2 L( \3 E6 a2 x  I+ F* d  C5 o* l7 O$ M6 L
Text #2) }, d/ v0 ~9 W( {5 m
ID                                       : 4
4 M# W+ `; \; J+ ?& O, }Format                                   : PGS7 b! v( F: w" u( [$ P; o
Muxing mode                              : zlib
; i4 ~& X* I# ACodec ID                                 : S_HDMV/PGS
4 D5 r6 F/ a& DCodec ID/Info                            : Picture based subtitle format used on BDs/HD-DVDs  ^2 s% d, w5 \+ Q+ t. t9 L
Duration                                 : 1 h 52 min
* y1 [( h( `7 P& }$ YBit rate                                 : 22.6 kb/s) \9 H- F- I# X7 Q2 Q1 m& F* [& u4 K% `
Count of elements                        : 16831 Z+ [0 M9 K+ C1 U
Stream size                              : 18.2 MiB (0%)
3 l$ @9 m1 c; F0 F. fTitle                                    : sup
6 \& ]1 h7 c6 mLanguage                                 : English6 S: f  h0 R# o# |  E" l4 y8 j( h' g
Default                                  : No
$ u1 K. y. w5 N  y7 tForced                                   : No
) q2 [% V7 ^$ h0 E. v
" N" m9 _( I% FMenu
& d" \% x: N! m9 J0 w/ i6 {00:00:00.000                             : :Chapter 01
& S1 n. L0 E' ^! w00:06:12.080                             : :Chapter 026 X% D9 O+ j. a; g- f
00:17:54.115                             : :Chapter 03
4 M, v5 U( E! _% O3 k* ~00:22:13.624                             : :Chapter 04
+ a9 k) e% N8 l. b7 b- b00:37:16.192                             : :Chapter 05
' d  c3 T; {7 P00:49:44.607                             : :Chapter 06
* `+ R4 l2 t5 g& s. c$ ?01:01:37.652                             : :Chapter 07
& J7 V6 t$ Y- c+ J' U01:09:50.395                             : :Chapter 08
3 S/ p0 J# j9 Y/ D/ l0 Y9 ^01:19:54.540                             : :Chapter 09
1 W0 D& ]( d0 F! a01:31:57.554                             : :Chapter 10) v- w% _8 `( k; s( g0 K$ w
01:43:33.290                             : :Chapter 11. T, H1 j) Y( t: k( c! E
01:48:08.315                             : :Chapter 12
Video3 u7 M6 i# y9 R3 h' x
ID : 12 F' Y0 K; Q: _" d; `3 A$ G
Format : AVC% }4 y: X! f; ?; @, ?, {0 F
Format/Info : Advanced Video Codec
, k9 P1 Q" E+ |0 a3 _Format profile : High@L4.1
+ d/ E5 b2 B. U; U; i, YFormat settings : CABAC / 4 Ref Frames
" N0 x" s' f% T! \Format settings, CABAC : Yes
- I8 @% h3 I/ q# T% ]' ^, i' SFormat settings, Reference frames : 4 frames
9 a. Q1 l" x) p0 y# ZCodec ID : V_MPEG4/ISO/AVC) q% }+ a4 B) `6 C
Duration : 1 h 53 min
9 g" C$ A5 R0 N* o4 `" O9 nBit rate : 10.6 Mb/s
) q7 _8 c: N; v/ F* DWidth : 1 920 pixels/ T, ?  @  u, e5 A+ _+ z/ x) M
Height : 1 038 pixels
+ A: e$ u) I" l! wDisplay aspect ratio : 1.85:1
5 R1 h! u# m& Z3 Y3 y. o6 c; L" OFrame rate mode : Constant
6 h  U/ t: o4 E  [4 f6 B( ?  L$ mFrame rate : 23.976 (24000/1001/189150) FPS
8 i2 ^4 p& r8 T- A4 E! ^8 wColor space : YUV! \# @) D% k/ C6 I( `" C3 z
Chroma subsampling : 4:2:0
9 p: O& A, Q1 `; l! `. W3 c$ fBit depth : 8 bits
+ F, _* X: B! Q9 K/ f  ZScan type : Progressive
+ L# z0 U$ b9 z! x7 xBits/(Pixel*Frame) : 0.222
+ A+ Q: J+ m* a) Z2 d, f" _0 U" }Stream size : 8.43 GiB (76%)
2 a5 F) q& Q( X9 o: _( d, gWriting library : x264 core 164 r3094 bfc87b7$ R/ F" t) }1 k3 j: [" v
Encoding settings : cabac=1 / ref=4 / deblock=1:-3:-3 / analyse=0x3:0x133 / me=umh / subme=10 / psy=1 / psy_rd=1.20:0.00 / mixed_ref=1 / me_range=24 / chroma_me=1 / trellis=2 / 8x8dct=1 / cqm=0 / deadzone=21,11 / fast_pskip=0 / chroma_qp_offset=-2 / threads=24 / lookahead_threads=4 / sliced_threads=0 / nr=0 / decimate=0 / interlaced=0 / bluray_compat=0 / constrained_intra=0 / bframes=8 / b_pyramid=2 / b_adapt=2 / b_bias=0 / direct=3 / weightb=1 / open_gop=0 / weightp=2 / keyint=250 / keyint_min=23 / scenecut=40 / intra_refresh=0 / rc_lookahead=60 / rc=crf / mbtree=1 / crf=16.0 / qcomp=0.60 / qpmin=0 / qpmax=69 / qpstep=4 / ip_ratio=1.40 / aq=3:0.904 C" i4 u/ e  E
Default : Yes. d. r  Z1 s9 ~, P
Forced : No- |: j0 b; }2 G) m  {0 U
Color range : Limited
% z1 T5 G/ i, w* Q( {5 x+ f! j2 uMatrix coefficients : BT.709
+ N9 k( G' X" m8 Q/ g4 B
+ U# U. t6 }2 e1 K! H9 uAudio
7 X8 M" g* P2 aID : 2
" H$ k1 r2 C: A% c7 X* UFormat : DTS XLL7 O# |. n8 F0 w* n* b; g
Format/Info : Digital Theater Systems
/ }$ _& W  y! Y6 i  P2 GCommercial name : DTS-HD Master Audio
! u4 h: y& o! a7 D" q% zCodec ID : A_DTS* q2 h: F. r; ^  g
Duration : 1 h 53 min% @  x2 G- I7 ^5 o( E- c9 \6 [
Bit rate mode : Variable8 t  l( E# V6 G. m
Bit rate : 3 420 kb/s
2 [# f$ f. @5 t( E6 X& S4 g# cChannel(s) : 6 channels
0 N# }' Y6 R; `" f% @$ |# R/ [, ZChannel layout : C L R Ls Rs LFE
2 f1 j  @6 }) x- v3 s+ s( LSampling rate : 48.0 kHz
8 ^: n) Q+ Z3 r' oFrame rate : 93.750 FPS (512 SPF). I& m3 F) G8 |  ]% [
Bit depth : 24 bits
, D5 c3 Y7 u2 D2 ?8 O+ aCompression mode : Lossless% v) \8 z& W6 O/ F: b/ c
Stream size : 2.71 GiB (24%)7 w8 I  Y+ |! r
Language : Japanese  ]* Y# p# `2 h! o; Q8 d7 B2 C
Default : Yes
0 h$ `2 y" Z& M7 R3 B2 uForced : No
8 [; z2 N3 I9 O. s2 W# j7 Z/ E5 A. I! r. H- B; e9 x& u. H
Text #1
1 K4 l8 a; `! ?' m  x+ g/ t  F9 EID : 3
) |3 ?$ ?" O1 q- L& `! v$ rFormat : UTF-8
7 }0 z+ ?2 K: d, KCodec ID : S_TEXT/UTF8
9 f7 P4 A3 H3 c  X4 pCodec ID/Info : UTF-8 Plain Text4 v  @9 B- E7 q' J% K$ [
Duration : 1 h 52 min
, K1 Z& A, g9 W; U+ Z9 FBit rate : 24 b/s
- _  I& o" A  I, b( ]) nCount of elements : 855
: D+ u& |8 b7 Q" c$ k9 O( `Stream size : 20.4 KiB (0%)/ y+ O6 K0 o+ Q* {
Title : English (Forced), \  U! F+ `$ l0 Z6 e' I
Language : English- U# E4 X2 o& k4 ]0 H
Default : Yes4 r* \4 {8 {$ J) d7 e
Forced : Yes
3 n: ]  G: ^+ L# z
1 v3 E% m1 L% O8 T2 ]- {Text #2
" H7 A. v# K; n# ^2 C6 JID : 40 i3 a) ?5 P! Z
Format : PGS# \$ [& {  d0 m! B1 S+ R3 C) ]
Muxing mode : zlib
3 ^( h* X; \' ]" ACodec ID : S_HDMV/PGS4 U' S- Y" A$ I
Codec ID/Info : Picture based subtitle format used on BDs/HD-DVDs! D3 @5 h: ^6 H  f
Duration : 1 h 52 min
: }+ M4 l0 p6 [& |! j1 uBit rate : 22.6 kb/s. z8 o* f/ l+ q9 s0 }
Count of elements : 1683& {& P. e' F% t3 c$ r
Stream size : 18.2 MiB (0%)
7 Q7 i4 c$ [6 x' BLanguage : English. x4 i' P7 i: E' B$ w1 P- Q
Default : No: O) h7 Q7 ~, V6 e5 l
Forced : No6 [) M% a) c# A% [' u
# t5 |8 g& {1 v! Y
Menu6 p6 y; Z6 P. `1 V
00:00:00.000 : Chapter 01
/ w) R0 r7 F( P00:06:12.080 : Chapter 02" P. c- h. o8 x1 a+ O" p3 P: X2 `) n1 ~
00:17:54.115 : Chapter 03
6 Z: Y0 @, b7 g5 M- a7 O, z6 A00:22:13.624 : Chapter 04
7 R& Y* V2 z& l0 E2 |6 }00:37:16.192 : Chapter 05$ J- R! N1 \" ]. r1 ]2 t/ p
00:49:44.607 : Chapter 06% z% e3 u- o! |( s+ W7 q
01:01:37.652 : Chapter 07
" m$ e  A; i- b, d01:09:50.395 : Chapter 08: t0 V8 r1 i, q. Q
01:19:54.540 : Chapter 09
+ h/ m: H% e% ?1 |01:31:57.554 : Chapter 10
" ]6 @% q  l( m5 s01:43:33.290 : Chapter 11( J5 M& s! Z7 M& b
01:48:08.315 : Chapter 12
9 ~' a- h( t$ ^% Y; }! T9 O0 w: o) Y% J( ]3 b7 B) _
Zokki.2020.1080p.BluRaycd.x264-ORBS 11.16 GB
) o- ?8 F! b! f- j* k% E0 l, l1 D3 b' Z4 \/ m* ]1 {
Title......: Zokki/ E  D8 Z9 G, M& f% }+ T
Rating.....: 6.5/10 from 60 users
/ j0 |7 P7 I/ ^1 J5 X- G) rGenre......: Comedy, Drama
! }# @# T% `6 l7 YURL........: https://www.imdb.com/title/tt14444620
( L/ Y2 N& Q$ D+ Q; ^9 }
9 D' T) Y! \' O1 m5 PVideo......: CRF 16 (10632 Kbps)
+ \8 W: n6 o+ F" L# a) iSource.....: 29456 Kbps
( E% [' ]1 U, W) jResolution.: 1920x1038
9 ?! ?! ]4 n6 Y/ f( kFrame Rate.: 23.976 fps
- t/ w; b. |3 |8 g& \3 Z/ hDuration...: 1 h 53 min0 I1 {  U5 H" L* Q
Language...: Japanese& i8 w- }( `: G7 H& j! s* I8 q
Audio......: DTS-HD MA 5.1ch (3420 Kbps)/ i8 k  M1 y( M- f. m
Subs.......: English
' d8 J. e. v* o+ r% a3 g9 m3 QSize.......: 11.2 GB
* J4 z3 I/ g+ [9 \; T
游客,查看本帖隐藏内容请回复 | 加入VIP可免积分免回复 了解详情 | 还不是会员:点击获取邀请码 Invitation Code

本版积分规则

小黑屋|Archiver|蓝光电影资源网

GMT+8, 2022-7-7 06:19

Copyright © Tencent Cloud.

快速回复 返回顶部 返回列表