BluRayCD Forum

 找回密码
 立即注册【分享大片】
查看: 8|回复: 0
收起左侧

[喜剧爱情] 反正我就废/秘密与谎言 Zokki 2020 720p BluRaycd x264-ORBS 3.70GB

[复制链接]

1万

主题

1万

帖子

11万

积分

Post Share

金币
23175 枚
体力
23472 点

卓越贡献勋章

mvods 发表于 2022-5-24 11:08:30 | 显示全部楼层 |阅读模式
, j# b3 m; \* P3 [* D

3 y" H- M. N* s1 U; T( }◎译  名 反正我就废/秘密与谎言4 V! Q4 ?3 J0 Q
◎片  名 ゾッキ / ZOKKI
. _. ^% K5 U, O! x◎年  代 2020
$ B! S7 W8 K) L8 b3 l# y2 e1 ?# A◎产  地 日本
- Z+ j# c3 H2 ~& V' o. d( I! i◎类  别 喜剧
9 Z, Q4 U* e( ~* L+ D, G◎语  言 日语
' `, w$ y9 g8 k& l$ y* s- X5 @◎上映日期 2020-11-04(东京电影节)/2021-04-02(日本)4 k3 v& `3 q3 M- G5 m/ f2 {1 F
◎IMDb评分  6.5/10 from 67 users
& R* L6 q! k' r2 r9 b$ r% F. Q$ Y5 Q◎IMDb链接  https://www.imdb.com/title/tt14444620/
: z* _7 \: x  e# _  u) |0 Y◎豆瓣评分 5.8/10 from 712 users
/ d( F, [( }% _( J  z5 J- n◎豆瓣链接 https://movie.douban.com/subject/34951263/- B( E4 b. a- |5 a4 K3 ]3 s
◎片  长 1 h 53 min
) T0 J2 w4 D! U& q8 p◎导  演 竹中直人 Naoto Takenaka # F9 Y; ^, s! O/ Y- e5 D
       山田孝之 Yamada Takayuki $ g  h; D* A$ a! i% U; u
       斋藤工 Takumi Saitô
6 L2 L0 o% \* ~" \* N" W◎编  剧 仓持裕 Yutaka Kuramochi
) r1 [$ a" N2 f5 f       大桥裕之 Hiroyuki Ohashi # U5 |- V+ X+ G' Q( B4 a* y
◎演  员 吉冈里帆 Riho Yoshioka
) h) P* R# I) Y: E       满岛真之介 Shin'nosuke Mitsushima
! l* g- M) b% h+ R       铃木福 Fuku Suzuki
# j8 ^. ]- Y  [9 }6 D5 b4 P       柳百合菜 Yurina Yanagi 1 a% [  }4 [7 K! n+ s# c+ J$ b% x
       南沙良 Sara Minami
# Z8 O+ d/ |5 |& q# S1 _1 I5 K8 s       安藤政信 Masanobu Andô; A: ~# y7 g2 ~1 R  v! r1 E( J2 M
       泷正则 Pierre Taki ( X+ N0 p) U8 z  \  d' k
       森优作 Yusaku Mori7 E: |. V: K# N- p* F
       木龙麻生 Mai Kiryû5 z% \/ v$ U" H  |
       幸田来未 Koda Kumi 6 _1 ?2 n# z" M: z7 P5 H/ Z" U. U
       竹原皮斯托 Pistol Takehara # n2 X) i. w4 J8 \' f) r* a
       润浩 Yunho
, h) j) C4 C7 e0 q- z       松井玲奈 Rena Matsui
8 R! ^1 N, \, x6 B5 u7 Y: }" @       渡边佑太朗 Yutaro Watanabe
  c- S. z  K: |       石坂浩二 Kôji Ishizaka0 o' ?# _/ C+ s9 |  a  H
       松田龙平 Ryûhei Matsuda
0 Q$ p% s3 e6 K: w, f% E4 m* O       国村隼 Jun Kunimura
2 x; `% O% |1 W( m  N& R
2 m3 c( |! R5 [' W. I◎简  介   
0 A3 p9 W/ A1 c# t1 d4 H
$ g& @3 |; e7 q7 s3 |9 T  中年怪咖突然想带着睡袋与捡到的色情书刊一路向西;高二小宅男唯一的朋友是个一心想死的少年;废柴老爹带着儿子夜袭高中校园偷沙袋居然遇到鬼?还有一个在DVD出租店打工的孤独青年。平凡而细琐,但仍充满灵魂的小故事,看似漫不经心,却无缝组成如拼布般多彩而亲切的篇章。在庶民日常间提炼日系干燥幽默,无以名状的神来之笔,让人嘴角不争气地上扬。
* `3 V- m5 ~7 C1 t3 L: \. ^4 E+ Q& C+ F9 B; }  v  s
  三位重量级斜杠影人竹中直人、山田孝之、齐藤工联手改编「孤高天才漫画家」大桥裕之的早期代表作品,力求原汁原味萃取原作精神,全片在漫画家故乡爱知县蒲郡市拍摄,政府民间全员全力支持!将数个短篇故事串起,吉冈里帆、松田龙平、满岛真之介、国村隼等人轮番上阵,幕前幕后豪华阵容通力合作,打造趣味横生的魔性小品。0 y/ X; K/ E3 b  O' t  r7 V

$ u6 v) q/ t% g  Three of Japan's most talented and prolific actor-directors have joined forces to adapt Hiroyuki Ohashi's cult manga series about characters in "an obscure corner" of the world. The film's five loosely connected storylines concern the secrets and lies, the fears and tears, and the puerile potty jokes that punctuate their daily (and in one eerie case, nightly) encounters.: x' d7 j1 @& q/ ?
1 K' a& C0 s0 x) N
◎获奖情况  : y* l4 k2 n: d) }

3 ?( d/ s3 ]! X  d% z  第33届东京国际电影节 (2020)9 X1 ^0 H) C9 A' s9 R, _; B
  东京首映2020(提名)  U# _9 ~9 @/ F) }/ C) ^5 w
Video
8 O, l/ Z9 T/ ?) ZID : 1
" K  |  {0 u  D6 I0 g' ~* JFormat : AVC
2 R. o  Z# C% uFormat/Info : Advanced Video Codec
& N& \/ ~  N3 r/ \8 ~+ iFormat profile : High@L4.1
1 @: n0 L; u  z8 A6 o+ Z' E' J. jFormat settings : CABAC / 9 Ref Frames0 E( l% T: }( r- M0 W: ~
Format settings, CABAC : Yes
/ \+ _0 H8 _& MFormat settings, Reference frames : 9 frames- [7 \$ |: s5 J7 ?
Codec ID : V_MPEG4/ISO/AVC% A3 s6 q# V( F9 `
Duration : 1 h 53 min! }' v. S! F% T/ M' p0 f$ _1 N3 g% K( D
Bit rate : 4 012 kb/s
# n- K# }0 \, m; r$ d% AWidth : 1 280 pixels2 x8 N8 ]! G1 s# n4 z. O0 [
Height : 692 pixels3 [1 P5 A: z+ c, l
Display aspect ratio : 1.85:16 ~# A8 `: c) X2 U5 J7 V# I% F
Frame rate mode : Constant: z  [1 m& j/ R! r$ P6 Z
Frame rate : 23.976 (24000/1001/189150) FPS
% }1 Z3 ?- c" w8 K3 C- N8 cColor space : YUV$ `9 b- ?3 n) z- _! u
Chroma subsampling : 4:2:0$ K: \  i5 [6 L5 U
Bit depth : 8 bits
4 V1 P3 l. X2 z0 E8 p- qScan type : Progressive# Z1 ]7 k, R! P% ]4 V
Bits/(Pixel*Frame) : 0.189
2 ^$ U. Z# c) ?) y+ cStream size : 3.18 GiB (86%); }; Q* T  s6 I% `3 G" N
Writing library : x264 core 164 r3094 bfc87b7  S+ ~8 W; x5 |2 y
Encoding settings : cabac=1 / ref=9 / deblock=1:-3:-3 / analyse=0x3:0x133 / me=umh / subme=10 / psy=1 / psy_rd=1.20:0.00 / mixed_ref=1 / me_range=24 / chroma_me=1 / trellis=2 / 8x8dct=1 / cqm=0 / deadzone=21,11 / fast_pskip=0 / chroma_qp_offset=-2 / threads=22 / lookahead_threads=3 / sliced_threads=0 / nr=0 / decimate=0 / interlaced=0 / bluray_compat=0 / constrained_intra=0 / bframes=8 / b_pyramid=2 / b_adapt=2 / b_bias=0 / direct=3 / weightb=1 / open_gop=0 / weightp=2 / keyint=250 / keyint_min=23 / scenecut=40 / intra_refresh=0 / rc_lookahead=60 / rc=crf / mbtree=1 / crf=16.0 / qcomp=0.60 / qpmin=0 / qpmax=69 / qpstep=4 / ip_ratio=1.40 / aq=3:0.90
8 Q0 a% L3 c- c. K3 X5 B* M4 kDefault : Yes5 ]5 v+ o* e! `4 k
Forced : No5 Y/ L) q, D8 i5 @( w' y! A
Color range : Limited3 {3 E% f" Y' {
Matrix coefficients : BT.709
  W& R( N. \; Q+ G  @: ?- M5 X+ s( @: j0 P) M; ]6 r
Audio
4 |9 ~9 b7 t2 B& yID : 2- r6 h$ w) M) u( P( d% l
Format : AC-3! \) `# w0 J* k4 N  q8 R3 E( P% B
Format/Info : Audio Coding 3
$ a) g) w& r% RCommercial name : Dolby Digital
8 @3 L$ P4 n& p+ u/ J) R9 ~Codec ID : A_AC3
& h. j& _) }6 u4 p% W1 z/ pDuration : 1 h 53 min! y1 L7 v  H( ~7 o" L* ?( W- `
Bit rate mode : Constant
( R% w: [6 m- I5 N# d- p4 G+ @$ f* oBit rate : 640 kb/s
( N1 g$ L$ H0 l9 h" FChannel(s) : 6 channels
) E5 D& @! t$ B# q, CChannel layout : L R C LFE Ls Rs0 |( x' S7 g. ^. [& e
Sampling rate : 48.0 kHz$ ]: p1 a' c( T* O1 z! u% b- Y4 {2 Z
Frame rate : 31.250 FPS (1536 SPF)
9 N* o# n0 _+ |. xCompression mode : Lossy; \+ |8 i! q  Q- C* n2 H
Stream size : 520 MiB (14%)
# Q2 D, u6 u9 z& P0 |$ U# W' ELanguage : Japanese
  [8 u  \1 A6 t) A) zService kind : Complete Main
! k4 Y/ g! L8 [. n' dDefault : Yes
" D2 }4 b2 @* e) ^* U( C1 Z+ E( `Forced : No( s. q* I6 d9 [4 d; d7 W9 r

0 p9 J% C* {3 W3 EText #1( y: P$ ^% h2 B
ID : 3$ O: s1 ~+ r+ T  Q* w. J
Format : UTF-8
7 @- K3 C( Y& p. zCodec ID : S_TEXT/UTF8
6 q* P( r% F% I9 M8 j4 @Codec ID/Info : UTF-8 Plain Text
; @5 }1 C+ C' q, K" n* ^Duration : 1 h 52 min& j4 g  i6 b6 A9 d* h
Bit rate : 24 b/s
7 z8 u  ~! V4 l, A0 hCount of elements : 855" H7 F3 Z  _( ]& V
Stream size : 20.4 KiB (0%)2 L, _1 T5 W( @) I. @6 ]
Title : English (Forced)$ n* Y- Y1 D, Z% i5 J$ [% x
Language : English- M8 b# Y) Y2 j5 ~# M6 u% J2 Z
Default : Yes1 i- r0 X0 A3 e1 _* N$ ?" k
Forced : Yes
4 C; V" `2 h0 P9 K4 o) Z7 E: [: ]6 d
/ [2 q: N! J* [$ o% qText #25 O7 n  K6 u  L* P% h
ID : 4+ g. ^* A; g8 d3 x* i2 g. }# v8 E
Format : PGS# T* R8 O! `* ^7 K  n8 w
Muxing mode : zlib
( I5 ]% i! Z! P" Z# u9 bCodec ID : S_HDMV/PGS
! b  y. v5 A* U7 KCodec ID/Info : Picture based subtitle format used on BDs/HD-DVDs
. O' [/ e1 g) B1 PDuration : 1 h 52 min
4 i8 I( G" e+ P) E; S7 aBit rate : 22.6 kb/s2 Y. `! W7 M9 i
Count of elements : 1683
1 w) P9 G" P8 k8 ~( {Stream size : 18.2 MiB (0%)  t% N1 O: u' \: v) d( f
Language : English; @' h8 q: S+ j  B
Default : No6 z* o+ x, W, C
Forced : No
/ _  z, n- F- X& D6 ^( Y& Q+ O  i- l, l! b" q- x; `7 `6 z
Menu
( w: e& c3 D6 D9 y00:00:00.000 : Chapter 01
5 I, {% C, W3 s' b00:06:12.080 : Chapter 02# e# \3 `. |' Y8 h: A( k0 U
00:17:54.115 : Chapter 03
* e( ]6 r1 j5 Y% y! [1 ]; l: B00:22:13.624 : Chapter 04
6 M) U# q. U6 _. l( i5 ], d$ r00:37:16.192 : Chapter 05
& M/ @8 p( p! l00:49:44.607 : Chapter 06
0 J( {+ U7 O& s7 s01:01:37.652 : Chapter 07
7 t2 }! z0 a$ I/ w1 i  [; K, F01:09:50.395 : Chapter 08' b9 q& z& ^' b; p' q" C$ {/ c
01:19:54.540 : Chapter 09  N/ I# X% |- j; F
01:31:57.554 : Chapter 10
9 y$ d+ b. v6 `3 e6 \- y01:43:33.290 : Chapter 11
/ z6 `/ q0 G4 U3 a0 T2 g01:48:08.315 : Chapter 127 i4 G9 h2 Q6 `0 ?
% Q3 W, @6 t% M. G1 _3 i
Zokki.2020.720p.BluRayCD.x264-ORBS 3.70 GB
1 D2 d0 a7 y; C5 r0 s) l6 u' Z! @) N
& k2 o/ U# u( U" r. U' i. f/ m8 a, yTitle......: Zokki6 F9 K0 B! J) y/ [  u# F+ `( C1 w) }
Rating.....: 6.5/10 from 60 users
/ r. c" W9 f1 J# e3 mGenre......: Comedy, Drama' {7 t/ I8 Z3 I
URL........: https://www.imdb.com/title/tt144446204 W) K5 A0 Y0 Y- e/ ]6 P

! x0 x5 {4 L3 x( Q: j, P( ~Video......: CRF 16 (4012 Kbps)7 s1 A' j/ \& V0 b* {
Source.....: 29456 Kbps4 J, |6 G2 D- l3 ^+ b
Resolution.: 1280x692
) t9 j/ l! G' {Frame Rate.: 23.976 fps
" i) X) H9 O& XDuration...: 1 h 53 min- ~/ D: K, M+ T
Language...: Japanese# E# H0 @7 ]3 v' _! c& H2 D
Audio......: AC-3 5.1ch (640 Kbps)
" ~: C! i8 j. {; y/ e2 `$ tSubs.......: English. ^3 k) a$ o: D: N
Size.......: 3.7 GB
  X' r/ ?9 }9 H+ @4 U
游客,查看本帖隐藏内容请回复 | 加入VIP可免积分免回复 了解详情 | 还不是会员:点击获取邀请码 Invitation Code

本版积分规则

小黑屋|Archiver|蓝光电影资源网

GMT+8, 2022-7-7 05:53

Copyright © Tencent Cloud.

快速回复 返回顶部 返回列表