BluRayCD Forum

 找回密码
 立即注册【分享大片】
查看: 57|回复: 8
收起左侧

[动作战争] 新西线无战事 [内封中字] All Quiet on the Western Front 2022 GERMAN 1080p NF WEB-DL x265 10bit HDR DDP5.1 Atmos-SMURF 2.54GB & 5.29GB

[复制链接]

1万

主题

1万

帖子

10万

积分

Post Share

金币
171 枚
体力
26702 点

卓越贡献勋章VIP黄金勋章诚信会员勋章

mvods 发表于 2022-10-30 15:21:13 | 显示全部楼层 |阅读模式

9 @0 l) j' S* _: C% s" j4 ~0 D* r$ h% E6 ~" x
◎译  名 西线无战事/新西线无战事
; k. m. B) y) ^7 b8 a0 A◎片  名 Im Westen nichts Neues / All Quiet on the Western Front
( J8 H% |, t# r4 Y1 G3 A◎年  代 2022
# P1 L1 i5 u+ \+ [+ L5 O: Q◎产  地 德国/美国# f( b7 w. W) v, {& c
◎类  别 剧情/动作/战争1 w$ F  G2 E2 b
◎语  言 英语/德语
' ^9 ^. t/ |6 r2 L◎上映日期 2022-09-12(多伦多电影节)/2022-09-29(德国)/2022-10-28(德国网络)
# r6 g2 J7 F6 N  O; @3 H◎IMDb评分  8.0/10 from 9,973 users
' U$ N- k+ i+ z7 e◎IMDb链接  https://www.imdb.com/title/tt1016150/
7 @& |, [+ l6 d! M◎豆瓣评分 8.8/10 from 9,862 users6 z0 H; ~2 T- P
◎豆瓣链接 https://movie.douban.com/subject/3042261/& c; c# |: _& T: C; p
◎片  长 2 h 28 min$ ?. E, }0 ~! Y2 c: L- E2 C
◎导  演 爱德华·贝尔格 Edward Berger" e: k# [  T! m, [  W9 m
◎编  剧 伊恩·斯托克尔 Ian Stokell
$ a! _. L4 ]6 e; x! I5 W$ w       爱德华·贝尔格 Edward Berger; s$ n: q8 M% S: J1 z
       Lesley Paterson
/ C& `2 h+ V; K2 s" v, y( Y       埃里希·玛利亚·雷马克 Erich Maria Remarque
& k" U5 W1 f2 h- s7 w◎演  员 费利克斯·卡米勒 Felix Kammerer
2 |9 n- `- c6 F4 z$ J       阿尔布雷希特·舒赫 Albrecht Schuch
. R! N/ l6 e, o/ F- T8 u9 j       亚伦·希尔默 Aaron Hilmer
- y  T( A9 g9 |: V5 `  L, i       丹尼尔·布鲁赫 Daniel Brühl
4 I3 L: H4 \: v# b       塞巴斯蒂安·胡克 Sebastian Hülk
- `1 X+ o) [2 V8 {5 ^9 t       安东·范·卢克 Anton von Lucke  r0 z4 P% f0 U$ [9 {+ l  B' Q
       大卫·史崔梭德 Devid Striesow" e. B% b: n- q
       埃丁·哈萨诺维奇 Edin Hasanović1 @( C: p! ?: l  V- E
       乔·温特劳布 Joe Weintraub
. n4 V7 K: H5 L0 G) P       吕克·费特 Luc Feit
3 N+ ?" S$ c5 N! n- s& F       米夏埃尔·维滕博恩 Michael Wittenborn
# S2 L$ ?) p  X8 d* x. n4 L       安德烈·马尔孔 André Marcon3 A- ]2 X0 J. `! e/ a! S2 o
       Tobias Langhoff Tobias Langhoff
- Q3 r! B2 j. b0 X- q       阿德里安·格鲁内瓦尔德 Adrian Grünewald; M8 j, z0 }+ O" N) V
       菲利克斯·冯·布雷多 Felix von Bredow
! z& |$ b0 D1 [+ k1 E       迈克尔·斯坦格 Michael Stange
* b* y/ f" p! _9 a6 f       Moritz Klaus1 Z# z4 A3 U" Z* Z+ W
       伊恩·斯托克尔 Ian Stokell* d: R5 i( t1 v! h6 ]- P6 s( S
       利西·克里斯特尔 Lisy Christl
; w2 W2 S3 k( ~
8 h; C. x# `; S1 V) G◎简  介   
* ]- M" I. S) b3 v. ?/ E( c2 R7 T
  该片改编自埃里希·玛利亚·雷马克撰写的同名经典小说,讲述在第一次世界大战期间,保罗·鲍曼和同学莱尔、米勒参加了德国国民志愿兵,被派往前线与法军作战。在战场上,他们目睹到了残酷的饥饿、血腥和死亡,战争的荒谬无情让保罗从迷恋战争到心灰意冷。
# Y7 ?( o8 c  r
6 n4 i2 Z. i" b$ r# I. G  A young German soldier's terrifying experiences and distress on the western front during World War I.
  k8 m9 J% `/ [: U
All.Quiet.on.the.Western.Front.2022.GERMAN.1080p.NF.WEB-DL.x265.10bit.HDR.DDP5.1.Atmos-SMURF 2.54 GB
All.Quiet.on.the.Western.Front.2022.GERMAN.1080p.NF.WEBRip.DDP5.1.Atmos.x264-SMURF 5.29 GB
# Q: Z( h) A3 V( b. g# u
% `* }% C, w. ^2 NVideo7 h- S% D" l' r  l) b
ID                                       : 1* m( ]- S: c3 b+ D) x$ t2 P" s
Format                                   : AVC4 L7 v$ o, B1 J3 }
Format/Info                              : Advanced Video Codec
% w; H# u3 q; zFormat profile                           : [email protected]
1 `' B& w4 v  R0 |% n0 x# v% CFormat settings                          : CABAC / 3 Ref Frames- H7 _$ N# q* a! ]. G% K
Format settings, CABAC                   : Yes
; w& D1 T1 f% r& P; N' v% FFormat settings, Reference frames        : 3 frames$ i4 w& E7 Y4 B  l6 Y4 ?
Codec ID                                 : V_MPEG4/ISO/AVC
5 x0 R/ H5 G2 w- L5 VDuration                                 : 2 h 28 min$ \" r" T5 q  w
Bit rate mode                            : Variable
" D1 ^' W  v/ m, k+ vBit rate                                 : 3 675 kb/s" Q6 o9 i( e; s" _1 D, v) x# I* L
Nominal bit rate                         : 2 604 kb/s
0 |" r3 y/ c3 J3 n. M( TMaximum bit rate                         : 7 305 kb/s
" g% E! E" R9 U: X5 k" u& n) `' TWidth                                    : 1 920 pixels
: h! D" r, ~/ R: LHeight                                   : 1 080 pixels
; E; K; G( N  v9 j0 Z  GDisplay aspect ratio                     : 16:93 J  ]) b# _5 X/ c
Frame rate mode                          : Constant" o: ?; @7 o9 }7 _
Frame rate                               : 24.000 FPS
* t' r' G- N3 y. |: ^Color space                              : YUV2 \0 `; d+ i$ |
Chroma subsampling                       : 4:2:0
3 |+ b$ s. T; _8 C( l1 [Bit depth                                : 8 bits7 x8 _9 i' U) E( l3 v
Scan type                                : Progressive3 `+ W) u! _- D" @: X
Bits/(Pixel*Frame)                       : 0.074
9 M# x$ j3 ]% zStream size                              : 3.82 GiB (72%)
3 t" F3 F6 L' w6 AWriting library                          : x264 core 148 r2727 7d026e8: O+ |' T7 `* T
Encoding settings                        : cabac=1 / ref=3 / deblock=1:0:0 / analyse=0x1:0x111 / me=umh / subme=10 / psy=1 / psy_rd=1.00:0.00 / mixed_ref=1 / me_range=24 / chroma_me=1 / trellis=2 / 8x8dct=0 / cqm=0 / deadzone=21,11 / fast_pskip=1 / chroma_qp_offset=-2 / threads=8 / lookahead_threads=1 / sliced_threads=0 / nr=0 / decimate=1 / interlaced=0 / bluray_compat=0 / stitchable=1 / constrained_intra=0 / bframes=2 / b_pyramid=0 / b_adapt=2 / b_bias=0 / direct=3 / weightb=1 / open_gop=0 / weightp=2 / keyint=250 / keyint_min=24 / scenecut=0 / intra_refresh=0 / rc_lookahead=48 / rc=2pass / mbtree=1 / bitrate=2604 / ratetol=1.0 / qcomp=0.50 / qpmin=6 / qpmax=51 / qpstep=4 / cplxblur=20.0 / qblur=0.5 / vbv_maxrate=7305 / vbv_bufsize=9740 / nal_hrd=vbr / filler=0 / ip_ratio=1.40 / aq=1:1.00" d" ^) b" ~: v4 D0 |
Language                                 : German# L) c) f+ ]! z- M6 j- O" Q2 e
Default                                  : Yes
5 E* F+ E4 M+ L6 e: g0 zForced                                   : No! }+ R6 z* J8 `
Audio #1
# s/ w" {+ ]  w9 D! {$ Z# ?3 B, qID                                       : 23 `8 N! @2 E! c+ u& E7 k0 z7 f  ?
Format                                   : E-AC-3 JOC' n% Z& A* k7 }' R
Format/Info                              : Enhanced AC-3 with Joint Object Coding
- R+ Y" z/ l1 o& `& h! T( {: PCommercial name                          : Dolby Digital Plus with Dolby Atmos
' q0 M+ d  U5 b7 l9 V, xCodec ID                                 : A_EAC30 }- ^4 s2 M+ @
Duration                                 : 2 h 28 min
, k9 m$ n. K8 Z$ d8 E+ jBit rate mode                            : Constant: }, t7 G, F# d, O, {4 [2 i, p- ^" H9 [
Bit rate                                 : 768 kb/s$ N: E1 s0 W3 i
Channel(s)                               : 6 channels
) P: H  n& f" [* z% f) ]- p3 sChannel layout                           : L R C LFE Ls Rs3 b' t/ g5 s; a/ c0 G0 |2 G) r; [
Sampling rate                            : 48.0 kHz4 i2 e' l3 J! a: R. N# y
Frame rate                               : 31.250 FPS (1536 SPF)) H9 G% l9 m- X8 f! b% B
Compression mode                         : Lossy
. A  s0 k9 d6 F2 E: g$ UStream size                              : 817 MiB (15%)
* f% q# H" `: f% bLanguage                                 : German
5 @; f+ T5 c* F1 rService kind                             : Complete Main4 @2 p/ s* o( G+ K* k' I+ S
Default                                  : Yes
9 [& {5 X' @4 i+ J( s( }Forced                                   : No
; P7 g& `( H1 AComplexity index                         : 16% c) ^7 N: a7 ?1 Q6 f
Number of dynamic objects                : 15
9 |1 c+ D9 w& {. D1 F0 q9 YBed channel count                        : 1 channel% P8 L" B( W0 i! h2 p" j1 B  }, D
Bed channel configuration                : LFE* I7 Z* h5 G& f& v4 K& i
Audio #2
, N: I4 s$ Q( t5 Q9 MID                                       : 3
+ i  V: n2 m8 z8 M- lFormat                                   : E-AC-3
# [! i; i6 `5 b4 K; K, SFormat/Info                              : Enhanced AC-3
8 b. R4 Y1 X8 N& N4 P" [( wCommercial name                          : Dolby Digital Plus
8 }+ }. h! A0 @2 {& Q# a3 V2 XCodec ID                                 : A_EAC3
( ^+ L5 M: I' u, O: ~8 i: ~. J. hDuration                                 : 2 h 28 min
: {  T( u7 S  N; @. ~  BBit rate mode                            : Constant5 N  ~* N/ _& b7 R/ h9 A7 r
Bit rate                                 : 640 kb/s
& D7 l" |+ g( j( q* WChannel(s)                               : 6 channels
% b! x' W* G( h6 \$ hChannel layout                           : L R C LFE Ls Rs
- Q' V- }2 i: I- B+ {5 J5 CSampling rate                            : 48.0 kHz
+ C! }% q1 h5 _; m; @- {" v9 \Frame rate                               : 31.250 FPS (1536 SPF). s5 T  l( J/ H9 B6 r- j7 b7 G4 x7 W
Compression mode                         : Lossy5 ^8 U0 D3 _0 P) |4 A+ f% b
Stream size                              : 681 MiB (13%)
+ b8 O5 S9 |" n2 I7 ?Title                                    : British, b$ C$ N. n! ~8 T6 o
Language                                 : English# q! g+ J& V- W! w+ |" L- r
Service kind                             : Complete Main8 x! T0 x3 P. X0 i) `
Default                                  : No
4 S, ^, L) e9 g& _5 Q6 |/ W5 jForced                                   : No
1 k& M  s3 X! L1 {6 {Text #1# h; d. `/ G# g0 n
ID                                       : 40 \; r6 H# |* A
Format                                   : UTF-8
9 U! [8 }  ]; c) g( z0 q8 RCodec ID                                 : S_TEXT/UTF84 i+ \8 ?: ?  V9 l
Codec ID/Info                            : UTF-8 Plain Text  t! a3 L! N. d/ ?1 H& I1 O5 m0 X: @# h
Duration                                 : 1 h 50 min7 M  R$ e3 G% B8 a; t1 F; ]* y. i: u
Bit rate                                 : 1 b/s
, m5 `+ B' b0 \0 R' wFrame rate                               : 0.008 FPS
6 [; A; j' `$ n8 r1 oCount of elements                        : 54
7 Y+ H7 y4 K; R) F7 z/ r. K0 ^Stream size                              : 1.14 KiB (0%)
! u$ v# q. z2 F7 I/ t6 gTitle                                    : Forced0 O7 Z4 w3 P3 }2 |' S
Language                                 : German& P/ T5 ^+ D# T/ ?! D
Default                                  : Yes6 W- j4 _9 E. N! {1 L; v! {2 \. o  ?
Forced                                   : Yes
4 |7 _3 }9 F" a; j! m# a& e: ~; G0 WText #2
3 b- L* f! `% x; _3 IID                                       : 5
1 `) ]- l1 @/ H# C- V& LFormat                                   : UTF-8
. T& z. _  z& i- O$ PCodec ID                                 : S_TEXT/UTF8
2 ^! ]; O6 ?. t" UCodec ID/Info                            : UTF-8 Plain Text
% ~5 _6 A+ C8 c( R6 XDuration                                 : 2 h 13 min
; ]1 u4 _+ ]$ s3 a# }+ TBit rate                                 : 29 b/s8 ]9 y2 q# G8 B9 W8 J
Frame rate                               : 0.126 FPS
! Z! n; v4 n, w" E  {' GCount of elements                        : 1010
" ^% |( E3 j7 dStream size                              : 28.6 KiB (0%)
$ }0 u! {% P' D6 R. zLanguage                                 : German7 k5 J9 G) W% F
Default                                  : No
5 J/ X: d/ \, CForced                                   : No
1 p. t4 _( O4 _Text #3
. Z# I; }5 K2 j; n# x& UID                                       : 6
$ J- H9 x6 _1 k$ _8 Y, _Format                                   : UTF-80 R3 p' ?: H! n) {& m5 o
Codec ID                                 : S_TEXT/UTF8
+ h' [) i1 H+ N# d* g9 u4 I) mCodec ID/Info                            : UTF-8 Plain Text
& A+ [8 B' n! ]/ m0 YDuration                                 : 2 h 19 min
7 S2 d" x, W. h# E! f, WBit rate                                 : 37 b/s
5 p$ s! k6 b5 U2 u/ m- |0 _. }' QFrame rate                               : 0.161 FPS
* j$ l0 Y+ ?. Q1 MCount of elements                        : 1341
* H; b6 E* q4 ^$ i$ i: z2 vStream size                              : 38.4 KiB (0%)$ D- V3 u4 t9 Y6 i  t4 |
Title                                    : SDH; a) t* t2 i; n* W$ b* \' ~
Language                                 : German
- }$ e% u  B; c& e8 \Default                                  : No
- a4 [# P" e6 l; GForced                                   : No
" z. h6 f- [8 H( Y& f2 G- H6 uText #4, g% @# _( M; \! Z5 O
ID                                       : 7
% X& `" ?1 E. `, l' E7 bFormat                                   : UTF-89 W: t  G1 o' Q$ t8 f. q
Codec ID                                 : S_TEXT/UTF8
1 q8 Q- k- T5 C" x5 M( k* CCodec ID/Info                            : UTF-8 Plain Text
! B! w9 K, }" H# {% HDuration                                 : 2 h 15 min
; n4 U5 [- S3 f( ?8 \3 DBit rate                                 : 2 b/s
* e, h3 D, F/ ~Frame rate                               : 0.011 FPS1 ?6 A5 K6 c' v$ F
Count of elements                        : 92: J+ u! N4 i) D/ _
Stream size                              : 2.30 KiB (0%)
5 _: e6 S! w5 H% X6 eTitle                                    : British (Forced)
3 m- S- t! k0 d9 n' h6 ^Language                                 : English
7 }/ S8 i/ Y& }: RDefault                                  : No
# R% y6 Z; i- M( b. FForced                                   : Yes
. c  q* N2 Q9 n9 dText #59 v7 B4 }5 r& [* T/ u. ~5 g: B
ID                                       : 8
' H9 r, X/ T" u. _Format                                   : UTF-8- H7 l' H( G8 l! i5 A
Codec ID                                 : S_TEXT/UTF8
" {4 Q9 M" @9 h& f. wCodec ID/Info                            : UTF-8 Plain Text7 H: q  Y$ ^( w+ O. i9 r
Duration                                 : 2 h 17 min3 D- {7 q3 N: ]* S4 i" o6 {! \' v
Bit rate                                 : 30 b/s8 Z: `5 [% X, f$ W
Frame rate                               : 0.138 FPS( I1 _1 e$ {( d
Count of elements                        : 1138
! v9 H  K9 f2 u$ L/ b8 A  _Stream size                              : 30.7 KiB (0%)4 y7 w1 M3 y% K; K/ ?
Title                                    : British  x4 \% i4 Z$ [3 n  I4 M# n( p" F& b
Language                                 : English- ], V3 v8 B2 _
Default                                  : No
  _. Q1 l1 l0 T& fForced                                   : No7 z+ y! ~1 \6 A
Text #6
' ]  }! n$ P5 w- e3 s3 Q7 k9 zID                                       : 9
) X) u5 M2 z: \Format                                   : UTF-8
' |0 y8 w" w0 @3 h' b3 CCodec ID                                 : S_TEXT/UTF8
& ?- n& \; ^3 VCodec ID/Info                            : UTF-8 Plain Text
7 g( o4 f& v! m- SDuration                                 : 2 h 23 min
' v* m" O) K8 U. @Bit rate                                 : 25 b/s
! b" d2 i" S, k  z: a) ^/ sFrame rate                               : 0.122 FPS
( `# j" y' S/ h, BCount of elements                        : 1049$ _. j. q' q7 S& a5 i
Stream size                              : 27.1 KiB (0%)
9 p% g1 g! f# S% J$ i' z/ DTitle                                    : British1 z" ]9 Y) q" A  D, H7 s) S+ O
Language                                 : English
  E+ i  R' u. ?4 ]7 ~Default                                  : No
, ]8 I% p1 z4 a1 H5 r. SForced                                   : No
7 {% }0 g# o4 H( fText #7: n1 K7 y6 I4 j. p; e: ]( A4 [
ID                                       : 103 X) ?$ R$ Q1 `2 t3 X, w
Format                                   : UTF-88 m% w4 H9 A! t5 v& _
Codec ID                                 : S_TEXT/UTF8
) S( k; s4 _6 k: P0 v6 O3 o0 PCodec ID/Info                            : UTF-8 Plain Text: }  L, ]6 f+ v+ ]$ [" L, m) e# u
Duration                                 : 2 h 21 min4 Y# Z7 {, D, M6 ^" V, K0 i
Bit rate                                 : 38 b/s
% [+ N& b$ ^2 R7 |2 C: hFrame rate                               : 0.172 FPS
" @' E' ?# b3 Z2 R0 {Count of elements                        : 1461, B8 i2 [+ H, y5 ^
Stream size                              : 39.8 KiB (0%)
* v8 b0 U: y) Y% e' yTitle                                    : British (SDH)
! H4 `* y% M$ E" b/ TLanguage                                 : English' ?: v3 e8 P( b$ D6 L5 W
Default                                  : No
* J0 l2 y$ |7 y5 h8 f0 [6 H) VForced                                   : No7 `$ J: g& E. Z7 h& w* ]4 p2 N% {
Text #81 ?1 C6 Q: `" {  n( [! U
ID                                       : 11' |1 v5 K$ [& E" l) \' F  T/ Y
Format                                   : UTF-8/ T4 ]; n- z2 y* _/ V& K
Codec ID                                 : S_TEXT/UTF8( d$ a. q2 w  }( p
Codec ID/Info                            : UTF-8 Plain Text
3 ]" g: a" p  Y; j, DDuration                                 : 2 h 26 min8 ?; }0 b' e+ m3 V5 v8 N
Bit rate                                 : 44 b/s4 p# K4 ]9 X+ u8 H- ~& l
Frame rate                               : 0.119 FPS  p+ v) `' Q6 c# V! C! y4 R4 X
Count of elements                        : 1047
' O% N. U6 k: T1 a: _& ]5 @0 WStream size                              : 47.4 KiB (0%)- X1 D4 G+ u2 K+ \
Language                                 : Arabic' y  g; y: G1 z2 t* `2 a* v. ^1 q* [
Default                                  : No
& j$ U' l; w5 o+ qForced                                   : No
! D' w4 s5 O: _/ e8 A9 z1 }+ y2 VText #9: S5 ]# C' _" ~: }
ID                                       : 12  `0 U4 T+ a2 l; e. a$ n
Format                                   : UTF-8
" s/ G: S# D. L) K; x7 E8 Z. wCodec ID                                 : S_TEXT/UTF88 _, k5 Z1 ], _2 i9 e" W! [
Codec ID/Info                            : UTF-8 Plain Text
4 A& r$ d/ l! xDuration                                 : 2 h 26 min
: z6 A; [9 a1 P# _Bit rate                                 : 22 b/s' U) u: q. @0 l! i1 J
Frame rate                               : 0.119 FPS) `% ]! Y1 M+ Q' s+ p% t1 t& {  _
Count of elements                        : 10486 s6 Y" J2 A5 f  s2 _8 P
Stream size                              : 24.6 KiB (0%)
6 |4 }3 w" e: X$ RLanguage                                 : Catalan, V: L' q8 L, G3 A* G$ j0 B8 c
Default                                  : No2 f$ H! G; T+ q" ~1 E7 S$ i
Forced                                   : No* i& u$ O, U+ E$ \7 i) K) D* j
Text #10
, L  G: Y5 Z; D$ t- ^5 s, vID                                       : 13
. c8 ?/ o7 ]! a' H, f0 U6 \" `Format                                   : UTF-8, V1 E2 ?& v, `8 x. N4 W
Codec ID                                 : S_TEXT/UTF8
6 S) g/ g6 ~! nCodec ID/Info                            : UTF-8 Plain Text4 {9 h- i% F$ W8 J
Duration                                 : 2 h 23 min
8 D- O# t! O* |" w1 |) m" d. GBit rate                                 : 23 b/s7 l0 Z7 f) m5 a9 k9 P* ~
Frame rate                               : 0.119 FPS; Y9 W8 R. ?* A1 ~' x1 r
Count of elements                        : 1027
9 h) E& l( ?) \3 {  m5 DStream size                              : 25.2 KiB (0%)  o5 S6 D: {  G5 m4 [1 K
Language                                 : Czech+ @; |* y; D6 G, D: b
Default                                  : No
2 o0 `. Q  W7 X/ Y( M# W+ UForced                                   : No  R5 h# L3 B$ N( W
Text #11
6 Y7 z# A# ~$ g2 uID                                       : 147 T, I& }: Z2 W8 ^5 k& x
Format                                   : UTF-8
8 \( \* \5 a* @" VCodec ID                                 : S_TEXT/UTF88 m; t7 t* E& q( K, a+ l$ c4 w
Codec ID/Info                            : UTF-8 Plain Text
0 i/ y8 T# y3 y: _; }Duration                                 : 2 h 23 min* H, x! d/ V! d. ^
Bit rate                                 : 23 b/s
) J8 s( b* ^+ U5 o% k+ VFrame rate                               : 0.116 FPS
$ r1 R5 t. q4 s  D3 P( DCount of elements                        : 1004
+ h! ~, i: D- w7 ^Stream size                              : 24.7 KiB (0%)
$ a1 Q* ^2 z$ w8 U$ j* uLanguage                                 : Danish2 m6 @- I! g, L& f1 \; @; Q3 s9 C
Default                                  : No
  l( `' w+ C, ?0 y* V2 k& u  _1 _% \Forced                                   : No
- m: j# g1 C% t. x$ MText #12
+ i, {: Z+ [/ K5 D- Z9 |% o# bID                                       : 15
4 T+ A" O9 {  a" b1 T6 XFormat                                   : UTF-8& T: h7 I, r; R- u& ]
Codec ID                                 : S_TEXT/UTF8
2 \9 W% X1 F: [) [# U" UCodec ID/Info                            : UTF-8 Plain Text
/ g  G. _4 b9 V' f* g/ }Duration                                 : 2 h 26 min
% F- }% q4 C$ e% @. zBit rate                                 : 41 b/s
0 U7 q1 R% @' o, ?$ CFrame rate                               : 0.121 FPS
( `0 Z2 t4 R( iCount of elements                        : 1067
9 V# o' S$ G/ U! b8 zStream size                              : 44.3 KiB (0%)$ R' E, t6 [; p5 M4 t
Language                                 : Greek8 G/ h) l+ [3 Y: ]$ j
Default                                  : No
/ j, U% I' w  Z0 D9 _4 ^7 o+ OForced                                   : No1 {2 j5 [0 ~& I; h
Text #13
$ J' v3 ~5 t* H# N. LID                                       : 16
; C: |9 J  k5 u8 Q9 u- l$ a9 mFormat                                   : UTF-8. ^3 B- I) A* b7 q
Codec ID                                 : S_TEXT/UTF83 E# ~$ N# F) |- ~5 ?" I5 [
Codec ID/Info                            : UTF-8 Plain Text1 S3 T2 U4 N  d( {
Duration                                 : 2 h 23 min) D; _& M: f2 i8 J
Bit rate                                 : 24 b/s  ?% ?4 R/ Y+ u) k( v% [4 f& n
Frame rate                               : 0.117 FPS" |$ M/ j. F, ?/ q3 E
Count of elements                        : 1009
2 U6 Z2 P5 ^+ c$ Q+ M! p: u! KStream size                              : 26.2 KiB (0%)% ~5 D: w5 f* r1 p- ?
Title                                    : Latin American
" b0 ^" B+ p  l1 MLanguage                                 : Spanish$ e9 u3 L! z# `! X
Default                                  : No
$ i/ D. D8 t4 y3 KForced                                   : No6 k0 e% \+ z5 l$ r' g+ `
Text #14, Z/ x7 j/ U! Z/ ~4 r1 }
ID                                       : 17! o% d  J2 B2 B4 p8 j
Format                                   : UTF-81 L4 K  [9 A. |/ p2 M+ ~! ]8 h" e4 ?
Codec ID                                 : S_TEXT/UTF8
1 |$ `) Z) m" B6 cCodec ID/Info                            : UTF-8 Plain Text5 x5 P7 y2 }! v* V
Duration                                 : 2 h 20 min
) N' M2 k% E6 O8 PBit rate                                 : 32 b/s1 A+ e7 p+ q4 R6 U7 d8 ~
Frame rate                               : 0.154 FPS
1 ?# `6 F- K% x5 P$ |" pCount of elements                        : 1296: W6 I4 k, x5 ], `  j
Stream size                              : 33.8 KiB (0%)
5 P& ^- b/ r" Q' u- ITitle                                    : Latin American (SDH)4 A7 e) ~  `! |# ]9 n" p& m0 s
Language                                 : Spanish
- E- \2 v; L1 q* Y" z% F" p6 FDefault                                  : No
2 }8 E# A9 b0 w# J5 n7 a; FForced                                   : No
2 T' b* f0 a9 h. b" ^8 sText #15) C) C% R) M* x' E
ID                                       : 18& L, N7 x! \% a& y6 C/ A5 }3 J
Format                                   : UTF-8' v  I: M2 K- w0 ^
Codec ID                                 : S_TEXT/UTF8' P: @, ?. @2 y  i% _4 b
Codec ID/Info                            : UTF-8 Plain Text6 f: V$ `4 m0 z2 `7 {$ _9 b' ]9 e$ I
Duration                                 : 2 h 23 min+ F) G' q$ }5 d( X0 R
Bit rate                                 : 25 b/s
7 W7 W: u; b0 a( j7 QFrame rate                               : 0.120 FPS( m2 ^# U$ \- I* V' N0 Y5 \
Count of elements                        : 1039; [& q! q$ C8 @) L
Stream size                              : 27.3 KiB (0%)
/ S3 L* [( A6 R/ `Language                                 : Spanish3 ^# _5 X1 s  Y' l+ ]% w
Default                                  : No, f0 J7 U9 R! J4 a" `
Forced                                   : No
" V/ r- B% }! ?Text #16
2 l6 E" C& I' B+ E+ M0 v9 eID                                       : 19% k. T5 E$ Z; t0 ~9 ~+ y+ O
Format                                   : UTF-85 b2 x+ ]4 M  Y
Codec ID                                 : S_TEXT/UTF8) a( [8 F6 }. m
Codec ID/Info                            : UTF-8 Plain Text' V9 ^) V- C3 A
Duration                                 : 2 h 26 min
6 o8 L) I7 J, h7 O# g6 A. KBit rate                                 : 25 b/s0 O+ t( j. b( V3 z- i
Frame rate                               : 0.119 FPS
% c1 W" O; q8 n* m  fCount of elements                        : 1050; y% r4 k6 u! G) f, e
Stream size                              : 27.5 KiB (0%)7 C/ Y* s4 x. G& ?2 h- X% D- ]
Language                                 : Basque
  U8 b: B& V, J' a: x% Z; P& i9 ZDefault                                  : No
  Z" Q! o! X7 U# ~7 aForced                                   : No
4 o* S* a& p) \Text #17
" ?" ]3 v9 Q. b. [! U( _2 OID                                       : 20
/ }' F' [& c- R2 @; M, ~. _Format                                   : UTF-80 h1 J4 L' e5 B9 t
Codec ID                                 : S_TEXT/UTF8. K* ^' j( x- {& ^
Codec ID/Info                            : UTF-8 Plain Text
. L6 y$ s- p8 }0 D- q1 d, _Duration                                 : 2 h 23 min
  ~6 A2 D  S! ?# o0 v! O5 hBit rate                                 : 22 b/s
- [" j' c4 M2 q( m0 \# P; G! Z4 CFrame rate                               : 0.101 FPS7 r8 O3 o% K+ h- ], e6 K$ _
Count of elements                        : 8726 ]5 Q. T: P+ ^7 R' u5 Y
Stream size                              : 23.2 KiB (0%)
3 M# H+ H3 Q) z% vLanguage                                 : Finnish
- o7 e( `2 }3 e9 J3 ^% ZDefault                                  : No
, Q. q+ H8 e+ l1 u4 @) B9 qForced                                   : No$ [  t- ?" i% P2 I. B: S% f% w/ R
Text #181 ]6 X0 x! X9 ^4 j2 k+ X
ID                                       : 21
# k  p- d* }. j4 l; i/ Y: p, ?3 CFormat                                   : UTF-8
7 r8 q  @" Y# OCodec ID                                 : S_TEXT/UTF84 ?* J0 _1 N; F) \
Codec ID/Info                            : UTF-8 Plain Text1 u: O8 _7 |4 b) A8 c& F
Duration                                 : 2 h 26 min8 L9 j- y+ X: D1 f
Bit rate                                 : 26 b/s4 m& y) U- s; x6 D6 h& o8 ?$ D" y3 z
Frame rate                               : 0.120 FPS9 p: M2 i) C9 }
Count of elements                        : 1053' p6 b7 A3 y2 v5 h. G
Stream size                              : 28.1 KiB (0%)
7 ^, ^# M0 w, E4 a+ L: [, WLanguage                                 : fil
2 j5 S- J/ s; I- e7 Y6 VDefault                                  : No
% E2 m6 y& d' B) F6 M6 aForced                                   : No
3 x! x  x# P; E% ?) E/ W" z" SText #19
0 g. C/ i- r9 I$ v. aID                                       : 22; y1 V+ g% `5 a8 J7 V
Format                                   : UTF-8
  i$ F9 @) D* tCodec ID                                 : S_TEXT/UTF8
# ~4 Q* b& G; v* v+ @' ?Codec ID/Info                            : UTF-8 Plain Text
0 [6 S: W& _, Y: q$ H$ p' g1 c- aDuration                                 : 2 h 23 min2 b# X, L# z  V) }0 e
Bit rate                                 : 24 b/s  A  \2 W' ^2 b5 J, S% I! z; F
Frame rate                               : 0.113 FPS5 I: l+ r2 A0 G( v, W8 g
Count of elements                        : 975
+ O0 }; ~9 v3 {3 J. wStream size                              : 25.5 KiB (0%)
( s$ R- G6 P- A4 ]# \: W7 L& qLanguage                                 : French
" v% ^" ~7 p  w3 j7 o0 GDefault                                  : No
) X; `- A' H4 i; L0 @Forced                                   : No
6 J* S1 S( {( @" I, Z% j; rText #20
8 b0 P* B1 ?, t3 e( s$ TID                                       : 23
7 {1 {" J0 D7 d4 J$ xFormat                                   : UTF-8
( n( S! X( N9 XCodec ID                                 : S_TEXT/UTF81 H. |0 _( Z0 d9 I
Codec ID/Info                            : UTF-8 Plain Text
$ u8 v) o% a6 J. Z/ U! _4 wDuration                                 : 2 h 26 min
+ }4 [, L; x3 M% e% M) @Bit rate                                 : 23 b/s
& H. ^( O" v4 j' r. x% MFrame rate                               : 0.119 FPS3 {# L$ }4 m/ |& a+ P. E. n# s
Count of elements                        : 1047
- s% W, G, z* w; W+ z4 zStream size                              : 25.0 KiB (0%)- f: O4 ?* |# n5 z& Z' \3 P
Language                                 : Galician$ _# k0 T- A0 M' _1 _
Default                                  : No
: H% Q0 o: T+ K- y: H) o/ ZForced                                   : No# {6 x0 x5 K; x
Text #21  q1 @) M# E( s- l# s) y
ID                                       : 24
8 C' n8 S" u0 k+ {Format                                   : UTF-8
2 x' ^- r6 E$ F# kCodec ID                                 : S_TEXT/UTF8
' I/ c) X: {7 e$ K9 N0 bCodec ID/Info                            : UTF-8 Plain Text$ |. ]" x' {8 x( V$ _) \8 _
Duration                                 : 2 h 23 min: h, B3 O2 O( U
Bit rate                                 : 40 b/s
. A1 g/ w9 g/ H$ x2 S, G  qFrame rate                               : 0.122 FPS
8 K, J& Z# a. B/ d* LCount of elements                        : 10531 Y3 p2 S6 {* o( X9 ~  X$ I
Stream size                              : 42.3 KiB (0%)# X2 j- ~  a. y7 B
Language                                 : Hebrew' ^- Z% Z$ m* S
Default                                  : No& |' o5 @0 h& ]
Forced                                   : No
4 _5 @/ h3 G6 V6 u8 s7 Z: vText #22
! y( W4 h! n  \; b; S7 vID                                       : 25
% E* ^" Z7 U' T6 `8 f6 B/ HFormat                                   : UTF-8
0 W8 Q0 m# o2 `  ]Codec ID                                 : S_TEXT/UTF8
9 ~! X) y3 Q9 R0 V. VCodec ID/Info                            : UTF-8 Plain Text
* F3 Q- Z( j! z7 z% TDuration                                 : 2 h 23 min
. S1 {, c+ f) y: RBit rate                                 : 22 b/s2 \* l3 }" h9 {& Y  g
Frame rate                               : 0.119 FPS
. {+ b. {* K' F* p* {( NCount of elements                        : 1030
+ f. L- u1 P1 F/ M2 d6 Y% gStream size                              : 23.4 KiB (0%)
' {! {) W7 u4 Q4 }: q& ELanguage                                 : Croatian8 _! \! n. B8 B0 q4 M# ?( z
Default                                  : No: D- q* {0 o3 Q* ^- Z
Forced                                   : No
" `2 y& e2 O  P9 T8 LText #23% \+ j/ X4 l# r5 j! R: v2 Q
ID                                       : 26& S$ R. W5 J- V. }$ M; E0 n
Format                                   : UTF-8
2 A5 q2 o" x4 q/ p9 zCodec ID                                 : S_TEXT/UTF8
$ ^# d8 N- b; ^/ `1 K6 L0 }Codec ID/Info                            : UTF-8 Plain Text
/ ~0 A% D; m3 _) T8 vDuration                                 : 2 h 26 min( A5 K' T3 l1 \' ^/ x1 z, j
Bit rate                                 : 25 b/s
! S* T2 d9 n6 M, t: U) eFrame rate                               : 0.116 FPS' N( |  Q' O( U
Count of elements                        : 1018- f/ ]9 B; {* s- x" o
Stream size                              : 27.1 KiB (0%)
) A9 Y* f# d% dLanguage                                 : Hungarian
7 `- a3 y/ ?- ?) ?/ oDefault                                  : No0 R% u6 ^& B  j" d( W
Forced                                   : No) Z9 N) V) U5 i  C. r
Text #242 ]1 `( ~7 \2 k  n2 X( F
ID                                       : 27  |; N  C: p4 Y$ \3 t/ X
Format                                   : UTF-84 J3 k5 Z8 V7 S- I3 K% c
Codec ID                                 : S_TEXT/UTF8
+ j/ w- u# y9 l: ^Codec ID/Info                            : UTF-8 Plain Text; c8 f# X8 V/ \# l6 j7 m) M+ v. F, T
Duration                                 : 2 h 23 min0 ~# b# w0 b9 A! d
Bit rate                                 : 25 b/s" V, n# W0 z& V" o& r
Frame rate                               : 0.122 FPS
% h7 ^; j0 E- r; y3 a" `  U( hCount of elements                        : 1053
4 ]" a& p0 {0 G" p8 G3 ^Stream size                              : 26.6 KiB (0%)- L4 P  L4 l1 N) d* b
Language                                 : Indonesian3 s7 F+ y2 h5 X) h/ t" n
Default                                  : No
- I: [) W" o/ QForced                                   : No9 C, q* R6 R; Q: }' ]9 L, F
Text #257 R+ _7 s2 a9 g  Y/ i
ID                                       : 28) b2 S( ]& `) i* g
Format                                   : UTF-80 c5 S; d7 t* C# p' a0 u! c3 b
Codec ID                                 : S_TEXT/UTF81 M, {, `; u; m" l8 M: K) l2 P
Codec ID/Info                            : UTF-8 Plain Text: J1 h2 ~& }' Y
Duration                                 : 2 h 23 min
( a, N+ z" @7 o1 e4 W% I/ hBit rate                                 : 23 b/s
. o5 o/ E0 r. cFrame rate                               : 0.120 FPS: _& E7 Z( U. T+ I# q# X7 D
Count of elements                        : 1033
' b. Y& F. ?6 a5 ZStream size                              : 25.3 KiB (0%)' ~& J7 b  i: B( W6 l  S) h  t5 a
Language                                 : Italian% ~" l# t5 @3 G
Default                                  : No8 c+ B* Z( c. _2 c+ M6 H' H; e
Forced                                   : No
7 i( e  @! G1 q; sText #26
  \  o- `% u9 n. Q! L) BID                                       : 29
, x4 j8 e0 \5 Z/ c; cFormat                                   : UTF-8
$ \$ W$ ~5 p! ]+ S6 L5 gCodec ID                                 : S_TEXT/UTF8) `. ^2 z* {0 |- @* s6 {8 K+ O# Y
Codec ID/Info                            : UTF-8 Plain Text) @8 ?& A9 }! J( O  B
Duration                                 : 2 h 23 min5 S; ?4 ^- y+ r9 F4 G0 O
Bit rate                                 : 25 b/s
& ?; F5 t; S9 p" I5 }Frame rate                               : 0.111 FPS6 @3 I$ q% S$ a1 m$ T
Count of elements                        : 955
" w% k) C9 v$ {9 ~. JStream size                              : 26.6 KiB (0%)
; e* G' s7 t8 a  t) e  H$ ]Language                                 : Japanese  U8 ]- f% a" m: x) j
Default                                  : No
6 I8 I6 y9 i, s3 C$ cForced                                   : No
9 {1 ~) }- L7 C, C+ {; f9 aText #274 s* ]( y+ v8 I( a7 X; ?; q
ID                                       : 30
% [  S2 M3 B  s( X3 Q0 r0 GFormat                                   : UTF-8
, M; R- x3 c8 V% G1 t- t4 }Codec ID                                 : S_TEXT/UTF8# i1 o: O! D- H6 |( ^
Codec ID/Info                            : UTF-8 Plain Text
, D3 x- |6 A  @7 ]Duration                                 : 2 h 26 min
4 H2 e3 |7 w' E$ Z+ r8 V: Z3 l& @Bit rate                                 : 31 b/s6 i$ z. u7 Y- `1 J& `. h& V+ g
Frame rate                               : 0.120 FPS
+ x6 P9 n" e! \# C, y: I, FCount of elements                        : 10604 u1 K3 J  W1 c) e
Stream size                              : 33.8 KiB (0%)
5 R3 e6 S6 O# l/ o* d; ALanguage                                 : Korean
' |' Y: r. r( P( a- UDefault                                  : No
4 w* K" i; A, Q& k1 y; C. X1 N" yForced                                   : No8 X3 O: m* K5 T5 L& l( K5 U# F
Text #28
* }/ K$ X5 V9 l) {4 O7 Z( PID                                       : 31: ?' ?; ]$ Q  Y% e: k4 S
Format                                   : UTF-8
, ?  o4 `1 m5 m" C* h% [9 FCodec ID                                 : S_TEXT/UTF8
8 ]1 w. Q/ r& C9 t/ r1 x; f1 dCodec ID/Info                            : UTF-8 Plain Text) ], I. ~  {4 d1 E
Duration                                 : 2 h 26 min
* u9 a6 i# L0 `; s3 y) LBit rate                                 : 23 b/s0 T5 F0 K* p) k0 m
Frame rate                               : 0.120 FPS* P+ p: F) d+ ?; K4 M0 {' D) R8 B
Count of elements                        : 1052
3 S/ p& d1 R9 J+ a4 C1 Z, VStream size                              : 25.2 KiB (0%)
+ B7 H9 B7 i+ F$ f- b  DLanguage                                 : Malay
+ K0 J' ]6 Q% b/ W7 W4 \( ZDefault                                  : No
8 g* h6 K6 j3 j4 jForced                                   : No
6 T$ |9 h8 J4 A) _5 xText #29
$ a0 |5 _; X4 t! c; MID                                       : 32
* F+ j+ O8 q& @% M( R) k6 A' I) iFormat                                   : UTF-8' _9 u6 e' v( A7 V
Codec ID                                 : S_TEXT/UTF8
0 z$ ~' N+ @# a( v8 v% K8 [Codec ID/Info                            : UTF-8 Plain Text
8 x4 V. o4 Z7 ]# z1 s/ q; oDuration                                 : 2 h 23 min
1 N4 e3 C5 W) T; V# YBit rate                                 : 22 b/s
3 h9 u, Z7 `" D( O6 B1 cFrame rate                               : 0.121 FPS; J+ M! |: d3 w8 I1 E; `
Count of elements                        : 10455 N1 s" w+ m* `2 k4 G( ?9 `& C
Stream size                              : 24.1 KiB (0%)6 Z8 i: x2 @3 ]! w+ r& f) g) \# P
Language                                 : Norwegian Bokmal
2 l- W4 s$ P% A, l1 {% fDefault                                  : No
+ Q; \; f- J5 @% N. ZForced                                   : No
- x+ p: J# V3 o. u2 Z  i+ _Text #30
* R" L  W5 y& t' j$ W9 q( @- |ID                                       : 33
4 D4 K7 _, a: K& r% |Format                                   : UTF-8% Z4 K2 b; K8 \, u" A, L! N
Codec ID                                 : S_TEXT/UTF8
( b# l  O2 I+ q6 n9 w9 {Codec ID/Info                            : UTF-8 Plain Text
, M& V4 ?' t- o1 w+ v. l  A9 e1 uDuration                                 : 2 h 23 min
; S& R/ E  e" F5 _2 r! A  ~Bit rate                                 : 22 b/s
, ]  A( o8 V; P/ H6 Z. L) J( v) j4 zFrame rate                               : 0.110 FPS
0 e" b# |2 J. \, L2 N3 CCount of elements                        : 952
) C- \3 b' x% L1 JStream size                              : 23.9 KiB (0%)1 u% Z5 a# p1 C9 t/ M3 Y; W! w* p
Language                                 : Dutch% b3 Q% i5 g2 w) h, Y$ q) \+ `
Default                                  : No9 E& S6 _! G* {4 c
Forced                                   : No) k' _/ u9 `. d7 y
Text #31, O3 B& ~$ H- A  O; ?" t
ID                                       : 34$ {. Q) O7 v  W( S' ~9 x
Format                                   : UTF-8; D6 i/ Q4 @. _* W  T( a
Codec ID                                 : S_TEXT/UTF8
0 \' [& Q% a) X1 c# w/ BCodec ID/Info                            : UTF-8 Plain Text) L+ {1 h) Q$ L
Duration                                 : 2 h 26 min
* i5 R9 {2 }6 f' V$ ?Bit rate                                 : 20 b/s7 p% ^! x0 g1 Y- C
Frame rate                               : 0.108 FPS
) n2 Z2 _0 w( tCount of elements                        : 950
; B4 k. i( ], j/ `Stream size                              : 22.3 KiB (0%)" B  Y( W$ M$ O' X) u8 e
Language                                 : Polish# L$ j6 _* l* A( F
Default                                  : No
% ^' P2 s% ?( k; u7 R- |* T# t1 g( y$ \Forced                                   : No
4 ^9 [* N  Y1 ^0 EText #322 x/ a4 K+ O+ c: `9 T% @+ H/ L
ID                                       : 35
7 H0 P7 d& \) x# Y+ h3 hFormat                                   : UTF-8. u, z) ]0 l( q6 J7 {
Codec ID                                 : S_TEXT/UTF8* f8 c' m5 g1 y2 F
Codec ID/Info                            : UTF-8 Plain Text0 X2 y; L6 l; w) \' j! I
Duration                                 : 2 h 23 min  c8 i, m# B5 [* j# N" H
Bit rate                                 : 25 b/s5 X5 m: c3 J1 t( d7 `( z
Frame rate                               : 0.121 FPS
; S  ~3 R8 Y! R/ r, t8 J/ rCount of elements                        : 1047: M5 {- O- m! `$ ?; K8 a2 @1 b2 T, Y
Stream size                              : 27.0 KiB (0%)
, z- V; N. I4 ]5 mTitle                                    : Brazilian
+ P/ z; g0 s8 q; ^" E8 T" TLanguage                                 : Portuguese
* a2 z! r+ Y3 G4 i$ p- _Default                                  : No
1 V/ C- y# j$ @Forced                                   : No# c# j, S4 G/ z0 ?9 u, d% u
Text #33
& L* v2 c) {0 V% `ID                                       : 363 P5 Z3 R/ G9 v! E5 e, V; N. W
Format                                   : UTF-8
5 Y4 g$ p1 X" \' [6 oCodec ID                                 : S_TEXT/UTF8
+ }' Q( r+ E  @: Q; F4 T- \/ @$ kCodec ID/Info                            : UTF-8 Plain Text
1 F& M' ]( v% I& @; K' \# tDuration                                 : 2 h 23 min
+ f4 ^5 m& {8 M0 \; \5 [$ oBit rate                                 : 24 b/s
& `/ b6 h0 B' `  z+ ?# R1 b2 HFrame rate                               : 0.120 FPS- G3 Z  z3 [! L. D/ {
Count of elements                        : 1036
* p: n: K; U% s3 uStream size                              : 26.2 KiB (0%)( F! `0 s9 F$ W( U& N4 s
Language                                 : Portuguese$ H) t: k4 Z/ ^- |" E% A' @
Default                                  : No
; v) N; a9 a9 f# l. SForced                                   : No
" e/ r+ z3 E1 P3 j2 a1 Z* ]' gText #34
* w/ p6 O1 y5 j8 c5 ^: TID                                       : 37! l4 s0 s3 N  N9 H0 Z' ?
Format                                   : UTF-8
% R, D7 K( N; {Codec ID                                 : S_TEXT/UTF8
  A$ |# V& N. B! x: }# `Codec ID/Info                            : UTF-8 Plain Text0 L) [. q; B/ k6 `( @: y& |
Duration                                 : 2 h 23 min/ J! `1 }& K+ H9 `2 o: g* P
Bit rate                                 : 29 b/s
1 S% o0 Z/ @; W, I7 LFrame rate                               : 0.117 FPS
3 ~8 a1 ?, r" v: q. sCount of elements                        : 1014! ?8 T4 y7 w: ^5 Q, T0 W7 B
Stream size                              : 30.7 KiB (0%)
( ~+ J$ y3 G9 q6 ]Language                                 : Romanian
1 k3 h: z' `# _6 u: v2 L+ eDefault                                  : No0 l, M* A, I0 e; A! f6 D: R
Forced                                   : No3 f- Y5 y& f0 o* i& v- s
Text #35
" ~0 @2 L0 }$ r2 q- LID                                       : 38
0 o8 ]. b; u+ p2 f, G" nFormat                                   : UTF-8
  d- Z! a& c1 q5 y# u' kCodec ID                                 : S_TEXT/UTF8! N: Q! x% K' n  |9 z8 D# X
Codec ID/Info                            : UTF-8 Plain Text) a+ u8 o( a  i6 p4 V/ U1 X' b- T
Duration                                 : 2 h 26 min
2 }; ]- a' X5 a; [5 r0 h7 OBit rate                                 : 38 b/s
, M/ C3 l/ }, w4 \  _Frame rate                               : 0.117 FPS
- r9 y; e% b0 b2 H9 a: OCount of elements                        : 1028* u, w' H& _3 ~2 R
Stream size                              : 41.2 KiB (0%)
- q  k( Q0 M% S, J5 }Language                                 : Russian
% j4 o0 L& B. Q  e7 UDefault                                  : No" D. r5 Z4 x  r- z: I$ o
Forced                                   : No
+ |6 ^+ _. n1 O/ dText #36
* ~* d9 Y) s5 P9 Q3 uID                                       : 39
. _% H2 L/ l* u; [3 I/ EFormat                                   : UTF-8
$ y5 l5 L6 x1 U# l- lCodec ID                                 : S_TEXT/UTF8
. p& B; v( N2 |1 QCodec ID/Info                            : UTF-8 Plain Text
3 R! f- s8 Q% H, Z1 {  [Duration                                 : 2 h 23 min
# o0 l9 L. x# l' `8 l( YBit rate                                 : 25 b/s! V( [( Q9 m, k4 s- i
Frame rate                               : 0.107 FPS6 E% I* N! W6 h
Count of elements                        : 922
) a) l$ Z; A' Z, EStream size                              : 26.6 KiB (0%)
3 z/ p6 s6 ?) J& |# r8 HLanguage                                 : Swedish3 q& R5 L) y) ]1 e# J9 t
Default                                  : No
: [8 q/ k! M8 G0 ]& }) E, X2 sForced                                   : No
# Y( L# a  p* b; h$ g$ {7 hText #373 v/ E7 ]7 X5 U' T- _. ^  C
ID                                       : 40# f7 X- E" K0 V- n+ O) v+ G
Format                                   : UTF-8$ [' R( a2 G  e* V2 U5 C( A! G
Codec ID                                 : S_TEXT/UTF8
6 E9 ~, c! [8 p2 G8 P5 B! B3 cCodec ID/Info                            : UTF-8 Plain Text6 s! i$ V7 N3 G6 I- T( S( C
Duration                                 : 2 h 26 min
% D' n8 s8 W# W  _) jBit rate                                 : 65 b/s
+ U: b- {1 f7 Z- p6 P5 }Frame rate                               : 0.120 FPS
! v' i8 C0 K: \8 DCount of elements                        : 1059
' ~0 ^6 W( n; ]9 l' ]& X2 gStream size                              : 70.6 KiB (0%)
' s4 v. C  L& ]( K2 ^* rLanguage                                 : Thai
4 i7 {  [% ]% I, q9 o1 u- {Default                                  : No
3 D3 X2 s9 V. U: x) x: [' V+ ~( [Forced                                   : No: M9 J: d, v- A' y3 F( A, P) |
Text #38
  X: ?( T: s  l6 x6 ~3 pID                                       : 41
8 K" U' ^  f, d  k8 i8 G$ g; gFormat                                   : UTF-85 Q, L* ^: X- h. R0 j* n/ u
Codec ID                                 : S_TEXT/UTF8* x2 Z: G1 ?  N- S( K& k0 E7 M
Codec ID/Info                            : UTF-8 Plain Text: [+ K* n9 i8 Z( ]
Duration                                 : 2 h 26 min; l/ S; J2 ^/ c4 j3 A
Bit rate                                 : 23 b/s
! r: A. ~& c+ m" M  W7 B7 y  w+ `Frame rate                               : 0.116 FPS. D' t% m3 l1 b3 a, ~- d% n
Count of elements                        : 1019& G' t, d7 @  `' u. R
Stream size                              : 25.7 KiB (0%)
7 W+ X1 U; ~* e7 `; _Language                                 : Turkish& X# P5 H1 v# E! M
Default                                  : No+ j! d* b. }9 z9 z$ {" }
Forced                                   : No
( n# E2 b5 o$ c% C( ~, eText #39' h6 w/ ~4 H( N( x8 o8 k
ID                                       : 42
: w; B& D& u8 YFormat                                   : UTF-80 v6 I" @8 w9 a
Codec ID                                 : S_TEXT/UTF8
8 l- b7 _& \, M' UCodec ID/Info                            : UTF-8 Plain Text
2 X8 D5 Z) r3 X* y, zDuration                                 : 2 h 26 min
, J1 d, S- _0 Q' T/ j1 Y0 FBit rate                                 : 43 b/s. o+ n6 I8 }) @* i. w
Frame rate                               : 0.193 FPS/ N& n' n/ g" Y
Count of elements                        : 1696% V' _0 h: x8 ~$ _
Stream size                              : 47.3 KiB (0%)
$ R0 r- F) Y( C6 UTitle                                    : SDH5 \! g+ J6 P( m# @9 y9 Z! @6 E7 E
Language                                 : Turkish
0 e/ x5 p- A+ y) Q3 L$ d' @Default                                  : No
  ~: }2 k$ {* [$ }5 p& qForced                                   : No' @- c6 E* j; u9 D7 L4 |1 |9 X
Text #40; C  w) ~/ O  Y* {' p: |8 W
ID                                       : 43' }% C& Y* H0 F  [1 s+ Q" P2 G
Format                                   : UTF-8
$ D0 g% a( G7 N& q) K& u. YCodec ID                                 : S_TEXT/UTF8
, M& a  m' t- s7 cCodec ID/Info                            : UTF-8 Plain Text
$ w' V! u( k: q9 ~Duration                                 : 2 h 26 min/ S6 h, G0 Z  E$ r% q
Bit rate                                 : 39 b/s7 ^4 d% [2 ]! ^% w
Frame rate                               : 0.118 FPS
+ U7 x* y. s3 c( zCount of elements                        : 10368 i1 _: Y5 h9 a* O& p
Stream size                              : 42.2 KiB (0%)
$ m: q$ q3 S; U( J8 Y; DLanguage                                 : Ukrainian; h- l# Z: {$ c, U* S3 c3 H( x
Default                                  : No/ x" i  F0 Y4 B# K. J
Forced                                   : No/ w$ ^; N& Z" o. z" |, u% f
Text #417 Q+ X! h7 f7 \7 B  U) M
ID                                       : 44
9 S# a7 |$ U- V# r1 o! @9 @Format                                   : UTF-8
4 f. S3 k# {3 R- G9 E. ]9 \6 z; aCodec ID                                 : S_TEXT/UTF88 O! M0 o" X3 k$ c7 f; s; j
Codec ID/Info                            : UTF-8 Plain Text
8 b- b" @) X7 K1 ]4 w) h% V9 l/ FDuration                                 : 2 h 26 min1 h& \  v4 [% q$ M; E
Bit rate                                 : 33 b/s( Q3 Y5 e2 l4 X" T
Frame rate                               : 0.120 FPS
) o" u" z# O% L% iCount of elements                        : 10576 m- L7 }3 \4 F  i1 A( c* ]) w
Stream size                              : 36.2 KiB (0%)
6 C. @/ {) k' s5 C2 L8 ]4 }Language                                 : Vietnamese# l) _) y9 Y5 h( V9 {% G
Default                                  : No
, V) x: r. ]' J9 m/ F: bForced                                   : No7 R0 l$ m* c3 Q, N, s, A
Text #427 p# j. v- U$ p1 f: y: @
ID                                       : 45
# f, N/ f4 D8 Y; G3 L* gFormat                                   : UTF-8
0 D7 ~) z9 }4 w* d! MCodec ID                                 : S_TEXT/UTF8
" j3 _+ T6 L; eCodec ID/Info                            : UTF-8 Plain Text
0 ^$ P5 D  w; A6 oDuration                                 : 2 h 26 min
. Z1 }( ~$ w, @- f" A6 T0 zBit rate                                 : 26 b/s
& T/ _; e7 p6 d- tFrame rate                               : 0.132 FPS; Z# N( S: m( j5 {% v1 V5 _$ ~0 W
Count of elements                        : 11588 N# n/ X5 r4 G
Stream size                              : 28.5 KiB (0%)
' H$ u! T6 x1 ?. g# D1 J! f  ?7 oTitle                                    : Simplified" x1 x5 f/ F6 X5 f2 i8 V
Language                                 : Chinese+ h, J8 y( N/ \( F0 d
Default                                  : No
7 S  u5 x, {7 z7 r0 y2 X; }Forced                                   : No
4 K, \* ?/ [# P0 ^4 ^1 d! E" X" Y" tText #435 z( O  O# P2 R3 j6 L% t% ]" N( G# s! b
ID                                       : 46
% J& t0 q  N% v) i0 S+ v3 EFormat                                   : UTF-8
, R+ h3 P4 f; ^; c, G& \) d1 ACodec ID                                 : S_TEXT/UTF8$ b+ g! g: b# {; o  y7 x( y% P+ X/ ?
Codec ID/Info                            : UTF-8 Plain Text6 G: C. X  v* }% z# s2 D
Duration                                 : 2 h 23 min" D( S9 L$ G4 A2 a6 @4 n. G8 k. O
Bit rate                                 : 26 b/s2 O7 Z8 P# W* t& U0 D
Frame rate                               : 0.123 FPS
) K3 ?7 A7 t' X0 W8 E* lCount of elements                        : 1061) F1 ]9 q* o# ]: M
Stream size                              : 27.7 KiB (0%); Z$ T2 z% l6 S( w9 K
Title                                    : Traditional; ^  U. M8 `9 M& [5 \  U$ ?
Language                                 : Chinese
1 G2 b' w" ~3 m/ {; h5 d( qDefault                                  : No! |0 l; o8 h2 n
Forced                                   : No

8 H4 K! A( S8 J7 Z- @; \
游客,查看本帖隐藏内容请回复 | 加入VIP可免积分免回复 了解详情 | 还不是会员:点击获取邀请码 Invitation Code

0

主题

589

帖子

2256

积分

Sponsor

金币
29 枚
体力
953 点

签到达人勋章

QQ
jiyugen8180 发表于 2022-10-30 16:11:20 | 显示全部楼层
每天都来蓝光论坛看看,我爱蓝光电影。
* G8 b2 ?4 v( C& S# R  h) s! ]# I5 uThe decisive Replies sink is I get the sinking feeling great sense of accomplishment!" D2 c: h* i! _: D' r! t

4

主题

1462

帖子

4602

积分

Sponsor

金币
1 枚
体力
1704 点
QQ
davidqin 发表于 2022-10-30 17:47:52 | 显示全部楼层
楼主发贴辛苦了,I*老*虎*U!
8 s  h" L4 [* V  }8 Z, IBlu-ray Film Forum is now my home!; e( r0 C8 l6 t; h

0

主题

44

帖子

454

积分

Sponsor

金币
18 枚
体力
342 点
cawhong 发表于 2022-10-30 21:02:44 | 显示全部楼层
感谢楼主,楼主NB
* P4 T7 n, \1 `- }+ g7 u

0

主题

187

帖子

1462

积分

Sponsor

金币
243 枚
体力
789 点
XN15 发表于 2022-10-31 14:03:45 | 显示全部楼层
每天都来蓝光论坛看看,我爱蓝光电影。
  d% `: u7 e! R. BThe decisive Replies sink is I get the sinking feeling great sense of accomplishment!

0

主题

108

帖子

482

积分

Sponsor

金币
0 枚
体力
263 点
chamroenlee 发表于 2022-10-31 15:12:59 | 显示全部楼层
戰爭片經典大片,謝謝分享!

0

主题

123

帖子

723

积分

Sponsor

金币
60 枚
体力
408 点
dorischy 发表于 2022-11-7 09:32:05 | 显示全部楼层
每天都来蓝光论坛看看,我爱蓝光电影。  

0

主题

841

帖子

3252

积分

Sponsor

金币
248 枚
体力
1305 点
lfvvzc 发表于 2022-11-16 14:54:28 | 显示全部楼层
看了LZ的帖子,我只想说一句很好很强大!""
+ N4 r7 G& s! k) F- f* oI love your Blu-ray movies Forum!
# [5 L( F: Q6 C' D& a) z  j0 Q2 v

0

主题

221

帖子

1181

积分

Sponsor

金币
45 枚
体力
685 点
kdavid 发表于 4 天前 | 显示全部楼层
楼主发贴辛苦了,I*老*虎*U!1 R6 |' [, y! i6 l4 T
I love your Blu-ray movies Forum!" s1 |# n( C* }2 o

本版积分规则

小黑屋|Archiver|4K蓝光论坛

GMT+8, 2022-11-27 00:49

Copyright © Tencent Cloud.

快速回复 返回顶部 返回列表