BluRayCD Forum

 找回密码
 立即注册【分享大片】
查看: 125|回复: 9
收起左侧

[蓝光原盘] 危险卧底 [REMUX无损版] The System 2022 1080p BluRaycd REMUX AVC DTS-HD MA 5.1-FGT 19.14GB

[复制链接]

9243

主题

194

回帖

6万

积分

Post Share

金币
542 枚
体力
13262 点

卓越贡献勋章

24小时 发表于 2023-3-23 00:51:57 | 显示全部楼层 |阅读模式
01.jpg
' b5 C# `0 f$ H" R$ k3 V9 _5 C
◎译  名 危险卧底
3 c# v  g/ h* S4 l& r/ Z/ m/ L◎片  名 The System / Система8 ]$ S4 D  o5 ^7 ]3 k# y/ K" t. C
◎年  代 2022; T. ]9 t: G. m9 L
◎产  地 美国6 V, l! r- N. D
◎类  别 动作/犯罪
9 |  j* e% w8 l8 v! b: Z◎语  言 英语
! m# \& L+ g1 X; b5 q, G0 S◎上映日期 2022-11-04(美国)
7 B9 \4 b/ m5 r+ N, e◎IMDb评分  4.0/10 from 825 users* z2 G2 O  x, M$ H
◎IMDb链接  https://www.imdb.com/title/tt14037272/
5 Z8 ^2 o2 m& Z9 ?: P( I7 k* V◎豆瓣评分 0/10 from 0 users
6 ~) p! J, }; ?2 C; ]. A◎豆瓣链接 https://movie.douban.com/subject/36111441/
8 G6 L, R7 X8 X2 T4 u' D; ]& o◎文件格式 x264 + DTS  
: l0 j( f/ u& d9 E' r◎视频尺寸 1920 x 1080
! [. k7 r0 J, h: l◎文件大小 1DVD 19.14 GiB# Q7 X3 Z% [5 Q. u0 A
◎片  长 1 h 37 min9 p7 Y- v" N7 F0 B, p+ _9 B  e
◎导  演 Dallas Jackson
; \: s$ P! v4 F$ y4 N1 C( _9 h◎编  剧 Dallas Jackson9 c5 P8 ~8 o0 z
◎演  员 泰瑞斯·吉布森 Tyrese Gibson) u: c$ s" V/ s- K" d
       杰里米·皮文 Jeremy Piven0 k2 d5 F* |. l
       泰伦斯·霍华德 Terrence Howard4 ^4 f- o- t+ N+ O& C( Y2 g
       里克·赖茨 Ric Reitz8 f' x* B" _# L: {- z6 Y
       Lil Yachty
3 F, h- k# p9 ]& L( D& ^       Laura Aleman
. f- c! |4 W. A" s. ~# N, J       凯莱布·斯比尔亚兹 Caleb Spillyards: p. N$ @% i& O- z' c/ L

# q) X. G0 m2 R◎简  介 
" r' O- B1 B) D( F: ]# A
+ q0 x4 |- M/ @  当一名刚从战争中归来的年轻士兵卷入毒品调查时,他被当局招募到一个臭名昭著的危险监狱中卧底,以弄清楚到底发生了什么。
% N3 O, r0 _( X+ b7 w7 x7 A0 t: i. v  Q1 J
  When a young soldier, newly returned from war, gets caught up in a drug bust, he is recruited by the authorities to go undercover in a notoriously dangerous prison in order to figure out what is really going on.
% c! N. |" a; P1 m* X# A6 |. K
The.System.2022.1080p.BluRayCD.REMUX.AVC.DTS-HD.MA.5.1-FGT
, }0 D* n& }8 s; z
- O6 x- ^) D7 Q/ ^8 D6 I2 sVideo+ _% Q+ ^: G+ T% N
ID : 1
8 ^" p% K0 G! E$ T% A* hID in the original source medium : 4113 (0x1011)" V, S6 n: a# [+ C$ E' I+ V
Format : AVC
- b! P8 G" i7 n0 R' e& ?Format/Info : Advanced Video Codec
7 E2 J9 F4 @* p! w  F( h) d7 f4 rFormat profile : High@L4.17 g' s) L8 W" ?; v
Format settings : CABAC / 4 Ref Frames
" F) x$ X+ I3 d, |" l2 I6 u' jFormat settings, CABAC : Yes
2 h$ d# B& u) Z- q% rFormat settings, Reference frames : 4 frames
! M+ d* u' m6 J( ~. d5 e' gCodec ID : V_MPEG4/ISO/AVC1 g' J3 E3 H6 a; o0 A3 n
Duration : 1 h 37 min
( p" @- b; y& ?8 x/ sBit rate mode : Constant
! F5 {3 `1 d# P: e) jBit rate : 25.0 Mb/s
6 w2 M# R: R* a8 jWidth : 1 920 pixels! ?) K9 j4 J# Y5 [8 C
Height : 1 080 pixels% ]0 }8 n! H$ t- F7 \# ~
Display aspect ratio : 16:9- Q9 I# q0 {5 X9 I; L6 l; I; G
Frame rate mode : Constant
% V7 E( X( [, I2 \- _1 rFrame rate : 23.976 (24000/1001) FPS( u% }7 F* m! ~
Color space : YUV7 Z, A, i0 p3 i% C
Chroma subsampling : 4:2:0
7 y  N3 ~$ o5 q6 v0 eBit depth : 8 bits
& W) ^/ s! c. _: mScan type : Progressive# i4 M/ P/ w* E" [: p$ U6 T
Bits/(Pixel*Frame) : 0.503
2 Y3 g3 i/ Z; S! o( DStream size : 16.7 GiB (87%)
+ |( f- a4 R" p% g. DLanguage : English* q: R4 e# u0 ^% u4 i% R
Default : No% v  q) ^1 ?. h$ |  e* `  f: a3 e8 x6 T
Forced : No
* K9 d  t. u& t3 KColor range : Limited
! ^3 v) K% N2 N" [; k- b- l" oColor primaries : BT.7095 a" @5 Y, f' Z1 k1 l5 I
Transfer characteristics : BT.7093 h( b9 L! E; g) `# w
Matrix coefficients : BT.709% k7 J8 ]$ J# O5 n
Original source medium : Blu-ray4 v* F, i0 E* O; F1 c' {) A

) E" T5 t- e0 B) s9 }Audio #1
, P6 B& z: Y* }* m2 {* AID : 2+ _" j9 x) {1 m  e8 V
ID in the original source medium : 4352 (0x1100)
& y: G4 k- {6 B* QFormat : DTS XLL
2 V2 d3 ^+ h5 e, }. P& LFormat/Info : Digital Theater Systems
0 v) e  K! K* l: r2 ^+ BCommercial name : DTS-HD Master Audio- f: y. O1 @2 W+ `( N
Codec ID : A_DTS2 i5 f/ Y3 y9 G3 Q* p
Duration : 1 h 37 min
* [+ ?  f. \9 S3 DBit rate mode : Variable
% w/ R  i: C8 YBit rate : 2 053 kb/s0 }! J. S7 f2 \  Z- l3 d" N% p
Channel(s) : 6 channels
5 ~/ P9 c1 N" v: c: P/ |7 UChannel layout : C L R Ls Rs LFE1 w8 G1 ^. D9 Q2 D4 g
Sampling rate : 48.0 kHz
0 u3 h% x* d4 f1 Q4 z! V' JFrame rate : 93.750 FPS (512 SPF). T/ B* d4 ^: q0 O6 V
Bit depth : 16 bits
" T; m8 p, J6 ?7 W  b2 q. c# xCompression mode : Lossless, r6 k; J0 v2 x% m$ B2 C2 y+ }+ G
Stream size : 1.40 GiB (7%)8 n0 ?; _9 \. w, m4 `2 I
Title : DTS-HD MA 5.1
; P, l; z2 h; l* YLanguage : English" u( C; R2 q. W
Default : Yes
( O' A, Z6 i2 B% S- kForced : No8 r) s" J" ^' t9 N% b; E9 j) P# Z
Original source medium : Blu-ray
( z8 T' D. @3 c) o
5 k+ Q+ |8 p& v, H8 w8 t) M! mAudio #2. _( t- l" |$ ^  r
ID : 3$ @3 D: J2 t. e: b
ID in the original source medium : 4353 (0x1101)8 d) ]& q, t- N0 T, j
Format : PCM' G8 n0 u' T7 |' N
Format settings : Little / Signed
  q* ?8 N9 E" ?Codec ID : A_PCM/INT/LIT/ y6 t' X; k* f$ d
Duration : 1 h 37 min
1 c0 P* {! F( ~$ aBit rate mode : Constant
) H! x& x& C- bBit rate : 1 536 kb/s
; _. {8 U% F) A) }5 a, B$ YChannel(s) : 2 channels. u( C3 Y, i" e$ R% ]$ k
Sampling rate : 48.0 kHz( {- [8 A( |5 Z
Frame rate : 30.000 FPS (1600 SPF)
+ k9 M4 B2 u5 ~" E0 E  e3 n' GBit depth : 16 bits
. W7 u4 j3 u0 T0 D; YStream size : 1.05 GiB (5%)* R2 A8 v" A4 y7 V
Title : LPCM 2.0
3 n  [1 v. Q! K7 Q2 B1 t. W, l7 XLanguage : English) W4 A$ H8 T7 d
Default : No6 V6 k) V* ]4 a% Z) r) Z
Forced : No6 S$ a" S6 T4 Y  i
Original source medium : Blu-ray! l$ _6 Q. R; v4 ^
* c4 I5 M" D; L8 {5 K# G  \, X
Text #1$ M9 g" D! E+ ^% O- P4 @' m7 [. a- e
ID : 4
# W6 a( X$ \( C, \. g4 q3 qFormat : UTF-8- V- Y* p+ D3 W0 z
Codec ID : S_TEXT/UTF8, N! h. n$ j' L7 n
Codec ID/Info : UTF-8 Plain Text. ]9 d  r7 Y& Q# Y: a7 A3 m# v
Duration : 1 h 33 min
# {' w6 r* {- V1 y5 ZBit rate : 53 b/s4 d3 `  q: b5 \- r; B4 e+ Y
Frame rate : 0.200 FPS
# R9 e0 n4 F: G3 `Count of elements : 1129
: z2 F2 B7 ]# G% ?Stream size : 36.5 KiB (0%)
9 V* M; i# ?5 i6 uLanguage : English) H: \* Y) r$ x, W3 s
Default : Yes8 Q3 n, K3 O" R* P# H" j
Forced : No3 R/ K$ z; S- ^

% p( |! Z1 H) G6 Y1 a" S3 G8 q) RText #2( E9 @- r$ @- u/ a) ], l5 K* {
ID : 5  x1 O$ K$ }1 C' @
Format : UTF-8
5 V3 o( U* `. Y7 A) l8 ICodec ID : S_TEXT/UTF8
, d4 l+ z! G* }# `2 K/ R8 |) WCodec ID/Info : UTF-8 Plain Text
' X2 b5 t# ~. g1 L* c! O$ PDuration : 1 h 34 min, D6 t" X5 u7 g$ \
Bit rate : 57 b/s
3 h) }2 U2 J+ u5 OFrame rate : 0.229 FPS. w# R3 q( J  x! s$ ^, m
Count of elements : 12996 X' G2 p( u+ Q: k! _) r% M. j
Stream size : 39.6 KiB (0%)
' y  p- h4 o9 [3 l& P+ X: yTitle : SDH6 F9 M3 @( }+ S" ?: Y4 i
Language : English
9 J4 r1 l# _, w2 R# R8 C8 M) ZDefault : No
: r+ ~. W" j& jForced : No9 v  p* b+ Q/ G

0 \# y3 K1 h5 B1 T% A0 K: e) K# b8 QText #3
$ S- h; a' v1 `3 D) L6 UID : 66 R3 z4 N% o- H1 P$ j; v: c
ID in the original source medium : 4608 (0x1200)+ Q0 B: V  b+ S9 y
Format : PGS
+ ~8 `- q9 u8 @% u2 r! m; w+ ]6 ?Muxing mode : zlib
: x. v- `0 V0 H7 c* oCodec ID : S_HDMV/PGS1 H4 Z7 N" k2 T) k, B$ e
Codec ID/Info : Picture based subtitle format used on BDs/HD-DVDs
1 a/ e7 r1 q0 }# w$ tDuration : 1 h 34 min9 Z2 Z3 C5 o, ~9 o3 ?8 l. L/ I( ^
Bit rate : 33.0 kb/s8 V. n5 X- y6 V
Frame rate : 0.462 FPS
: }& ]. z; g& P& o' }+ @( d5 VCount of elements : 2616
, _! J0 F* d0 {6 }Stream size : 22.3 MiB (0%)9 P: t6 a! s- k0 O
Language : English2 Z$ x) A4 ]) g4 F# N
Default : No
* X4 s2 d, {6 t' a; a2 ~3 HForced : No& N( D  I/ J. }: [5 W* k5 z( l% y! R: t
Original source medium : Blu-ray% C5 x7 d' }3 n3 x4 N

$ A  Y# O# P* |2 B. dMenu
% {5 p0 }6 ^# u2 D: W9 W8 y% j00:00:00.000 : en:Chapter 01
; a( K+ d0 u7 d3 n0 t, X8 m  L00:15:29.511 : en:Chapter 02# I) \! m$ V+ p( N
00:31:42.442 : en:Chapter 03
, g4 H7 m+ T! {( J( C) f00:49:11.990 : en:Chapter 04. }* r$ D* ~& J  K
01:07:55.738 : en:Chapter 05* g% t5 N9 J) S2 {6 ~4 S$ C* C6 h, S
01:33:04.495 : en:Chapter 06
0 a- e- U% ^( E; N! i
游客,查看本帖隐藏内容请回复 | 加入VIP可免积分免回复 了解详情 | 还不是会员:点击获取邀请码 Invitation Code

283

主题

543

回帖

5159

积分

Sponsor

金币
165 枚
体力
3290 点
zhangwenbin 发表于 2023-3-23 14:30:55 | 显示全部楼层
危险卧底 [REMUX无损版] The System 2022 1080p BluRaycd REMUX AVC DTS-HD MA 5.1-FGT 19.14GB' y+ B8 ^# F. O7 m
https://forum.bluraycd.com/thread-60831-1-1.html8 b4 g' w$ U: C6 l* a% m( E- n
(出处: BluRayCD Forum)6 B$ r( z5 {: c, ^0 ~  o* r
蓝光论坛里

0

主题

253

回帖

2154

积分

Sponsor

金币
0 枚
体力
1612 点
tjzfyybbb 发表于 2023-3-23 18:30:28 | 显示全部楼层
阿三大发送到发送到发斯蒂芬

0

主题

616

回帖

2661

积分

Sponsor

金币
26 枚
体力
1442 点
luyife 发表于 2023-3-24 11:03:17 | 显示全部楼层
谢谢楼主的分享

31

主题

4319

回帖

2万

积分

Sponsor

金币
3244 枚
体力
10389 点
QQ
shiji1973 发表于 2023-3-25 09:49:06 | 显示全部楼层
沙发是抢的而不是占的!
  t7 l1 d0 ]0 f; U7 K! V& q& xAfter reading the posts have nothing to do I Amoy posts!+ p) D1 e6 E8 t% t, _$ F1 {, B

0

主题

1467

回帖

5608

积分

Sponsor

金币
275 枚
体力
2385 点
lfvvzc 发表于 2023-3-28 09:32:17 | 显示全部楼层
膜拜神人,后来者请保持队列……!
0 Z0 P6 T. F. ~! B# P- I' \In fact, I have always felt that the landlord of good taste! Ha ha!
% E- K$ v; y8 g1 R; n6 O9 P

0

主题

1172

回帖

5284

积分

Sponsor

金币
30 枚
体力
2859 点
sclzywxl 发表于 2023-3-28 12:12:23 | 显示全部楼层
谢谢楼主分享; y( p9 S& P* Z" v; P
啥也不说了,楼主就是给力!9 `/ c* X3 b# C+ `; W) L. y
Your resources, well, I am very satisfied!
4 _6 F) N7 T0 z* _; }- x6 D

0

主题

986

回帖

5192

积分

Sponsor

金币
196 枚
体力
3051 点
QQ
一见哈哈笑 发表于 2023-3-29 11:17:39 | 显示全部楼层
感谢楼主,感谢!

0

主题

1875

回帖

7782

积分

Sponsor

金币
6 枚
体力
3488 点

VIP蓝光勋章

QQ
jiyugen8180 发表于 2023-3-31 13:25:22 | 显示全部楼层
每天都来蓝光论坛看看,我爱蓝光电影。6 a+ ]3 o# U# V9 I. F8 M( _
I love your Blu-ray movies Forum!# E2 T) V; b4 r3 {. ?2 u8 G

0

主题

2035

回帖

8390

积分

Sponsor

金币
688 枚
体力
3702 点
zzk980220 发表于 2023-3-31 20:26:57 | 显示全部楼层
啥也不说了,楼主就是给力!, s4 W, S  a: p
I love your Blu-ray movies Forum!& J1 \, w- I$ E& w2 U

本版积分规则

小黑屋|手机版|Archiver|4K蓝光论坛

GMT+8, 2024-7-21 05:35

Copyright © 2001-2021, Gadaddy Cloud.

快速回复 返回顶部 返回列表