BluRayCD Forum

 找回密码
 立即注册【分享大片】
查看: 19|回复: 0
收起左侧

[动作战争] 危险卧底 The System 2022 720p BluRaycd x264-WoAT 2.68GB

[复制链接]

1万

主题

387

回帖

13万

积分

Post Share

金币
4477 枚
体力
33166 点

卓越贡献勋章VIP蓝光勋章诚信会员勋章

mvods 发表于 2023-3-23 22:36:04 | 显示全部楼层 |阅读模式
- X" T1 {0 S: h$ m% `+ d
5 L5 Z6 a( T5 V
◎译  名 危险卧底 9 h, C$ N3 \8 w+ c! B  Q. v
◎片  名 The System / Система
! V$ t; X; U& [. |: B* z◎年  代 2022
- h6 l8 I$ ^9 b◎产  地 美国* w  x3 k; l6 W/ L2 H7 w
◎类  别 动作/犯罪
/ M4 v* @6 `; s1 c: d◎语  言 英语9 o* D# Q0 W7 Z
◎上映日期 2022-11-04(美国)/ N0 P0 x( n5 m
◎IMDb评分  4.0/10 from 827 users& Q0 l- u' E- k4 l, w
◎IMDb链接  https://www.imdb.com/title/tt14037272/
: d: P* E8 g& o3 g8 I◎豆瓣评分 0/10 from 0 users
! x+ S) z' c+ o/ F◎豆瓣链接 https://movie.douban.com/subject/36111441/
+ U4 }1 i7 s9 U$ D( c1 d◎片  长 1 h 37 min
' X3 E- u# a) y# d8 i◎导  演 Dallas Jackson: b& }* C2 v! y" o7 @- K! e
◎编  剧 Dallas Jackson4 }* r+ I; R* w, }. ]8 {! s" \
◎演  员 泰瑞斯·吉布森 Tyrese Gibson7 ~( V1 `& `$ Z9 ~1 r- v
       杰里米·皮文 Jeremy Piven
, M; e( E5 h! \0 U; r7 k: h2 Y       泰伦斯·霍华德 Terrence Howard
5 r2 V1 g7 p( N' f9 d       里克·赖茨 Ric Reitz
7 U! q; q8 K% T5 Y5 A9 b       Lil Yachty
9 O8 e. s* k% v( e1 K! [       Laura Aleman
6 w3 K* [/ Z+ S. a# c       凯莱布·斯比尔亚兹 Caleb Spillyards
6 Z  C1 G' @; m$ ~# V6 Y& T* c: [/ k4 f1 E3 h
◎简  介 
4 D3 X' |4 g: b& B$ V
# [9 q+ I3 u0 t9 c3 N: _  当一名刚从战争中归来的年轻士兵卷入毒品调查时,他被当局招募到一个臭名昭著的危险监狱中卧底,以弄清楚到底发生了什么。& _; M9 P& s6 L6 |" X
' p8 x- ]0 r) A: \. Z: ]
  When a young soldier, newly returned from war, gets caught up in a drug bust, he is recruited by the authorities to go undercover in a notoriously dangerous prison in order to figure out what is really going on.2 J3 e6 X! ^  X, ]0 p- {
Video. Z9 l. e0 A$ a) P, v* Q  D" F
ID : 1
# }' N5 }: @( |" e, F+ UFormat : AVC6 |7 {: \# `5 ^5 j+ V; Y& e
Format/Info : Advanced Video Codec/ a/ ?; ^. J5 S, `1 v
Format profile : High@L4.1+ j% V$ L1 y+ f
Format settings : CABAC / 8 Ref Frames
: m2 D& {  N% J+ Q% l: nFormat settings, CABAC : Yes1 a! c& \$ O2 a  [2 N7 P* C
Format settings, Reference frames : 8 frames- s  Q! V2 }% Q. n# r! h5 W
Codec ID : V_MPEG4/ISO/AVC+ x6 B8 H3 L6 z% G  c6 g
Duration : 1 h 37 min
( z+ ~- V! {* L0 vBit rate : 3 273 kb/s
4 i) O1 p. s0 v  n% ZWidth : 1 280 pixels; L: I$ Z) P) K/ }% ^( r& n. c0 V" Q1 c
Height : 692 pixels
" @: c. \; m7 E9 y4 @Display aspect ratio : 1.85:1
; @3 e6 Q% d/ t$ E7 i  q8 v4 L  Q4 B) wFrame rate mode : Constant
/ j& X- D7 G3 j0 e5 z0 r- d. q' LFrame rate : 23.976 (24000/1001) FPS
9 V8 s. q6 N0 L# wColor space : YUV- ~; d/ F& B$ M3 O& A
Chroma subsampling : 4:2:0
' L6 ~& }1 R: IBit depth : 8 bits9 {- }: t1 s& z4 y; t9 q
Scan type : Progressive
: z) T- W3 F8 g& dBits/(Pixel*Frame) : 0.154' M/ a1 _; @% G& T7 s
Stream size : 2.23 GiB (83%)
- O5 ~% |# W0 N7 c, [9 z- s' oWriting library : x264 core 164 r3106 eaa68fa; {) Y; Q( r& {: q% }8 B5 C
Encoding settings : cabac=1 / ref=8 / deblock=1:-3:-3 / analyse=0x3:0x133 / me=umh / subme=9 / psy=1 / psy_rd=1.00:0.00 / mixed_ref=1 / me_range=32 / chroma_me=1 / trellis=2 / 8x8dct=1 / cqm=0 / deadzone=21,11 / fast_pskip=0 / chroma_qp_offset=-2 / threads=16 / lookahead_threads=2 / sliced_threads=0 / nr=0 / decimate=0 / interlaced=0 / bluray_compat=0 / constrained_intra=0 / bframes=8 / b_pyramid=2 / b_adapt=2 / b_bias=0 / direct=3 / weightb=1 / open_gop=0 / weightp=2 / keyint=250 / keyint_min=23 / scenecut=40 / intra_refresh=0 / rc_lookahead=60 / rc=crf / mbtree=1 / crf=17.0 / qcomp=0.60 / qpmin=0 / qpmax=69 / qpstep=4 / ip_ratio=1.40 / aq=3:0.887 }6 G' s* |$ u$ B! W
Default : Yes6 U& G, b# A. p" Q; W
Forced : No
% U# @  s# Y  o$ V* Y, A+ }4 N2 UColor range : Limited
, N$ h1 M6 K( d/ q" NColor primaries : BT.709
' w4 n# c( y" Q$ B1 x* TTransfer characteristics : BT.709+ b9 m4 @9 ?# o1 Q
Matrix coefficients : BT.709
- g* x* x$ x7 a/ a- A0 Y* Y5 c9 F1 a( v  L0 T1 _
Audio( d* ^! ]/ G3 C  D* X+ v- O
ID : 2
/ f0 q- y0 w* j7 Y! \6 nFormat : AC-3
. f5 D* I$ m( Q. f1 c: Z# {Format/Info : Audio Coding 3( \% l& v# s  l, ^4 p2 K* [# x
Commercial name : Dolby Digital
# [/ y+ {: s8 h" p) {& H1 RCodec ID : A_AC3
/ U# Q9 g5 ]" L! x: q$ n, f% ADuration : 1 h 37 min
7 x0 E5 d! s* `+ u/ g* F/ e. gBit rate mode : Constant
1 p% t, Z; L) s. h1 J$ P$ sBit rate : 640 kb/s
9 w1 V) ~/ J% h, Y3 V4 a2 aChannel(s) : 6 channels0 l0 P1 i% i1 z+ @8 p
Channel layout : L R C LFE Ls Rs
: V& V: o# E6 R% eSampling rate : 48.0 kHz2 o1 v/ i/ {& b. }
Frame rate : 31.250 FPS (1536 SPF)! G5 r& W. C) J- a, l2 ?- G
Compression mode : Lossy
- [4 x% @- s5 p# ?Stream size : 447 MiB (16%)% N: H$ Q1 U0 j( L! b/ T0 U* \
Title : English
0 e2 B2 e: ]$ QLanguage : English
; H& d/ y! B2 f$ j7 @! n; {Service kind : Complete Main
7 v0 G9 y/ M* p- IDefault : No
# z- P  Y0 v; HForced : No
0 E$ e. M& j( `
3 V; Z/ P! |" I1 ^& |1 ^7 o2 `Text' Y0 R( m/ k6 |4 n
ID : 3
, p* r* Q9 L4 @# C$ M# QFormat : PGS+ M8 c/ T* T5 {/ C$ L6 D) w- v
Muxing mode : zlib
$ J2 n5 j3 _/ D9 R: x5 I  TCodec ID : S_HDMV/PGS7 I0 D0 U' g( L  O" p
Codec ID/Info : Picture based subtitle format used on BDs/HD-DVDs
; T6 J% f6 C1 t: q) r2 IDuration : 1 h 34 min4 w0 b( ?# S+ ?$ \1 [# p. Y" f# H
Bit rate : 33.0 kb/s. [( D1 x5 }4 m" f6 V' q/ W, e
Count of elements : 26160 R  l0 B' s# w
Stream size : 22.3 MiB (1%)
$ l# }; t% c# n4 CTitle : English
3 ^$ D2 E% c' f; M$ DLanguage : English
' T! c6 y$ v- }1 `. L3 UDefault : No
4 j; c( Z& r! s; n+ w! nForced : No
! t3 S) N" {6 j/ P( c/ z: o
3 w! r# {1 \$ k3 p, {Menu0 c- L* H* N6 ~% {
00:00:00.000 : en:Chapter 01
: E( Y+ a# O# e5 `! b00:15:29.512 : en:Chapter 02( s5 h6 b/ W# S7 z8 Q7 R" B
00:31:42.442 : en:Chapter 03
# w# u5 q+ Z1 ]00:49:11.991 : en:Chapter 04. Q0 `4 V8 Y1 _7 y: e
01:07:55.738 : en:Chapter 05& Q+ l: G  V/ f/ O  B& V) h
01:33:04.496 : en:Chapter 061 N4 y- s1 h* F$ K# x* M
, y! o0 x1 Q5 s+ N) g8 k1 K8 K5 Q
The.System.2022.720p.BluRayCD.x264-WoAT 2.68 GB# O! g& u. j/ X6 D

+ b; {& v, t0 t8 _. {2 b( Nimdb..........: https://www.imdb.com/title/tt14037272/
7 Y0 J6 o4 T) t9 q; V4 y3 u( R0 Z& o7 k4 g
date..........: 03/21/2023. ]5 T0 g+ ^" F
2 Y# }9 |3 w+ d. M7 W' y
video.........: 1280x692 - 3272kb/s - crf 17.0& r4 l+ J$ I. W0 J' k
audio.........: English AC-3 640kb/s
$ J! F  k; B; U; j' T4 N
! R0 \, B) @' v) b: K, dsubtitles.....: English (PGS), q. x3 X4 \$ b& [" m) _
duration......: 01:37:37;154 N  _, Q$ m4 I/ S, X& l

" t0 v5 `; n5 dsource........: 24999kb/s
  Q" B' j4 L, o' Y* c* [8 \size..........: 2.68GB
" t9 N- f6 X4 D2 e8 I9 Ipacked........: 29x100MB
! x8 {# [$ @- ]! ynotes:

" z7 o/ m. N9 F8 @* p$ H  w$ j
游客,查看本帖隐藏内容请回复 | 加入VIP可免积分免回复 了解详情 | 还不是会员:点击获取邀请码 Invitation Code

本版积分规则

小黑屋|手机版|Archiver|4K蓝光论坛

GMT+8, 2024-7-21 05:19

Copyright © 2001-2021, Gadaddy Cloud.

快速回复 返回顶部 返回列表