BluRayCD Forum

 找回密码
 立即注册【分享大片】
查看: 18|回复: 1
收起左侧

[动作战争] 危险卧底 The System 2022 1080p BluRaycd x264-WoAT 6.80GB

[复制链接]

1万

主题

387

回帖

13万

积分

Post Share

金币
4477 枚
体力
33166 点

卓越贡献勋章VIP蓝光勋章诚信会员勋章

mvods 发表于 2023-3-23 22:32:09 | 显示全部楼层 |阅读模式

6 F( Q2 f3 p7 v  d+ H' \' U" Q1 |+ r& n: w: x1 |& d
◎译  名 危险卧底
/ F" Z; u  m  W3 C6 R◎片  名 The System / Система
% ?. W; T3 x  V/ M0 W◎年  代 20222 e/ o4 N4 I/ M  Y$ g2 t: {; X: K0 M
◎产  地 美国
: c3 s8 T( h. A" c◎类  别 动作/犯罪5 G6 E$ b, l; X0 ]8 V
◎语  言 英语
- a& n8 ^7 ^7 y" n6 {+ i7 D◎上映日期 2022-11-04(美国)7 L! r! X: ^: R4 u# g& v. L9 m6 a
◎IMDb评分  4.0/10 from 827 users
; ^! _. I( x- v' w6 {# X& k◎IMDb链接  https://www.imdb.com/title/tt14037272/! A8 u! y$ y* k. T0 }9 v
◎豆瓣评分 0/10 from 0 users* Z( E. a$ h1 @$ l# x6 _
◎豆瓣链接 https://movie.douban.com/subject/36111441/
! }8 C& c" C( b) F◎片  长 1 h 37 min
6 c: }" h& }' y& s7 G9 ]7 N◎导  演 Dallas Jackson0 b# q7 M# ^+ p
◎编  剧 Dallas Jackson
0 C' n  t; Z( B* P3 Y8 z! U7 D◎演  员 泰瑞斯·吉布森 Tyrese Gibson
2 ?: h0 _2 X1 Y/ N       杰里米·皮文 Jeremy Piven$ R! ]- F- S. d0 F
       泰伦斯·霍华德 Terrence Howard
2 N- R7 X2 g6 z6 f" a3 Q/ q8 I       里克·赖茨 Ric Reitz
% |1 W' i- u3 }       Lil Yachty
5 F. n$ w! o- I       Laura Aleman- Y3 b. Y& L) \: c; }
       凯莱布·斯比尔亚兹 Caleb Spillyards
! z* J/ }, j' v# f+ m9 Y/ J
9 R9 ?  R) c8 |9 @1 {! u' K& r◎简  介 
, S9 {9 b) e+ i- B; B/ ]3 u6 K6 a1 e- V( A0 u
  当一名刚从战争中归来的年轻士兵卷入毒品调查时,他被当局招募到一个臭名昭著的危险监狱中卧底,以弄清楚到底发生了什么。
# u% C% h; z6 o) N. h) g+ n* b! Q7 m5 Z* C1 s& h+ l5 t
  When a young soldier, newly returned from war, gets caught up in a drug bust, he is recruited by the authorities to go undercover in a notoriously dangerous prison in order to figure out what is really going on.
& y4 X7 H' }0 \: {8 e* T3 u
Video
  y$ E% q( @  Q+ N( E- XID : 10 g' j/ d3 J+ U6 h9 j2 S0 B7 I
Format : AVC
- j5 z: V; k: Q- q8 UFormat/Info : Advanced Video Codec
# [  Q- i" ?6 ^% X1 E$ F& W+ N! KFormat profile : High@L4.1
8 c, T! }, e+ T5 E. p5 q" mFormat settings : CABAC / 4 Ref Frames5 D. K( y) M5 t' h$ \  c& D# ]
Format settings, CABAC : Yes2 C8 d0 N" S( L# D# t! t. o
Format settings, Reference frames : 4 frames
9 r2 i% h, a4 X" ]. t# i. mCodec ID : V_MPEG4/ISO/AVC
# b/ e% Z: i2 b4 f9 j, PDuration : 1 h 37 min; C, z3 ^% _: J9 Y! ]. @" }
Bit rate : 7 904 kb/s0 V) S* ?3 ]4 n+ q; j5 B; X
Width : 1 920 pixels: Z$ W! k# Q# A  F& |+ r
Height : 1 038 pixels' N; z. J! ]: j1 X' U; ~
Display aspect ratio : 1.85:1, S. H# E0 r. k+ B# A# }. u! n; t' {
Frame rate mode : Constant( y0 M1 N$ N5 o. B4 V
Frame rate : 23.976 (24000/1001) FPS) g" Z; z' B$ x1 J
Color space : YUV% G, n0 s. ]: L1 B2 s5 P& o( f, W! }; `
Chroma subsampling : 4:2:07 _- w) j/ Z" F0 p' J
Bit depth : 8 bits# o6 Q! |' L$ b/ w/ f- E, D
Scan type : Progressive
( v$ Q# a$ s8 FBits/(Pixel*Frame) : 0.165
* y4 u$ \* q7 I2 w2 m% eStream size : 5.39 GiB (79%). {* ]% w% _4 r6 |, F0 j/ b
Writing library : x264 core 164 r3106 eaa68fa
" G8 I  \* x$ ?& _' E5 aEncoding settings : cabac=1 / ref=4 / deblock=1:-3:-3 / analyse=0x3:0x133 / me=umh / subme=9 / psy=1 / psy_rd=1.00:0.00 / mixed_ref=1 / me_range=32 / chroma_me=1 / trellis=2 / 8x8dct=1 / cqm=0 / deadzone=21,11 / fast_pskip=0 / chroma_qp_offset=-2 / threads=16 / lookahead_threads=2 / sliced_threads=0 / nr=0 / decimate=0 / interlaced=0 / bluray_compat=0 / constrained_intra=0 / bframes=8 / b_pyramid=2 / b_adapt=2 / b_bias=0 / direct=3 / weightb=1 / open_gop=0 / weightp=2 / keyint=250 / keyint_min=23 / scenecut=40 / intra_refresh=0 / rc_lookahead=60 / rc=crf / mbtree=1 / crf=17.0 / qcomp=0.60 / qpmin=0 / qpmax=69 / qpstep=4 / ip_ratio=1.40 / aq=3:0.88; k6 R" l5 N: }1 I  n
Default : Yes7 a: E8 [+ W9 M. E
Forced : No  `: y& k" g# f1 l$ f; {' `
Color range : Limited
, @0 u" S9 [. K; p' G/ V' ^Color primaries : BT.709
; p9 \" V; C9 A( OTransfer characteristics : BT.709% k. ^8 Z/ Q9 J$ V. ?' W
Matrix coefficients : BT.709
" j0 u! y: ~9 Q& T; |+ W
# I/ F( l7 }& S' L- _Audio
* \+ V& \; J; M7 l' n! DID : 2* g7 u" d. `- R3 d4 P2 x4 N, V
Format : DTS XLL
3 {# x; t* W" O6 p: dFormat/Info : Digital Theater Systems/ v' M. l& l: i1 V
Commercial name : DTS-HD Master Audio0 A+ k7 @  D# ~" ?" k2 V
Codec ID : A_DTS
% Q# u) {& \5 o, l5 e& J, `Duration : 1 h 37 min
) c1 {! h1 \$ UBit rate mode : Variable
7 E/ _( ]+ s" q  \# w' PBit rate : 2 053 kb/s
- _1 x: w" X. _9 i; r0 V) c2 QChannel(s) : 6 channels
7 L8 i* B' g0 B6 i$ M! i; m. m# }Channel layout : C L R Ls Rs LFE
6 m! P  h* m! W8 [Sampling rate : 48.0 kHz, r1 K: ?6 c7 z3 n  i2 u
Frame rate : 93.750 FPS (512 SPF), Y$ W0 F( P9 u: `- d" L
Bit depth : 16 bits
* m, p: I- o/ f: QCompression mode : Lossless
; Y! s4 O  R  _2 |6 s$ MStream size : 1.40 GiB (21%)
, p' n9 y% |. E2 T; X0 {0 VTitle : English
; W( h) a* C* J! G: }3 V* xLanguage : English
+ Y) k. [9 z+ T" o" _! `Default : No
( b7 O$ F  H) z9 IForced : No. ]% @; |) [2 H

1 w$ l, `" V; x" k, e  i4 |Text- P& W& s8 Y1 i% V
ID : 3
( K5 c5 j" _) u( G0 z- TFormat : PGS) Q# U1 \" [2 N/ B- E: r% m
Muxing mode : zlib' n' e9 i6 {( H) b; l8 \: {* L, }
Codec ID : S_HDMV/PGS: ]1 O' U( L' {1 P( X# ^
Codec ID/Info : Picture based subtitle format used on BDs/HD-DVDs
+ Z8 W# A( j3 r* \Duration : 1 h 34 min# K! Z3 h9 j4 D1 b3 z, V
Bit rate : 33.0 kb/s
3 ]+ \* u% i+ o$ V/ N7 G% [Count of elements : 2616
9 Q& P2 f$ a% R+ B3 M7 EStream size : 22.3 MiB (0%)
  y- p; U2 g# G7 c- VTitle : English
: D3 R5 c2 g* R, W+ W1 GLanguage : English& }" D) \6 m8 h% W
Default : No7 C  H$ t. c9 Z/ w4 P$ U# l$ G
Forced : No
# j7 C; v# e% C7 c) Q/ Q& G* A% z8 F$ w$ k
Menu
/ g8 z; P7 J; h00:00:00.000 : en:Chapter 01
5 t! s) D: l1 P& }% a00:15:29.512 : en:Chapter 02
, s" c; m; y/ o; d* I00:31:42.442 : en:Chapter 035 ^( }" B; U& m; H# Y9 n( @
00:49:11.991 : en:Chapter 04+ [2 }/ G% \3 `4 f% }! Z% r( S
01:07:55.738 : en:Chapter 05
' K  B6 J$ ?* n/ L01:33:04.496 : en:Chapter 064 w% j! d' q2 ], k
; _6 G/ t$ U# j& m
The.System.2022.1080p.BluRayCD.x264-WoAT 6.80 GB
' ~0 P+ q6 {0 k' [* L$ E3 j- B  d) K2 ?4 z  \5 U
imdb..........: https://www.imdb.com/title/tt14037272/
( S- @8 q* @7 [; r9 `: S" L8 f2 x: E8 R: d0 N: N- j6 e0 x
date..........: 03/21/2023
# ~9 Z. o0 T$ B/ t, h  {
, b9 Y9 m; h4 P  Svideo.........: 1920x1038 - 7904kb/s - crf 17.0
, n: @5 Y6 e. O/ F. w: daudio.........: English DTS-HD MA 2053kb/s2 n* V) s/ G! S
) o$ y0 D/ o" u( s- N3 w, V. X
subtitles.....: English (PGS)' I$ G6 e! V3 F3 B8 e- b) i) y
duration......: 01:37:37;15; J7 E% l$ y9 [5 Z) M- {
, S8 T! f2 e* G# n
source........: 24999kb/s
. w4 U6 X) P7 K- x: Q. Qsize..........: 6.80GB
1 [: e3 O9 Z$ n" L: x5 tpacked........: 73x100MB5 e" _+ I+ c; M' j" r2 m
notes:
( h. ?' J/ ?! t9 a6 K/ R# M0 c
游客,查看本帖隐藏内容请回复 | 加入VIP可免积分免回复 了解详情 | 还不是会员:点击获取邀请码 Invitation Code

2

主题

974

回帖

6065

积分

Sponsor

金币
450 枚
体力
3710 点
QQ
ccfys888 发表于 2023-3-23 22:43:27 | 显示全部楼层
沙发是抢的而不是占的!4 j: v+ N# s9 [& U2 `
Your resources, well, I am very satisfied!
9 T) K2 x6 O" w. L. l; T

本版积分规则

小黑屋|手机版|Archiver|4K蓝光论坛

GMT+8, 2024-7-21 05:46

Copyright © 2001-2021, Gadaddy Cloud.

快速回复 返回顶部 返回列表