BluRayCD Forum

 找回密码
 立即注册【分享大片】
查看: 81|回复: 12
收起左侧

[2160P极清] 哥斯拉大战金刚2:帝国崛起 [4K高清版] Godzilla x Kong The New Empire 2024 2160p WEB-DL DV HDR10 DDP5.1 H265 MP4-BEN 18.07GB

[复制链接]

1万

主题

387

回帖

13万

积分

Post Share

金币
4432 枚
体力
33101 点

卓越贡献勋章VIP蓝光勋章诚信会员勋章

mvods 发表于 2024-5-16 19:49:31 | 显示全部楼层 |阅读模式

+ I% |8 a  A( P6 a& J" [* V; k( [! w5 I! G$ b1 r! _- E
◎译  名 哥斯拉大战金刚2:帝国崛起/哥斯拉×金刚:新帝国(港)/哥吉拉与金刚:新帝国(台)/哥斯拉大战金刚2/金刚之子
* A; |+ g. h  I5 T◎片  名 Godzilla x Kong: The New Empire / Godzilla vs. Kong 2 / Godzilla and Kong / Godzilla vs Kong: The New Empire / ゴジラxコング 新たなる帝国8 _# Z- @9 W5 _9 @' ^
◎年  代 2024
' ]! f% w; J3 L/ n( d◎产  地 美国
/ i* G3 z: H" @8 a◎类  别 动作/科幻/冒险
" W$ g8 @8 ]1 V0 S0 \- y◎语  言 英语/美国手语
+ v* i' r4 F2 }7 A◎上映日期 2024-03-29(美国/中国大陆)/2024-03-27(中国台湾)
# F( |9 ^7 P6 {+ ], n+ t2 _! y. Y8 H◎IMDb评分  6.4/10 from 50,012 users7 ^4 T6 z, p( C
◎IMDb链接  https://www.imdb.com/title/tt14539740/
( T% `& }9 s* ]/ ?0 z◎豆瓣评分 6.7/10 from 134,168 users
! |6 M+ x3 J3 X, c) j) P- @◎豆瓣链接 https://movie.douban.com/subject/35453251/- s) V; C% R2 _9 r# ]
◎片  长 1 h 55 min
/ X) y/ A( f5 e  F◎导  演 亚当·温加德 Adam Wingard
. P% V0 l+ }; z  Q◎编  剧 特里·鲁西奥 Terry Rossio8 j# q* {5 d$ e7 P+ O/ S1 |
       西蒙·巴雷特 Simon Barrett7 m+ Y3 Z2 l% C( ^( L6 r- m8 a% q6 |$ |
       杰瑞米·斯莱特 Jeremy Slater
8 ^* ~2 M. s+ \       亚当·温加德 Adam Wingard
' T7 ~4 T: b1 m( j6 h) x0 c◎音  乐 琼基·XL Junkie XL( [0 m  m' C( A
◎动作特技 陈·格里芬 Chan Griffin
7 N5 B# B3 o, X" l# J  H       艾拉·芬威克 Ella Fenwick
! _* `. S7 J; h0 y- r* j$ x◎演  员 丽贝卡·豪尔 Rebecca Hall (饰 艾琳·安德鲁斯 Ilene Andrews)
" B, i* n/ K5 d# E$ J       布莱恩·泰里·亨利 Brian Tyree Henry (饰 伯尼 Bernie Hayes)
% h" x$ k6 b. v7 _) k9 I. Q       丹·史蒂文斯 Dan Stevens (饰 特雷普 Trapper)
" t0 u4 i8 ^% P! D6 V       凯莉·霍特尔 Kaylee Hottle (饰 吉雅 Jia); x1 w8 O% ~0 `* A7 I; k( A3 y
       亚历克斯·费恩斯 Alex Ferns (饰 米凯尔 Mikael)
6 a7 L1 L6 f. T/ g7 T       陈法拉 Fala Chen (饰 伊维族女王 Iwi Queen)3 P, s" G7 d' {3 g7 \
       瑞切尔·豪斯 Rachel House (饰 汉普顿 Hampton)9 Y- d' J$ c7 {8 j+ w
       朗·斯迈克 Ron Smyck (饰 哈里斯 Harris)& c$ C2 U1 |. m1 F9 Z: G( o% N' N
       尚特尔·贾米森 Chantelle Jamieson (饰 杰妮 Jayne)/ `' {' ]- A( N  r
       格雷格·哈顿 Greg Hatton (饰 Lewis)
/ o+ c9 u( S5 U% @3 m; X       凯文·科普兰 Kevin Copeland (饰 Submarine Commander)
5 y1 [+ Q$ b0 ]7 h+ C3 H, l       泰丝·多布雷 Tess Dobré (饰 Submarine Officer)
0 a9 J0 V" J9 r       蒂姆·卡罗尔 Tim Carroll (饰 Wilcox)) ?$ d  C* K7 H2 E
       安东尼·布兰登·黄 Anthony Brandon Wong (饰 Talk Show Anchor)1 ]* d8 X4 c# p6 B/ `/ x
       索菲亚·恩博森-贝恩 Sophia Emberson-Bain (饰 Laurier); ?- Q% ~% Z% H
       奇卡·伊科维 Chika Ikogwe (饰 Ms. Cadogan)- @, D* t* k" D5 [
       文森特·B·戈尔斯 Vincent B. Gorce (饰 Monarch Specialist)& n& E8 @; _+ c. R2 z- m8 J  M* T
       叶叶·周 Yeye Zhou (饰 伊维族战士 Iwi Warrior)2 t7 @- Z1 `! u/ q* P( b
       贾马利亚·欧斯曼 Jamaliah Othman (饰 伊维族智者 Iwi Sage)$ {! E0 R! N* X5 `, o# N$ K4 c
       尼克·劳勒 Nick Lawler (饰 伊维族学者 Iwi Scholar)0 R1 Y4 F9 ?) M! J. _; u/ D4 ^1 O
       梅西·康沃尔 Mercy Cornwall
0 m2 q6 x' w* x  j       卡西·莱利 Cassie Riley (饰 Beach Goer)
% d* W' v" h# ^. g& M       乔迪·坎贝尔 Jordy Campbell (饰 Student)
) [2 n1 J7 q' }) O8 s8 n       妮可拉·克里萨 Nicola Crisa (饰 Student)) x6 ]- p: {: F. F5 f
       Stephanie Puggioni (饰 Beach Tourist)
- x- @% h5 m1 o4 ?8 A+ M* K: n9 N       Angie Adler-Koops (饰 Beach Goer)
) F- q1 S# m& h+ m8 ~1 C8 K5 u0 K" ^       Olivia Simatovic (饰 College Student); L: I9 \8 a* F- N
       Drew Matthews (饰 Student)
3 j4 X1 y- [: a% }" x       Kyle Clark (饰 Beach Goer / Worker)
4 |2 ]( S9 T# E" U       Alex Time (饰 Worker)
7 D# L8 O0 o& ]) D       Jacob Hohua (饰 Pedestrian)1 b$ F: ~& P& d& t' t2 d1 W7 r
       Riley McCarthy (饰 Pedestrian)  |& d6 U4 c6 c& k
◎制  片  人 艾瑞克·麦克勒德 Eric McLeod
$ d! Z  H! }2 b" @       亚当·温加德 Adam Wingard- M) ^4 a+ K: i1 X# W) W5 ~
       坂野义光 Yoshimitsu Banno3 i) E) y0 n0 J7 T3 a
       杰伊·阿申菲尔特 Jay Ashenfelter  c9 z) K4 J  k$ p
       亚历克斯·加西亚 Alex Garcia
$ x0 e& K" E' I2 I: U8 C       罗伊·李 Roy Lee/ j. \; D5 e" U2 u; j
       林暐 Dan Lin* T, b& W* f0 T; M& E
       奥平谦二 Kenji Okuhira
; o5 L8 u7 Q) [1 R/ @4 b       玛丽·帕伦特 Mary Parent
, T% u% e; e5 j$ ~5 P4 {$ _       布莱恩·罗杰斯 Brian Rogers
/ w/ A; c' j* W       托马斯·图尔 Thomas Tull1 V; L, E5 @. |
, `: c% u" v  {* V5 r9 U
◎简  介 ( g! C! V1 k" Z4 p

9 p# m+ l" Z" y# m/ F! `' U  继上一次的怪兽高燃对战之后,金刚和哥斯拉将再度联手对抗一个潜伏在世界中的巨大威胁,并逐步探索这些巨兽们的起源以及骷髅岛等地的奥秘。同时,上古之战的面纱也将会被揭晓,而正是那场战斗创造出了这些超凡的生物,并深刻影响了人类世界的命运。
% D# s$ o1 d! ~! L; {0 M
; |$ Z1 }( k0 @0 z' p' p* c  Two ancient titans, Godzilla and Kong, clash in an epic battle as humans unravel their intertwined origins and connection to Skull Island's mysteries.0 T6 I( M+ h: h7 M0 S
Godzilla.x.Kong.The.New.Empire.2024.2160p.WEB-DL.DV.HDR10.PLUS.ENG.LATINO.GER.HINDI.DDP5.1.H265.MP4-BEN 18.07 GB
% l" Q7 G. Y; i; S6 S# \! g) c' M* E
Format                                   : MPEG-4
: `# D7 U  Z$ |3 M9 f( Q9 aFormat profile                           : Base Media
+ f! c8 f& N5 cCodec ID                                 : isom (isom/dby1/iso2/mp41)% o! t; H; T: o$ S, j2 a" j
File size                                : 18.1 GiB+ @/ {: l+ t' a( R
Duration                                 : 1 h 55 min3 h+ P* i: w# ]
Overall bit rate mode                    : Variable
& v) f% d- j7 N. J6 b* xOverall bit rate                         : 22.4 Mb/s
) }: _& G( M  sFrame rate                               : 23.976 FPS8 S" }' D9 j5 j4 b1 {0 |
Movie name                               : Godzilla.x.Kong.The.New.Empire.2024.2160p.WEB-DL.DV[Ben The Men]
. K# y; k' M$ jTagged date                              : 2024-05-13 19:33:04 UTC* @( Q* Y4 m/ @! B7 G5 |  u
Writing application                      : Lavf60.3.100( m: d  x& i2 o3 G+ o4 C$ e* w
Cover                                    : Yes( _% a- _( [* V4 {
6 D. l! {# T8 d4 Y# ^
Video
  I/ Y, b  P2 y2 d- g: j3 a: Y0 Y1 TID                                       : 1
! t3 C) Y) c* B1 WFormat                                   : HEVC2 D6 G, V4 B$ |0 g
Format/Info                              : High Efficiency Video Coding, e8 x! i0 O) l5 D2 Z: W
Format profile                           : Main 10@L5@Main
5 j5 a& E1 h9 e! s) {HDR format                               : Dolby Vision, Version 1.0, Profile 5.0, dvhe.05.06, BL+RPU, no metadata compression / SMPTE ST 2094 App 4, Version HDR10+ Profile B, HDR10+ Profile B compatible1 M. d0 W0 q6 t
Codec ID                                 : hev12 `! z; X" p1 M7 i' ?
Codec ID/Info                            : High Efficiency Video Coding4 \+ `8 o7 m4 u7 c* c( o
Duration                                 : 1 h 55 min
1 i# _4 o# E% fBit rate                                 : 19.8 Mb/s
; `/ P) N3 N: c# LWidth                                    : 3 840 pixels- ^. }& W# {1 {$ N0 R+ A7 d' p
Height                                   : 1 600 pixels/ N7 P* |) y; d* P  _' Q- S
Display aspect ratio                     : 2.40:10 Y% s8 I$ s; j5 X# T
Frame rate mode                          : Constant
* `. P4 W# i: t% w7 OFrame rate                               : 23.976 (24000/1001) FPS
( J# D$ ~6 Y" A6 _  i# ?Color space                              : YUV
. h8 `1 t4 @8 H% d/ uChroma subsampling                       : 4:2:0
: i( Y/ N" d% m$ T& Y9 }8 k+ ^7 OBit depth                                : 10 bits
7 l% F1 r/ v* s0 ?, hBits/(Pixel*Frame)                       : 0.135) g4 p" c6 K! o9 x/ D
Stream size                              : 16.0 GiB (88%)
/ t" |; j6 h  E  l) QTitle                                    : BEN.THE.MEN
2 Z& `* S! _" R' {Language                                 : English
% {, ]' O# x, y! H3 P( ?Tagged date                              : 2024-05-13 19:33:04 UTC5 Y. ^' Q0 R2 _7 n
Color range                              : Limited- H; ?: ]9 k" s0 B; q2 L
Color primaries                          : BT.2020- @* x' A1 j: @* v1 I
Transfer characteristics                 : PQ, N0 j% O7 `6 x, I0 n
Matrix coefficients                      : BT.2020 non-constant2 B- N% U8 u( M" M2 O. H; j
Mastering display color primaries        : Display P3
$ y3 J: |8 `" K0 ~8 G4 [2 @Mastering display luminance              : min: 0.0001 cd/m2, max: 1000 cd/m2
) n# }, [/ @; z4 y% l" RMaximum Content Light Level              : 968 cd/m2
1 B! c1 n5 Y5 |0 \1 H! Z( SMaximum Frame-Average Light Level        : 457 cd/m2
% I2 C0 D/ g) ?' j! t) {Codec configuration box                  : hvcC+dvcC
# Y6 |: S9 ~- ?  o4 F+ S
4 V9 U1 v; W+ y' RAudio #1% L1 [; S' P9 c6 I- O8 B
ID                                       : 38 c; \% g+ ~6 V* ^
Format                                   : E-AC-3; f- @1 j2 k* x6 ?
Format/Info                              : Enhanced AC-3
" Z) a( _4 S/ q( p; A0 v5 \1 @# iCommercial name                          : Dolby Digital Plus7 C, L6 v  P+ |) Y1 H8 l8 l5 f
Codec ID                                 : ec-3! O& T/ K  w* I; C
Duration                                 : 1 h 55 min- Q' @) E, t. p. L! {  z0 d' J& N9 T
Bit rate mode                            : Constant+ N4 b+ O* p) R8 P. B$ I7 t& i% Y5 h
Bit rate                                 : 640 kb/s
( V6 J8 w4 Z* D3 V. YChannel(s)                               : 6 channels
9 q; T5 v* E9 R  l  P# iChannel layout                           : L R C LFE Ls Rs
$ y6 {/ W: z! K% [+ i! wSampling rate                            : 48.0 kHz
& D1 K" d4 x3 q9 K# q) ]: \; iFrame rate                               : 31.250 FPS (1536 SPF)
" H3 i1 v9 z% F+ P# BCompression mode                         : Lossy
' i. ~, [/ X/ g& y! O; B- L3 HStream size                              : 529 MiB (3%)
/ P6 n# v/ M- s+ }& i) l7 Y; dTitle                                    : BTM DDP5.1) M- o0 ~# ]4 `" P0 b( W
Language                                 : English
8 O& f% D# _# I; s$ Q# E1 D3 I0 D3 J4 MService kind                             : Complete Main
7 t3 G" B. Y7 ]; y* vDefault                                  : Yes
# O6 w, ]: C6 [$ vAlternate group                          : 2
( i# f  @# n/ aTagged date                              : 2024-05-13 19:33:04 UTC
7 l3 ]/ n2 i8 B/ l7 P$ BDialog Normalization                     : -31 dB' [" ?0 n# I; v) F2 G& r
compr                                    : -0.28 dB) N# M  N( Y, h6 r* x! s0 D* L0 r) R
dialnorm_Average                         : -31 dB; ^3 ~! G, I( u" s+ T1 k: Q
dialnorm_Minimum                         : -31 dB
% x, g) D0 c; m, {) p6 \dialnorm_Maximum                         : -31 dB
3 B% H% q$ V4 ]( D! {+ E7 U) P7 O' ^: }9 q* M6 d5 u
Audio #2. h7 H* g2 o" e1 I& u
ID                                       : 4
. e) B# y: ]3 uFormat                                   : AC-38 t) p% G) f+ G, A
Format/Info                              : Audio Coding 3) F, {, u( f8 Q- a3 q
Commercial name                          : Dolby Digital
. e9 V' R9 f/ D; K! {8 S+ vCodec ID                                 : ac-3
, i2 b8 Z- L, x, X3 I$ k7 n3 |Duration                                 : 1 h 54 min
0 ]1 ?- }1 F- M4 w, P' o' w6 aBit rate mode                            : Constant( r- z5 ?) f$ U, Q' c
Bit rate                                 : 640 kb/s0 [- @. C8 p$ s2 r6 F' L
Channel(s)                               : 6 channels! V; `# E, Q  ]0 z
Channel layout                           : L R C LFE Ls Rs
) z' Y- O& f+ n# W/ P& [/ OSampling rate                            : 44.1 kHz
2 [, r: I- i) W4 Y- lFrame rate                               : 28.711 FPS (1536 SPF)
- o# ~( \3 j0 A' w5 P4 wCompression mode                         : Lossy
# I: |3 A0 p5 P! ZStream size                              : 524 MiB (3%)
+ }% X% m4 X; U$ ]% iTitle                                    : BTM DD 5.1
# z; l8 J3 G- T( m, p8 |* J8 cLanguage                                 : Spanish
7 a4 d9 h* C: u" b' f- tService kind                             : Complete Main3 L. A9 H0 p: t/ m4 L+ |3 Y) v
Default                                  : Yes
6 @5 w; ^9 j! ^& X7 lAlternate group                          : 3& t# F& b3 q4 i- l% z- X
Tagged date                              : 2024-05-13 19:33:04 UTC
/ h, e) ?1 ?( v- z0 P3 mDialog Normalization                     : -31 dB1 x' Z& J% R0 }; v2 }
cmixlev                                  : -4.5 dB
3 P% A3 v, |$ t: j1 wsurmixlev                                : -6 dB
. `9 U2 q3 h/ M. H) T. g& [/ Q/ E: Ndialnorm_Average                         : -31 dB
5 b1 X% V& [7 v0 i9 O0 h6 |  idialnorm_Minimum                         : -31 dB5 k4 _3 a/ S. q2 @% P" V/ Y
dialnorm_Maximum                         : -31 dB
3 _: r* W7 ~. a! B( o; ~/ M1 V! @5 d' g& Y7 h' G' m
Audio #3) {  ]- F# m* w& y% f: R. q
ID                                       : 5
2 \. `) d$ a4 i- x- Q. QFormat                                   : AC-3% t* b. c% i! e
Format/Info                              : Audio Coding 3& [: T7 P2 o1 w1 y. M
Commercial name                          : Dolby Digital
2 y; [9 a! _+ `% B5 F3 MCodec ID                                 : ac-3
/ q" D/ K4 H% bDuration                                 : 1 h 54 min
( f, q& E! v& I- F- m3 d1 `! gBit rate mode                            : Constant
+ B0 M2 U$ f6 n6 E- Q" M2 ?Bit rate                                 : 640 kb/s
- u4 E, W; r, m- U3 cChannel(s)                               : 6 channels# S( A+ Q' v" m  z6 c
Channel layout                           : L R C LFE Ls Rs
4 D3 X6 p: R$ MSampling rate                            : 44.1 kHz2 s: S' E2 C3 |% C5 `& ?9 Z
Frame rate                               : 28.711 FPS (1536 SPF)# h* T: \4 I6 N9 F, Y; z  W% p& X
Compression mode                         : Lossy
; V" }, |" P0 ]. U* [- x- V# R7 w* `1 {Stream size                              : 524 MiB (3%)9 f% ?) s; b; }- j/ ~0 |3 Z
Title                                    : BTM DD 5.1! L' v4 A. C0 }: _. O
Language                                 : English
  r- }7 V0 L) {  d3 MService kind                             : Complete Main3 w; P, W7 K; J- n* j7 E4 M* _4 l7 X
Default                                  : Yes
+ X! _! F- g/ Z) g  HAlternate group                          : 4% M  _% x7 k; _/ D* P6 O, D
Tagged date                              : 2024-05-13 19:33:04 UTC! P1 |7 O4 P5 N1 @) I; a8 \
Dialog Normalization                     : -31 dB5 p2 T( w- @' p; `2 U
cmixlev                                  : -4.5 dB7 I4 {4 b$ _, }/ R( a/ F1 |8 l) O3 b
surmixlev                                : -6 dB
( a5 a1 J+ \# S& @dialnorm_Average                         : -31 dB/ c; z+ H* D% ]( t9 O
dialnorm_Minimum                         : -31 dB
) \& e/ J/ U8 d# l3 N& r7 hdialnorm_Maximum                         : -31 dB2 a6 h# t, ]# d6 v8 d( X" M

( |+ D3 a+ o6 y* {9 g3 w; T( s( iAudio #4
* Q% p0 ]2 G) f4 bID                                       : 6
" G$ V# N8 n; HFormat                                   : AC-35 z! K+ S# B9 T. c
Format/Info                              : Audio Coding 3
3 {3 [! Y* A4 s- X7 ~Commercial name                          : Dolby Digital
5 y0 |" g+ O0 [Codec ID                                 : ac-3  _6 ], p- O% h- r) J/ d0 R' q
Duration                                 : 1 h 54 min2 I8 Z. x& Q, ]$ ~
Bit rate mode                            : Constant/ y$ U! o. n9 _/ {5 M1 d
Bit rate                                 : 640 kb/s5 f( s5 L) M3 x: q/ n
Channel(s)                               : 6 channels) f! Q% }5 @3 Q( l. r$ V1 |
Channel layout                           : L R C LFE Ls Rs; f1 T5 n& ^+ l+ Y: A: N
Sampling rate                            : 44.1 kHz. H1 f* u/ S( l" K  B* n
Frame rate                               : 28.711 FPS (1536 SPF)* Q9 q. U2 P. y! k+ s/ K
Compression mode                         : Lossy! ~8 ]+ {; U/ ~" V
Stream size                              : 524 MiB (3%)
) C/ c5 ^, Q8 x/ v/ ETitle                                    : BTM DD 5.1
- G3 s: ]& D, pLanguage                                 : Hindi3 W( k# t) H9 Z% ]/ p, z
Service kind                             : Complete Main
* u( G5 L$ P/ F7 ]& ^9 _& iDefault                                  : Yes
, D( @( m3 _- e2 y  j: b. c+ B  O" [Alternate group                          : 5
- b7 h1 |5 j' d2 n6 }Tagged date                              : 2024-05-13 19:33:04 UTC
3 g" d4 h$ Y4 T- v- {Dialog Normalization                     : -31 dB* x6 n7 i$ h9 g- ^( K; c" T
cmixlev                                  : -4.5 dB1 a/ z1 f0 I5 C
surmixlev                                : -6 dB
) a" b& H: B% T. j- ~' E; E% S4 ~dialnorm_Average                         : -31 dB. g% O+ k. }) ]# ?. d9 P, |% o
dialnorm_Minimum                         : -31 dB3 i0 h! f* c6 \. O: P
dialnorm_Maximum                         : -31 dB
$ N" z# D! p& \, k& A3 s) J- a
游客,查看本帖隐藏内容请回复 | 加入VIP可免积分免回复 了解详情 | 还不是会员:点击获取邀请码 Invitation Code

0

主题

800

回帖

3667

积分

Sponsor

金币
26 枚
体力
2100 点
QQ
sunday_119 发表于 2024-6-8 09:47:47 | 显示全部楼层
每天都来蓝光论坛看看,我爱蓝光电影。' v  J& m; s' w% w) S: Q
Bluraycd.com movie updates really fast, also did not release issued, whether you believe it or not, anyway, I believed!

31

主题

4222

回帖

2万

积分

Sponsor

金币
3171 枚
体力
10208 点
QQ
shiji1973 发表于 6 天前 | 显示全部楼层
Bluraycd又有新电影发布了,激动中……!9 }5 V5 P9 m- w
Bluraycd.com movie updates really fast, also did not release issued, whether you believe it or not, anyway, I believed!

31

主题

4222

回帖

2万

积分

Sponsor

金币
3171 枚
体力
10208 点
QQ
shiji1973 发表于 2024-6-13 08:28:06 | 显示全部楼层
这么好的帖子不回对不起自己!
$ |5 V- X  t8 v4 {- vThank you for sharing such a good resource polite reply, very sorry for myself!
4 S4 b7 o2 h9 Y8 Y5 @* e

1

主题

51

回帖

1035

积分

Sponsor

金币
76 枚
体力
854 点
intodeep 发表于 2024-5-16 22:59:03 | 显示全部楼层
瞅瞅呢,谢谢老板分享

0

主题

226

回帖

1658

积分

Sponsor

金币
67 枚
体力
968 点
quicken 发表于 2024-5-24 12:11:33 | 显示全部楼层
终于出来了,必须顶一个!!!

0

主题

2582

回帖

9072

积分

Sponsor

金币
222 枚
体力
3953 点
QQ
fangfang789 发表于 2024-5-30 11:00:24 | 显示全部楼层
每天都来蓝光论坛看看,我爱蓝光电影。8 {( a3 Q* [7 \9 `$ B% U# g+ Z; Y
Blu-ray Film Forum: I will always support you!7 A- g; P2 u% `2 |) t7 K+ C% ]

0

主题

1467

回帖

5608

积分

Sponsor

金币
275 枚
体力
2385 点
lfvvzc 发表于 2024-6-6 11:37:40 | 显示全部楼层
看完了帖没事做我还是淘帖吧!4 s7 |& c6 t0 m: M3 f# e
Not see, I am a novice, the inadequacies of the first Please bear with me!
# q- r- P( i( E1 }! @8 y/ h

0

主题

2582

回帖

9072

积分

Sponsor

金币
222 枚
体力
3953 点
QQ
fangfang789 发表于 2024-6-6 17:40:16 | 显示全部楼层
每天都来蓝光论坛看看,我爱蓝光电影。
2 ]: ]6 i0 U2 w; L: `I love your Blu-ray movies Forum!
5 m5 d* N/ O$ V, C& K+ A) n

0

主题

231

回帖

1254

积分

Sponsor

金币
5 枚
体力
759 点
kccylhh 发表于 2024-6-7 02:57:15 | 显示全部楼层
终于出来了,必须顶一个!!!

0

主题

17

回帖

394

积分

Sponsor

金币
170 枚
体力
157 点
ynkmdm 发表于 2024-6-10 12:53:02 | 显示全部楼层
土大大大大大

本版积分规则

小黑屋|手机版|Archiver|4K蓝光论坛

GMT+8, 2024-6-21 09:58

Copyright © 2001-2021, Gadaddy Cloud.

快速回复 返回顶部 返回列表