BluRayCD Forum

 找回密码
 立即注册【分享大片】
查看: 73|回复: 8
收起左侧

[蓝光原盘] 哥斯拉大战金刚2:帝国崛起 [REMUX无损版 内封中字] Godzilla x Kong The New Empire 2024 1080p BluRaycd REMUX TrueHD Atmos 7.1 x265-BEN 29.94GB

[复制链接]

9243

主题

194

回帖

6万

积分

Post Share

金币
542 枚
体力
13262 点

卓越贡献勋章

24小时 发表于 2024-6-13 02:00:03 | 显示全部楼层 |阅读模式
Two ancient titans, Godzilla and Kong, clash in an epic battle as humans unravel their intertwined origins and connection to Skull Island's mysteries.8 j' K8 G+ j3 |) k, c
5 ]: N4 ]% u; f& Z( h) t
1.jpg
4 H) M- F' }2 N) f5 S* H9 P) ~, x; y- h+ w
◎译  名 哥斯拉大战金刚2:帝国崛起/金刚之子/哥吉拉与金刚:新帝国(台)/哥斯拉×金刚:新帝国(港)  [' Q1 R0 U6 ~& a
◎片  名 Godzilla x Kong: The New Empire / Godzilla vs. Kong 2 / Godzilla and Kong / Godzilla vs Kong: The New Empire / ゴジラxコング 新たなる帝国' X; a- z' O" \* `- c
◎年  代 2024; A# z, c0 o+ Q1 D) ~( C2 A1 g8 \
◎产  地 美国/澳大利亚
& t! _2 c" w8 N+ U9 [0 d◎类  别 动作/惊悚/科幻/冒险$ s* B: {7 G: `1 R
◎语  言 英语/美国手语
) R/ a- x, y1 e◎上映日期 2024-03-29(美国/中国大陆)/2024-03-27(中国台湾)% w4 j) x* B6 }/ w% Y9 B
◎IMDb评分  6.2/10 from 72,018 users  F# e* b; y3 |& T- u9 S3 m
◎IMDb链接  https://www.imdb.com/title/tt14539740/4 i  ^, Q8 T# m7 k/ T( @
◎豆瓣评分 6.6/10 from 151,072 users2 x6 V8 _' L& P; r! ~; ^' @2 t$ W
◎豆瓣链接 https://movie.douban.com/subject/35453251/
: _4 r; w: v2 z. ?◎文件格式 x265 + TrueHD
" v4 ?% W" X3 C+ i2 f) E◎视频尺寸 1920 x 1080
7 z9 Y. }- f$ p; n1 Q◎文件大小 1DVD 29.94 GiB% r% U; V* s' b$ I* R  \, G& V' W
◎片  长 1 h 54 min5 Q5 x# b/ {* N- v% H% ~. X4 A
◎导  演 亚当·温加德 Adam Wingard
" T0 s( A0 U0 x2 h2 x7 V◎编  剧 特里·鲁西奥 Terry Rossio
" T2 ^, S7 d7 x0 u+ o0 {& D       西蒙·巴雷特 Simon Barrett
8 T5 _4 v! f8 X8 f       杰瑞米·斯莱特 Jeremy Slater
0 X+ i7 w9 x' ?* j9 Z$ V       亚当·温加德 Adam Wingard
' n* k3 R2 @& U+ T◎音  乐 琼基·XL Junkie XL
' }2 i  [* E+ `# |" n◎演  员 丽贝卡·豪尔 Rebecca Hall4 g( |* \0 S" N' |( W/ G4 y, s
       布莱恩·泰里·亨利 Brian Tyree Henry! M1 [, R- A' U4 Y( D6 Y! x1 j
       丹·史蒂文斯 Dan Stevens
0 d4 _% n# W! y2 c$ X" q* W1 L/ k( b       凯莉·霍特尔 Kaylee Hottle
3 |, M1 p3 b( e4 U       亚历克斯·费恩斯 Alex Ferns
* v; C5 S5 o# x8 x       陈法拉 Fala Chen; d: F4 ~4 Z& W# h( K
       瑞切尔·豪斯 Rachel House
; m/ B9 F% B6 Z; L* }$ z3 d. m5 f" K       朗·斯迈克 Ron Smyck  M+ S$ v8 }9 o# ^& X
       尚特尔·贾米森 Chantelle Jamieson  F' X; o4 e/ Q3 @
       格雷格·哈顿 Greg Hatton
& o4 u5 U& l! x9 H. S; s       凯文·科普兰 Kevin Copeland- I+ ~: F  q, e1 z
       泰丝·多布雷 Tess Dobré9 Y% m' x: R" Q; a. q
       蒂姆·卡罗尔 Tim Carroll
/ O6 O. @) @- |3 u. E5 V( A8 d/ r) Q2 j       安东尼·布兰登·黄 Anthony Brandon Wong, b/ d) M* z! ]2 P. H3 a- P
       索菲亚·恩博森-贝恩 Sophia Emberson-Bain1 F0 `2 J( k9 `
       奇卡·伊科维 Chika Ikogwe+ r( m/ d. ~! _' ?! v' [
       文森特·B·戈尔斯 Vincent B. Gorce
# d  \( A5 J' E; z       叶叶·周 Yeye Zhou! C# [- i, a, X( u# Y
       贾马利亚·欧斯曼 Jamaliah Othman
  G) j$ [2 ]4 B5 K& s       尼克·劳勒 Nick Lawler
! |" ~. p" r+ P8 P& l9 {+ Q) F       梅西·康沃尔 Mercy Cornwall" f5 J# M% @1 x* L" o: [
       卡西·莱利 Cassie Riley
/ w+ M( q: b5 Z& p       乔迪·坎贝尔 Jordy Campbell; u  C% Q9 {8 O7 o" V: P5 c
       妮可拉·克里萨 Nicola Crisa' n% S& U' `4 m/ L' i
       Stephanie Puggioni+ A. W; l0 E4 m$ P0 r  m
       Angie Adler-Koops
. ]8 F. N. p: f* [! b       Olivia Simatovic
  W  ^! P6 p4 I       Drew Matthews
# j) T# W$ M+ ~& R9 \       Kyle Clark
) e+ f; F, _2 M1 Y: ^  C       Alex Time
) M. e, g, F# S       Jacob Hohua# U; v; n1 |, t' T; Y
       Riley McCarthy
* ?- B2 o& Z  p, p) Z2 C* {' V! o* {/ W( c/ p
◎简  介 , ^) J! B. i5 V$ N$ J8 M" `

% w9 U$ H2 C0 b0 q- D' @  z  继上一次的怪兽高燃对战之后,金刚和哥斯拉将再度联手对抗一个潜伏在世界中的巨大威胁,并逐步探索这些巨兽们的起源以及骷髅岛等地的奥秘。同时,上古之战的面纱也将会被揭晓,而正是那场战斗创造出了这些超凡的生物,并深刻影响了人类世界的命运。' v# \: l- m1 [+ @

3 b" l7 T+ V) C$ ?4 D  Three years after the events of Godzilla vs. Kong, Monarch heads into the Hollow Earth after receiving a mysterious signal. At the same time, Kong befriends a juvenile ape named Suko, who leads him to a secret empire of Great Apes and the imprisoned ice Titan Shimo, ruled by the ruthless ape Titan Skar King. Through the meditation of the revived Mothra, Godzilla and Kong join forces against the Skar King's army.3 i# w+ n3 C) j7 E+ s* f! c
% K  e- v) ~2 C, r4 }1 w# [3 J2 N
Godzilla.x.Kong.The.New.Empire.2024.1080p.BluRayCD.REMUX.ENG.LATINO.GER.ITA.FRE.HINDI.PORTUGUESE.CHI.TrueHD.Atmos.7.1.H265-BEN.THE.MEN
! P$ s  r7 R# v) u1 f. j4 l1 n: C- a) {2 \; u2 K
Video& ?% ^, N2 n  G: f% O" ]) l/ V2 l
ID                                       : 1! }! a9 t- F5 {: ?- p9 |
Format                                   : AVC
" s% y' D1 Y6 \7 MFormat/Info                              : Advanced Video Codec: z1 M7 `' t7 I9 [& Z
Format profile                           : High@L4.1
- V7 T5 d5 _8 p" v8 MFormat settings                          : CABAC / 2 Ref Frames
3 _3 M1 E: r7 K  n  v% `$ JFormat settings, CABAC                   : Yes- j& K# P' l! U# c
Format settings, Reference frames        : 2 frames3 g" f! `1 C6 w: F5 b: v
Format settings, GOP                     : M=1, N=105 s& n! \  ^2 ^! g+ C0 ~- ?
Format settings, Slice count             : 4 slices per frame  u2 ?8 T* I9 M# C
Codec ID                                 : V_MPEG4/ISO/AVC6 l1 V0 P( ^) c1 v4 f
Duration                                 : 1 h 54 min
( p! l4 N/ S6 s* ~3 `/ x7 TBit rate mode                            : Variable: T# u& O' u& `5 C
Bit rate                                 : 27.9 Mb/s" F) Z5 M3 V4 w! d
Width                                    : 1 920 pixels( G1 P9 T1 u7 @; _
Height                                   : 1 080 pixels
/ w: C& a, l- c+ G6 S7 E1 GDisplay aspect ratio                     : 16:9  r, v+ p# F. }( z. m
Frame rate mode                          : Constant7 {# u/ z* z* Q. ]7 S
Frame rate                               : 23.976 (24000/1001) FPS% N4 ?1 ]# j0 Y! o) W1 @2 o3 U  f2 C
Color space                              : YUV
7 [/ |+ a5 |% x7 D% bChroma subsampling                       : 4:2:05 C$ h5 E# D7 ~4 Q9 Z4 H8 r9 q
Bit depth                                : 8 bits+ `* @. [; f2 M* n
Scan type                                : Progressive
% }; F9 x. O" S2 kBits/(Pixel*Frame)                       : 0.562
* o/ c: _, F* ^( T) }$ H3 kTime code of first frame                 : 00:59:59:00
9 w+ o- V0 Q8 @! C7 NStream size                              : 22.4 GiB (75%)
+ |& r" ?; b4 j! {2 ETitle                                    : BEN.THE.MEN2 R* T) T* _/ T3 a# K0 i  e
Language                                 : English
  g& F8 L0 q7 ]$ n( {Default                                  : Yes( @  ^% @+ P; `3 F
Forced                                   : Yes7 F3 Z' Y/ |$ Y# q6 i- X
) D! J* g% \; m* P' w
Audio #1
5 O0 C5 P7 @: V- M6 n6 RID                                       : 2
" D0 N. v3 t0 J0 qFormat                                   : MLP FBA 16-ch
% `1 [5 R& s" X) L* y" WFormat/Info                              : Meridian Lossless Packing FBA with 16-channel presentation
, c7 W6 M  n- P$ t7 \  ]Commercial name                          : Dolby TrueHD with Dolby Atmos
3 G7 _! x5 e' o, h* b0 @Codec ID                                 : A_TRUEHD
, @* n8 a3 r; X& r$ `) jDuration                                 : 1 h 54 min& z. R; T( b. ~; @, |
Bit rate mode                            : Variable' [5 r8 _3 N9 ]% l) @% {6 n
Bit rate                                 : 3 038 kb/s& f% O+ e/ @  M  v8 P* U! D
Maximum bit rate                         : 4 704 kb/s+ g: a" b) K. T) [  X# m& F
Channel(s)                               : 8 channels
' N" [2 u# W' j& y: T# M0 yChannel layout                           : L R C LFE Ls Rs Lb Rb, B: e0 [5 e  C& U- J4 t
Sampling rate                            : 48.0 kHz
+ e! D/ G5 M8 S* D: HFrame rate                               : 1 200.000 FPS (40 SPF)
4 m6 F( A, w" p9 K* m, e$ q3 rCompression mode                         : Lossless! w0 ]: `" o; K; @, m- L7 c( i
Stream size                              : 2.43 GiB (8%)
2 }! f4 ^! h' y8 A- STitle                                    : BTM TrueHD Atmos3 ~: p# G0 q7 t
Language                                 : English" B& c8 x0 [8 o* f; W0 u5 F
Default                                  : Yes% N4 |9 B  f7 a" }4 ~
Forced                                   : Yes' b) F9 T& T* ]5 ]; i7 o
Number of dynamic objects                : 11
1 h+ E. I, a6 v7 v1 h: GBed channel count                        : 1 channel
7 @& y% l6 M: Y7 q# kBed channel configuration                : LFE
" c2 Y0 d# \* L9 H( c) @& O5 D1 }( v3 F# Q
Audio #2
  \) u3 S" {8 L: P3 M6 ~0 gID                                       : 3
4 w8 G9 d% N  GFormat                                   : AC-3
/ F7 s3 x7 ~' _# h+ N; kFormat/Info                              : Audio Coding 3# b  U/ K) I: u* m( k
Commercial name                          : Dolby Digital
1 }1 Y! E- E' y8 fCodec ID                                 : A_AC3/ z, w( r# ^7 W# K( Y' B) G/ W
Duration                                 : 1 h 54 min" `+ d, r- ~! E: A  e
Bit rate mode                            : Constant. @. M( m3 B. l8 R8 K8 J) k
Bit rate                                 : 448 kb/s
4 {6 c9 r6 x, c# D5 ]0 KChannel(s)                               : 6 channels# M" R) S9 L4 [7 U% @' U' \. p
Channel layout                           : L R C LFE Ls Rs  v+ `% [& C: a6 r: r) H0 |# s
Sampling rate                            : 48.0 kHz9 ~1 H/ ^& o8 f
Frame rate                               : 31.250 FPS (1536 SPF); P# k8 \: F/ \  M/ j
Compression mode                         : Lossy
- H4 a5 D1 y  l/ P/ E! bStream size                              : 367 MiB (1%)* _* a0 Q$ I& A1 @  B
Title                                    : BTM DD 5.1
# L3 R* R+ f) N, [( w3 rLanguage                                 : English
8 g/ C) l9 y3 N* K! H8 C! LService kind                             : Complete Main; ^3 B' L/ i% A: M
Default                                  : No
1 }+ m) I- v% k( wForced                                   : No! A# L$ n, K" ]' W3 a( N
Dialog Normalization                     : -31 dB
- C4 B- N, T* N  ncompr                                    : 1.94 dB
7 k6 {6 t. s- ddynrng                                   : 1.26 dB( q- e* M& A: b
cmixlev                                  : -3.0 dB
* d" ~$ f/ [' R- \# U! c. asurmixlev                                : -3 dB, L- _; q8 c$ F9 D" i! x
ltrtcmixlev                              : -3.0 dB: H6 Q" a4 q- o! L( i
ltrtsurmixlev                            : -3.0 dB4 m* M( ^: j) I
lorocmixlev                              : -3.0 dB
- o) B9 v5 k5 G' Olorosurmixlev                            : -3.0 dB
" d7 M0 V, O  [- k+ \' o- K: |3 xdialnorm_Average                         : -31 dB' \( ~, T3 R! d, H; k
dialnorm_Minimum                         : -31 dB
' S4 W2 s. e9 i# Pdialnorm_Maximum                         : -31 dB
# J, v# J' U, C- L: r; g5 h* _6 z# T: e2 M. d: \2 _
Audio #3$ i. Z% G! o6 {( B0 ?
ID                                       : 4; ]1 f) @, N1 P
Format                                   : E-AC-35 ^3 B* I: `" b& [3 H
Format/Info                              : Enhanced AC-3
9 u6 W- V6 k% z9 `+ V/ c8 a8 q' TCommercial name                          : Dolby Digital Plus
! Z% P" h5 A9 m. Z$ U2 JCodec ID                                 : A_EAC3
; p, U0 ]# e0 B! H5 `Duration                                 : 1 h 54 min
/ l  W4 d) F# }; {Bit rate mode                            : Constant
" Q. T1 R- K0 R4 N+ e7 ^Bit rate                                 : 960 kb/s% X7 S* c1 D; i$ V4 |  f
Channel(s)                               : 6 channels
' ]  g  Q6 m, |: O1 i& kChannel layout                           : L R C LFE Ls Rs2 G7 Q4 F2 `: T) O
Sampling rate                            : 48.0 kHz3 C9 S9 ?; c/ k
Frame rate                               : 31.250 FPS (1536 SPF)# v7 ^% x* y4 V0 V- W
Compression mode                         : Lossy
1 V' }9 T; _2 H( ?/ J4 ~5 }" TStream size                              : 787 MiB (3%)
& d9 d7 C  ~- T/ B5 y( ~Title                                    : BTM DDP5.1
; O$ Q5 ]$ F1 u3 xLanguage                                 : Spanish+ I' ?! w" o3 L) j$ e" B
Service kind                             : Complete Main
: h) F5 S1 t8 w3 ODefault                                  : No
4 `& V4 p, S1 N- f6 _0 QForced                                   : No
5 f) }1 o% d9 w& e9 V: |3 ZDialog Normalization                     : -31 dB
0 `7 @: l$ G9 {1 q9 [* ~" ^dialnorm_Average                         : -31 dB
# Y6 Y. d! O2 H% b6 n' rdialnorm_Minimum                         : -31 dB
. x. M. s  e) [dialnorm_Maximum                         : -31 dB
+ V( S0 W6 W9 B7 b# p
" D3 C- {7 S- P* {3 XAudio #4
# a) v7 }' x6 G1 WID                                       : 5
- ]8 `$ B, h- K2 C* o( ?1 kFormat                                   : E-AC-3
9 ~+ k9 V% ~/ c- o% IFormat/Info                              : Enhanced AC-3; y, v7 ]  {% u2 s9 |
Commercial name                          : Dolby Digital Plus
; Q4 ^4 ~9 v# U- CCodec ID                                 : A_EAC3
0 t+ \- L4 S4 rDuration                                 : 1 h 54 min- v& v! F/ g: q5 U/ T8 a6 i
Bit rate mode                            : Constant
% ~8 E, |; g" `Bit rate                                 : 960 kb/s7 {& q( B2 h; e$ z5 `) h/ J' N
Channel(s)                               : 6 channels4 J1 P+ Q5 a; J( Y4 n4 f+ {" p
Channel layout                           : L R C LFE Ls Rs8 k9 z7 [( Y9 N* H. a$ j/ v# i5 |& _
Sampling rate                            : 48.0 kHz: J+ g# j% f$ v2 A5 o4 ?, @2 H* l
Frame rate                               : 31.250 FPS (1536 SPF)
4 U- [- T  A+ Y/ A0 ^% TCompression mode                         : Lossy
4 m8 j+ u. K5 @. fStream size                              : 786 MiB (3%)
: D+ j& i% r' S6 f8 KTitle                                    : BTM DDP5.1
4 k5 S( Z: V6 H# \/ YLanguage                                 : German
4 p. J8 Q5 s7 @0 ]4 Y& w: eService kind                             : Complete Main
1 w  C# }- Q6 [Default                                  : No* P7 H4 v6 s4 x2 L, q  O+ I. F
Forced                                   : No
' m) A6 l; p' B. V& jDialog Normalization                     : -31 dB  V3 m& S& v9 W, a, ?! J
dialnorm_Average                         : -31 dB' @- o9 _7 H' \! g1 Q
dialnorm_Minimum                         : -31 dB
+ T' p+ H# p6 j' N! Ndialnorm_Maximum                         : -31 dB
5 t3 E5 A/ G6 [5 _% ?9 C
& i1 H. @0 T# I- @6 BAudio #57 c  M; O7 }) T
ID                                       : 6  A' l4 S" d- Z6 `4 C  N% t( p0 |  B% _
Format                                   : E-AC-3
1 o! ~1 U6 J" f* Q. S" t' K+ d/ fFormat/Info                              : Enhanced AC-3
3 e. |) o8 n9 y6 w) ^! `& q: l" k5 u0 G# @Commercial name                          : Dolby Digital Plus
/ N+ n! ~, ]0 ^/ v$ u; A8 f' ZCodec ID                                 : A_EAC32 s0 ?$ B2 R' e# E( X$ o
Duration                                 : 1 h 54 min
# m5 v* P, e# D+ ^' N- f$ kBit rate mode                            : Constant
! z9 Q3 s. s: O0 HBit rate                                 : 960 kb/s3 q$ A9 @5 X1 K! n+ |$ z# W
Channel(s)                               : 6 channels
! y& n/ W, i% e) K+ x& A0 MChannel layout                           : L R C LFE Ls Rs# L8 v. p5 L, k" t
Sampling rate                            : 48.0 kHz5 o# ^5 _+ t& ^$ i, L5 Z
Frame rate                               : 31.250 FPS (1536 SPF)
4 Y! K& p* {( R. aCompression mode                         : Lossy. y+ W  B" y* \6 [! \9 M  W
Stream size                              : 787 MiB (3%)8 Q; A6 O9 x; t* R9 A* m
Title                                    : BTM DDP5.1
2 v* i% I/ `8 rLanguage                                 : French
, O3 R' Q: a9 xService kind                             : Complete Main1 K1 [; e% y7 ?: c1 Z- F2 s" g
Default                                  : No
8 N6 m, O3 j, C1 o' }9 O& \Forced                                   : No! L# ~: C6 T: [
Dialog Normalization                     : -31 dB
7 D5 M- y( @! R; tdialnorm_Average                         : -31 dB
7 {) C7 X, v3 a* fdialnorm_Minimum                         : -31 dB
8 T; b6 ~9 r3 Y" U# @4 f* kdialnorm_Maximum                         : -31 dB/ ^. s" R* f/ b6 E

4 l4 z" F& f. O8 e3 V. N# p( W. ]Audio #6
& _9 h+ q! [& l+ q" c6 i# U9 s, ?# R$ p9 IID                                       : 7! `  p9 L; \% W8 _
Format                                   : E-AC-3- T) \- E* x1 i. K0 R% I- Q) \, e1 o
Format/Info                              : Enhanced AC-30 q2 f! b( ^2 J4 t+ c
Commercial name                          : Dolby Digital Plus& P; R# l  E: C3 `; L; h2 }" o
Codec ID                                 : A_EAC39 c$ o9 E( g9 P' s* K& m7 k
Duration                                 : 1 h 54 min4 N2 U" u% \! ^" p: a& g6 e; p
Bit rate mode                            : Constant& J; J$ q1 j, h. ^/ L4 J
Bit rate                                 : 960 kb/s
& H0 J3 R# q; s1 A3 pChannel(s)                               : 6 channels
" s" T- p" d) u( y; uChannel layout                           : L R C LFE Ls Rs$ b) |8 T, S0 D* ~0 j7 \: f
Sampling rate                            : 48.0 kHz; r" M0 S" y  A8 a( z+ e
Frame rate                               : 31.250 FPS (1536 SPF)! X6 z% c0 a$ `. P6 F) m0 R
Compression mode                         : Lossy0 F. E/ f: b+ I: {4 I5 q$ s" W
Stream size                              : 786 MiB (3%)
6 H% z7 ~7 a/ ]Title                                    : BTM DDP5.1& S# D7 F+ L. L& b. ^
Language                                 : Hindi
. X) `/ g5 g  VService kind                             : Complete Main
, z7 [/ K3 u# E7 T0 x6 B4 aDefault                                  : No* F" b# ], Y- E& I) k
Forced                                   : No
) x/ N: h: V3 @* X+ g3 {Dialog Normalization                     : -31 dB
+ D* G, v) h1 ?0 z6 O  q4 J- gdialnorm_Average                         : -31 dB
9 P# G+ I1 P# X% ?7 H  C( b  `/ B& V! e: ?dialnorm_Minimum                         : -31 dB) b1 v/ L" J6 w2 s9 x
dialnorm_Maximum                         : -31 dB7 o# r( n( Q/ ]& I) P, Y) }

, o% n, m6 g5 r6 w, fAudio #7
' A) }2 d) R9 t! lID                                       : 8
! P6 |1 i7 p1 R, bFormat                                   : E-AC-3
+ L+ d7 u% Z* r' a) YFormat/Info                              : Enhanced AC-3
; ~  l7 q* t; T2 I8 `! DCommercial name                          : Dolby Digital Plus+ j$ R# H" t" S2 [  w. E3 D- }% h
Codec ID                                 : A_EAC31 M! C  G( h$ ^# W4 x& u( q
Duration                                 : 1 h 55 min1 P5 m$ K4 Z" E
Bit rate mode                            : Constant
9 P" e0 K: ]8 x$ y/ V0 uBit rate                                 : 960 kb/s
. V5 _& a1 p5 hChannel(s)                               : 6 channels) C: j9 C; W7 J' q" Z8 ]* P9 j
Channel layout                           : L R C LFE Ls Rs
0 B3 N# I+ b3 E. b$ Y" OSampling rate                            : 48.0 kHz3 v1 z1 B* c8 {' C8 I6 ~
Frame rate                               : 31.250 FPS (1536 SPF)' H& B' t  x0 u1 d4 m/ A  E
Compression mode                         : Lossy2 W1 e/ w  V; K! C" i1 f
Stream size                              : 793 MiB (3%)- b1 L- b* F2 z3 k/ J2 q; k. f
Title                                    : BTM DDP5.1
5 W0 W1 A% L' c( a5 tLanguage                                 : Italian/ ]! ?4 j/ ]* ?+ }
Service kind                             : Complete Main* a: P. @# g) ~8 x1 X
Default                                  : No) |1 z2 k5 I) y
Forced                                   : No0 l5 T  a2 q1 e/ V4 x/ t
Dialog Normalization                     : -31 dB
6 i0 e0 U# B  O2 ?1 E  u  zdialnorm_Average                         : -31 dB
8 _% @9 P8 t- ^) f& jdialnorm_Minimum                         : -31 dB$ U. L" q7 P! \- Q0 v7 X
dialnorm_Maximum                         : -31 dB9 }7 Q( o( ^' U7 o* F: N- p
2 i" f. _1 N2 v6 M" T
Audio #8
- L( G0 [; Z! N+ S- A, [4 oID                                       : 9! \8 H) e' I# i7 i5 v/ x
Format                                   : AC-3: Z, V0 S2 ]9 D' [% S
Format/Info                              : Audio Coding 3
* o/ K& N' y7 w( mCommercial name                          : Dolby Digital6 s  B8 g$ q1 d3 O
Codec ID                                 : A_AC3) G# J: J" J4 \8 K% l8 D
Duration                                 : 1 h 55 min
( ?& z  m5 s/ QBit rate mode                            : Constant
& b: S- |  X& p* t: I& H- k, V9 PBit rate                                 : 640 kb/s# ?. z4 s+ Z6 H' h/ q$ Z
Channel(s)                               : 6 channels% w, l$ [' m$ L. [. n: `' {! t  v) X
Channel layout                           : L R C LFE Ls Rs
0 A# I# ^1 A1 rSampling rate                            : 48.0 kHz4 E1 ]2 M* P: O0 E/ s) Q
Frame rate                               : 31.250 FPS (1536 SPF)
3 ^3 b# P1 w) Q, PCompression mode                         : Lossy* G9 W: X  @) a6 Y9 \, c* X
Stream size                              : 529 MiB (2%)9 d4 F: X0 v( e; T
Title                                    : BTM DD 5.1. F7 s0 W* j' ]4 T) Z. c0 ?
Language                                 : Portuguese. C. x% z' i0 w& Y
Service kind                             : Complete Main
: ?0 u& r2 ^6 g3 X& B& L4 r: PDefault                                  : No
) f! u/ u/ w& o; W9 E7 ~Forced                                   : No
* K3 v: T' P+ c% K' x! e5 aDialog Normalization                     : -31 dB3 `# w! y- I- g- n/ |$ C
cmixlev                                  : -4.5 dB. k$ w& d) z8 K2 g( e: S% T
surmixlev                                : -6 dB( ]! ^4 g9 G2 t& p
dialnorm_Average                         : -31 dB
& F  v, d% X* V0 M1 n9 [* Fdialnorm_Minimum                         : -31 dB( l5 Q- C8 _" s: b: L1 [0 [: t
dialnorm_Maximum                         : -31 dB
7 s- F, G" u& c- K6 |+ y. ^, ~
8 a! A: h. `$ y3 B: i0 kAudio #97 j0 c4 E! f" e. t
ID                                       : 10: y7 ~0 X, q& Q6 w$ |' T
Format                                   : AC-30 M# |* s2 N; a) m  v- E. i1 H& B& ]" H
Format/Info                              : Audio Coding 3) C" W$ c+ p6 U9 X9 F0 ]# K
Commercial name                          : Dolby Digital
, A" E* n7 `3 [/ X: H  ^Codec ID                                 : A_AC39 }! V1 Q# @2 Q
Duration                                 : 1 h 54 min1 ~7 g, e( `  _, [& l/ z
Bit rate mode                            : Constant2 q6 N# ]8 w4 x4 H0 C, J: X* z7 c# d
Bit rate                                 : 384 kb/s" e' P1 h+ ]$ w1 X5 e
Channel(s)                               : 2 channels. A/ y# B/ C1 d% B5 p6 f3 D4 F
Channel layout                           : L R
* H, l4 z( [! B9 t% C2 p1 rSampling rate                            : 48.0 kHz
9 r, ^! \* k) |* C5 bFrame rate                               : 31.250 FPS (1536 SPF), e7 Z7 x* G. y& I' j4 K/ K; J2 L
Compression mode                         : Lossy9 C4 Y' \' D7 i  P& W* e
Stream size                              : 315 MiB (1%)9 p* M. C8 k& n% a2 Y
Title                                    : BTM DD 2CH
3 Q- h# z) y# ^5 v8 s, s1 \Language                                 : Chinese: ^9 `2 ~5 K7 ?9 p" D- M% G0 L
Service kind                             : Complete Main' R5 U/ {. @9 N, u# A
Default                                  : No0 t* B4 \* e9 c3 X. y
Forced                                   : No' u& x3 O, B* f5 x
Dialog Normalization                     : -31 dB
; l- j" H, |5 @2 ]* F4 Pdialnorm_Average                         : -31 dB6 E( j$ `& k- A
dialnorm_Minimum                         : -31 dB9 d+ o/ k8 C( ?+ J, G
dialnorm_Maximum                         : -31 dB" M. b( G6 |. _: a7 k

, a- p, F5 a0 h$ V1 U$ JSUB LIST
' M8 |3 M) O. p, E! uEnglish, Arabic, Bulgarian, Chinese, Czech, Danish, Dutch, Estonian, Finnish, French, German, Greek, Hebrew, Hungarian, Italian, Korean, Latvian, Norwegian, Polish, Portuguese, Russian, Slovenian, Spanish, Swedish, Thai

( h1 {7 `7 j1 v/ o. d: x/ X
游客,查看本帖隐藏内容请回复 | 加入VIP可免积分免回复 了解详情 | 还不是会员:点击获取邀请码 Invitation Code

0

主题

232

回帖

1264

积分

Sponsor

金币
0 枚
体力
772 点
kccylhh 发表于 2024-6-13 03:12:00 | 显示全部楼层
* w$ L, X8 `6 M7 u: b1 M. {
感谢楼主,感谢!

0

主题

230

回帖

1692

积分

Sponsor

金币
230 枚
体力
1009 点
aacq 发表于 2024-6-13 22:42:48 | 显示全部楼层
谢谢楼主分享精彩电影

0

主题

145

回帖

2456

积分

Sponsor

金币
1 枚
体力
2078 点
QQ
longhui16818 发表于 2024-6-15 00:56:43 | 显示全部楼层
每天都来蓝光论坛看看

0

主题

230

回帖

1686

积分

Sponsor

金币
62 枚
体力
990 点
quicken 发表于 2024-6-15 02:19:07 | 显示全部楼层
谢谢楼主分享精彩电影

0

主题

186

回帖

2342

积分

Sponsor

金币
356 枚
体力
1531 点
marttn 发表于 2024-6-20 19:42:52 | 显示全部楼层
感谢大神无私分享
5 v0 l7 c1 ?7 J% ]; d

0

主题

616

回帖

2661

积分

Sponsor

金币
26 枚
体力
1442 点
luyife 发表于 2024-6-22 15:50:33 | 显示全部楼层
谢谢楼主的分享

0

主题

271

回帖

1382

积分

Sponsor

金币
20 枚
体力
834 点
matrix 发表于 2024-6-30 10:52:02 | 显示全部楼层
Bluraycd又有新电影发布了,激动中……!
, ?* ?  c7 w0 @9 zYour resources, well, I am very satisfied!  e3 T8 Q2 u1 S) d

0

主题

814

回帖

3776

积分

Sponsor

金币
35 枚
体力
2162 点
QQ
sunday_119 发表于 2024-7-1 18:08:51 | 显示全部楼层
每天都来蓝光论坛看看,我爱蓝光电影。5 `/ f- m* M7 ?7 R$ B
After reading the posts have nothing to do I Amoy posts!
5 c# k7 q! A, B/ Y

本版积分规则

小黑屋|手机版|Archiver|4K蓝光论坛

GMT+8, 2024-7-21 06:01

Copyright © 2001-2021, Gadaddy Cloud.

快速回复 返回顶部 返回列表