BluRayCD Forum

 找回密码
 立即注册【分享大片】
查看: 31|回复: 0
收起左侧

[经典影片] 绝地战警2/重案梦幻组2/坏小子2 [4K原盘压制版 内封中字] Bad Boys II 2003 REMASTERED 1080p BluRaycd x264 DTS-HD MA 7.1 & TrueHD 7.1 Atmos-SWTYBLZ 18.85GB & 20.74GB

[复制链接]

8349

主题

8543

帖子

6万

积分

Forum Moderator

金币
12431 枚
体力
11012 点

卓越贡献勋章

24小时 发表于 2018-9-7 22:48:43 | 显示全部楼层 |阅读模式
8 \8 h% D3 t/ ^
$ W; I8 p/ E1 C! Q, l) R
◎译  名 绝地战警2/重案梦幻组2/坏小子20 k+ [  D3 I3 c9 k1 t
◎片  名 Bad Boys II
5 v- d& {5 c3 y# H5 u" R8 C  Q4 h6 _◎年  代 2003
  _. g& R5 ]4 _1 D# T  H◎产  地 美国8 R1 x& v" K' Y2 T( p
◎类  别 喜剧/动作/犯罪
" j( `& I7 |% G% e+ u◎语  言 英语/葡萄牙语' {/ v9 b8 T2 @0 c+ f
◎上映日期 2003-07-18(美国)% V+ L6 r; B; e. K& z+ p
◎IMDb评分  6.6/10 from 198,913 users
3 {+ M2 F, u8 v  W◎IMDb链接  https://www.imdb.com/title/tt0172156/# O. T) ?7 A$ a
◎豆瓣评分 7.4/10 from 21,436 users
- o) I  V0 q' T, l◎豆瓣链接 https://movie.douban.com/subject/1307917/  }; @! s6 q6 Q% L9 `- R: D! p
◎片  长 2 h 26 min$ ^9 k, e6 C0 l+ `1 y# ]  D9 Q
◎导  演 迈克尔·贝 Michael Bay
3 z4 \- g. \( V5 S◎编  剧 罗恩·谢尔顿 Ron Shelton+ N3 }' M( z. W9 X' T
       杰里·斯塔尔 Jerry Stahl! n# Q/ Q3 Q: N
       乔治·加洛 George Gallo: u5 j8 U) W; B
◎主  演 马丁·劳伦斯 Martin Lawrence
) ~$ U) Q5 z: o       威尔·史密斯 Will Smith
9 W2 _9 X  T* c( X, V' ]# h  ]       詹迪·莫拉 Jordi Mollà
. l( @/ M" a  ?       加布里埃尔·尤尼恩 Gabrielle Union
$ C5 _; A5 N; ?' i  v9 \+ |       彼得·斯特曼 Peter Stormare
' g3 }: X  L0 L9 f6 L       特里萨·兰德尔 Theresa Randle5 ?' \2 s, ]  w& L# _
       乔·潘托里亚诺 Joe Pantoliano
, j2 M" q$ A8 `' F5 w2 a9 E       迈克尔·珊农 Michael Shannon* @* K- l8 T- b! z$ @2 c! T+ ]
       乔恩·塞达 Jon Seda
0 ?$ `$ n- x2 O6 \3 v9 t' Q       尤尔·瓦斯克斯 Yul Vazquez
; B) r2 u, ?6 I" U4 N1 J1 G       贾森·曼努尔·奥拉扎巴尔 Jason Manuel Olazabal
: ~+ E" ^7 z; z0 M5 s       奥托·桑切斯 Otto Sanchez& E. c$ C& Q/ v& ^
       亨利·罗林斯 Henry Rollins
3 s" J4 I% \5 N       安东尼·科隆 Antoni Corone4 ?2 ^0 s' ]/ b' @" e
       Gary Nickens
$ b, D) J; z& \" H9 ^# p
1 ~- l7 H, j% r& I1 `5 |0 N! j; ]◎简  介    0 J1 w9 r1 Y7 i) E- p# N" ?2 m

2 j2 Y, b; P& |3 Z) J  Two loose-cannon narcotics cops investigate the flow of Ecstasy into Florida from a Cuban drug cartel.2 o5 G  O( T2 V. V& @

- v& E3 c8 k; w8 n+ a  本片是《坏小子》的续篇,故事仍发生在迈阿密。迈阿密的毒品交易于一夜之间变得异常猖獗泛滥,各个贩毒集团之间的火拼也接连不断,为了调查贩毒集团内部的重重矛盾,迈阿密警局的一对“黄金”搭档,潇洒的劳瑞(威尔·史密斯)和神叨的宾纳(马丁·劳伦斯)再度临危授命,很快,两人摸清事情的来龙去脉:一股外来的贩毒势力正在侵入迈阿密的毒品市场,为首的毒枭野心勃勃,意图控制整个美国乃至欧洲的毒品交易,建立贩毒王国。, Z+ K/ C1 }8 m5 Z3 N+ z
& i1 a, P) @, n  G8 {, c  ~
  警方展开行动围剿贩毒集团时,一位DEA的女卧底西德妮(盖布瑞亚·尤妮恩)被毒贩劫持,对方开出的条件是,劳瑞和宾纳必须去干违法的事,这可难倒了两人,因为漂亮的西德妮不但是宾纳的亲妹妹,还是劳瑞的情人。; e$ Q8 W& a4 H, q$ I$ H1 d
1 T& s5 v& M( M' i4 C/ r1 a9 q
  Narcotics detectives Mike Lowrey and Marcus Burnett have been assigned to a high-tech task force investigating the flow of designer ecstasy into Miami. Their inquiries inadvertently lead them to a major conspiracy involving a vicious kingpin, whose ambitions to take over the city's drug trade have ignited a bloody turf war. But Mike and Marcus's friendship and working relationship is threatened when Mike begins to develop feelings for Marcus' sister Syd. Unless they can separate the personal from the professional, the bad boys are in danger of blowing the case and endangering Syd's life in the process.
6 Y7 `/ p( L/ }3 g# I: j' F2 g
' a% M- G* N6 q& z
& f6 P5 L# U2 z; `# l+ w5 l4 c- ]6 s# T! `9 l
Video1
* G, }( i" c+ `% B+ qID : 1
. q5 o. z1 B/ ]8 N% z4 @- QFormat : AVC/ O) k( E6 M( k' W7 j1 C% O$ H& h8 \
Format/Info : Advanced Video Codec9 w( q: P6 p: k7 g
Format profile : High@L4.1: c$ S8 D' L( h* I$ C
Format settings : CABAC / 5 Ref Frames
/ p3 `/ x, Z0 c+ D+ f# d; T$ j- EFormat settings, CABAC : Yes
. ^5 U4 p2 R0 X0 n5 jFormat settings, ReFrames : 5 frames6 w' i+ x, {$ c8 }' U, Z9 N& a
Codec ID : V_MPEG4/ISO/AVC
) j. F  b# M: c0 O; n' i1 uDuration : 2 h 26 min
' R1 ~" U9 S: X$ F) n" G8 d3 dBit rate : 13.3 Mb/s
4 C2 X$ s/ Q, A! \: @4 y" }9 AWidth : 1 920 pixels
! _5 K( H) Y) r$ @# a3 L. oHeight : 802 pixels
! C/ O# n( M; Q8 S& g( C7 MDisplay aspect ratio : 2.40:1
; u* }( v* z: U1 ~Frame rate mode : Constant
2 |/ j% B6 J6 n8 Z, fFrame rate : 23.976 (24000/1001) FPS% `) d4 O5 d: v8 W6 m
Color space : YUV) `$ B& y1 G& [7 G
Chroma subsampling : 4:2:0
* B  M2 G6 M6 V: i* G1 QBit depth : 8 bits
4 B5 @  i! m* ?; c9 g5 a) k; @Scan type : Progressive
) @5 A, g  o( y  ^$ LBits/(Pixel*Frame) : 0.3617 u; ?% q7 L9 w! s
Stream size : 13.6 GiB (72%)
0 G( B: w) ]) Q0 e( ?Title : Bad.Boys.II.2003.REMASTERED.1080p.BluRayCD.x264.DTS-HD.MA.7.1-SWTYBLZ( k3 }5 b9 Y' K2 I& X, r1 f
Writing library : x264 core 155 r2901 7d0ff22  x5 L) f  [/ E
Encoding settings : cabac=1 / ref=5 / deblock=1:-1:-1 / analyse=0x3:0x133 / me=umh / subme=10 / psy=1 / psy_rd=1.00:0.15 / mixed_ref=1 / me_range=48 / chroma_me=1 / trellis=2 / 8x8dct=1 / cqm=0 / deadzone=21,11 / fast_pskip=1 / chroma_qp_offset=-3 / threads=25 / lookahead_threads=4 / sliced_threads=0 / nr=0 / decimate=0 / interlaced=0 / bluray_compat=0 / constrained_intra=0 / bframes=8 / b_pyramid=2 / b_adapt=2 / b_bias=0 / direct=3 / weightb=1 / open_gop=0 / weightp=2 / keyint=250 / keyint_min=23 / scenecut=40 / intra_refresh=0 / rc_lookahead=60 / rc=crf / mbtree=1 / crf=21.0 / qcomp=0.60 / qpmin=0 / qpmax=69 / qpstep=4 / ip_ratio=1.40 / aq=1:1.00
  m& g& u7 R+ O- U! W9 K6 NDefault : Yes
" v7 X& H) b- K: h  Q2 `Forced : No
" x4 K) Y. o8 a4 C2 W
  X5 l# M' J+ |2 N* cAudio4 N- G! e3 y7 a8 V1 M
ID : 2& n! M% U! m/ W6 P0 |3 ^  m
Format : DTS
5 V& ], |4 k6 e2 x4 @! W8 ZFormat/Info : Digital Theater Systems
: |0 x  B: Y7 q! x% r( A2 HFormat profile : MA / Core
" d& {% w/ C' U0 E) NCodec ID : A_DTS
; u. D2 t7 C$ NDuration : 2 h 26 min
9 I3 z- d1 k3 w3 @# d5 nBit rate mode : Variable / Constant, a2 R' J7 o9 l3 ^2 q. \
Bit rate : 4 644 kb/s / 1 509 kb/s
' X# Y6 J5 |5 `9 q2 ^Channel(s) : 8 channels / 6 channels
/ V( ]' ]: p  a8 m  j, XChannel positions : Front: L C R, Side: L R, Back: L R, LFE / Front: L C R, Side: L R, LFE; m; N7 ]/ H: l7 N1 L
Sampling rate : 48.0 kHz2 c3 E8 B1 b& R7 K4 R. E0 S
Frame rate : 93.750 FPS (512 SPF)
8 N8 \/ p* M& c6 oBit depth : 24 bits8 o+ m( i  L* }8 j! q1 Y8 n7 s
Compression mode : Lossless / Lossy
  w' z/ E6 D- }5 ~* ^" u. EStream size : 4.76 GiB (25%)1 {$ `) D9 R+ p1 m. ]
Title : Bad.Boys.II.2003.REMASTERED.1080p.BluRaycd.x264.DTS-HD.MA.7.1-SWTYBLZ
( v8 w4 M( C7 u# h8 k6 jLanguage : English
2 Q; j8 X% k+ E( ]6 O  ^Default : No7 f# G* h$ E3 F
Forced : No
5 H  t) y6 G* M4 u# \. _' `' w; v# l" [! n  }2 |" N5 M
Text #19 O/ J% I! \# g% v+ v3 V
ID : 39 P& ^  H" {/ r: t0 i
Format : UTF-8
; m6 j8 x: h. P0 m1 o  o* ACodec ID : S_TEXT/UTF8; z& H0 s& Q" L' W& ^( E' C
Codec ID/Info : UTF-8 Plain Text
) ^$ L  d7 ]4 c6 nDuration : 2 h 20 min
% |. N' f' l% P1 `Bit rate : 69 b/s% Q' u8 S. B; K) K3 @; V
Count of elements : 1912- c* [; T- V7 m1 l+ l3 F. E+ J
Stream size : 71.6 KiB (0%)4 w  b  a9 `& ?# |, z" n
Title : English-SRT
& \5 o2 k/ L* ULanguage : English& k3 G" s2 D' s( h/ }. J. @
Default : Yes  [7 s2 e* Y. r! t# M
Forced : No
; `" |/ O- c1 w/ y% m
8 Z% V0 e. o  P/ ?2 J% R2 OText #2
5 x/ }* i, l( }8 cID : 4
4 f, U3 X( I0 H1 W" k8 w& RFormat : PGS
: ?6 Y' F! d# `5 S/ L4 f5 XMuxing mode : zlib- V! z$ j. f! h% E* ?
Codec ID : S_HDMV/PGS
; q& l$ l" ]6 NCodec ID/Info : Picture based subtitle format used on BDs/HD-DVDs
2 ?! Z% P( Z. y; s6 ^2 ?Duration : 2 h 20 min* `& ~: |! @+ W# O  {. p5 A
Bit rate : 40.2 kb/s
( u' C; y, J( |+ ?- A6 I$ u2 ]Count of elements : 3824" b/ O$ g; D- `6 P# h5 w6 a& ?
Stream size : 40.3 MiB (0%)
: z* m' O2 Z: Q" A* e, R0 WTitle : English-PGS$ U9 K. d% ^3 S* S7 a$ U
Language : English& m0 w$ u, u. ?: M; a/ D3 J/ j
Default : No
) a% l' T# F! T% yForced : No9 a% f; \3 z! N$ M

2 e1 W* J( K: M; D% MText #3  H& ^, Q6 u: O6 \, t4 M: g7 j5 X
ID : 5+ \/ Q! j% ]: w; S. {" r( m
Format : PGS
9 @. e" N' y+ y1 D; zMuxing mode : zlib
; X6 M/ M% w: [) O1 Q1 V. R5 mCodec ID : S_HDMV/PGS
/ T/ ~2 M& K, E. UCodec ID/Info : Picture based subtitle format used on BDs/HD-DVDs
+ V( |' l7 K( p: ]8 ?Duration : 2 h 25 min
/ y& \) Y' Y" t7 Y( S$ [: R8 YBit rate : 45.3 kb/s
$ M, S0 k$ a7 h7 ?4 GCount of elements : 4518: t1 \" V- M; W' E0 D! J
Stream size : 47.0 MiB (0%)
* K# o6 i$ ^& z7 l+ X4 |Title : English-SDH-PGS
6 o+ V: g9 Y2 D) |# k6 xLanguage : English8 S1 A5 I* `, t* o" `) R4 M7 D
Default : No
9 W2 B/ l2 c5 c8 VForced : No
! ]1 [0 E  k* o8 }/ @: d
6 ^$ I; C7 [  s: Z& V! HText #43 I8 x# E0 \1 E# g/ `
ID : 6. h( [9 F6 s' z7 ^
Format : PGS3 o/ I1 z' W& M; u5 q$ v9 a
Muxing mode : zlib
4 j& o; q2 W. s2 fCodec ID : S_HDMV/PGS( a9 M' d% |. I( [+ |0 y$ ]
Codec ID/Info : Picture based subtitle format used on BDs/HD-DVDs
1 U$ N* z- e& j3 Q; f: s" ?( oDuration : 2 h 20 min2 i3 o5 m5 j* v$ E
Bit rate : 40.2 kb/s
8 m1 P8 ?1 A1 A, }. nCount of elements : 3832
1 H! h5 C( W2 ^# g5 |! ~9 {Stream size : 40.3 MiB (0%)
1 O9 j" E* c! w" _5 N# ]: N. `Title : English-PGS' \% S2 c' w6 T0 i- u
Language : English
  o# \3 \: o9 E" x3 `( qDefault : No5 ^. H5 B% ]# c4 @
Forced : No
! H9 Y8 U: R6 X! c. D( D( h! X
9 q0 }) ~- J: l0 o8 h5 ?6 D$ X0 pText #57 m* ~% J) l* I% B
ID : 7
3 D0 S' C. l  n- Q, _Format : PGS
* t  b9 l" D. R5 c# KMuxing mode : zlib! g. F/ D4 F8 k! s* {3 I
Codec ID : S_HDMV/PGS0 O- ?, b7 {7 _
Codec ID/Info : Picture based subtitle format used on BDs/HD-DVDs3 c' h0 M. E0 ~8 W7 ?& i
Duration : 2 h 25 min
# t/ V& p9 a$ N( x" A5 a$ EBit rate : 45.3 kb/s8 N% L' b/ `6 l4 g4 ~
Count of elements : 45181 d- ^  D! x5 K5 u" L
Stream size : 47.0 MiB (0%)3 ~' j8 k, ]+ L% n
Title : English-SDH-PGS% s4 L5 H! W( T9 E4 G/ `1 v/ u
Language : English& g2 O; k8 j% b3 v/ u: l
Default : No! N% g: D" t& F7 c
Forced : No
. E. m0 r+ e- Z) ^
  M" ?1 Y( F) r) H1 OText #6* B' j3 y% \& _" s+ }
ID : 8) b6 o8 n. _" f9 R  w
Format : PGS9 I7 q. d- H5 B0 t+ f4 D7 z* y
Muxing mode : zlib
$ S8 [/ [1 i/ k# Y, GCodec ID : S_HDMV/PGS6 T  W9 i7 d; k7 J& I6 F, u5 o
Codec ID/Info : Picture based subtitle format used on BDs/HD-DVDs! t! A* n. w+ s' s
Duration : 2 h 21 min
( k5 R8 e7 z2 c3 V  L& OBit rate : 19.2 kb/s. \) g9 ]* `5 Q4 [
Count of elements : 3844! A3 x* |1 A+ g9 j
Stream size : 19.4 MiB (0%)
! E  _& l6 s1 s- FTitle : Arabic-PGS
0 B' x( ?0 |$ p0 ~4 SLanguage : Arabic9 }- |9 V7 V) ?: e5 Q
Default : No7 K( C/ i7 m4 a# O' N1 i& P
Forced : No& N( \( {( y# |5 |5 B
$ \: u0 L% Q% J5 s2 n1 R
Text #7
9 E9 t& {) r6 Y) K0 P- I, vID : 9
9 X$ F& O/ D8 Y* M8 DFormat : PGS
( F& O+ w: r$ f8 T6 S" dMuxing mode : zlib
$ }4 E/ k4 O. ~) n4 d1 gCodec ID : S_HDMV/PGS
, v! Q; S% k- GCodec ID/Info : Picture based subtitle format used on BDs/HD-DVDs
/ P2 K; z2 k+ |+ D5 v) j8 LDuration : 2 h 21 min
/ ~% _; h; q% T, k; RBit rate : 26.9 kb/s0 `# B' C& Q0 b6 ^4 Z7 i. m9 {! T
Count of elements : 3880
/ x. t8 Q$ ?% z- ^( o- @" A( ^Stream size : 27.1 MiB (0%)3 g. \- g9 O* B2 _
Title : Chinese-PGS& }% q7 i- D+ R; s# d) _3 r
Language : Chinese2 y3 _& V& B0 h
Default : No& T3 x, f6 e- v3 Y  f
Forced : No1 ^: I; N; C0 F8 i1 F9 ~
6 h; q: d, m2 Y: F
Text #8
, {* c2 A! s; K1 g  D# a' s6 HID : 108 G7 E. {: N; _3 U9 D2 Q& g" s4 M
Format : PGS! S4 T0 n0 X) ?) n
Muxing mode : zlib) q) Z$ x7 R5 O0 f
Codec ID : S_HDMV/PGS
- l# {1 Z9 A7 S! A% xCodec ID/Info : Picture based subtitle format used on BDs/HD-DVDs8 c0 v% a8 U6 A/ i% W! n$ j
Duration : 2 h 21 min: N/ L4 e% g" q' q, L1 d, E: o
Bit rate : 28.2 kb/s
/ R. v9 @* z% B, x- E3 l* NCount of elements : 3822
" [3 ?% u" ~7 u7 P. A6 [Stream size : 28.5 MiB (0%)
! C. h, t5 c2 W  W% p* XTitle : Croatian-PGS# _+ e- b; H- C* p0 ^* B
Language : Croatian* V9 n( k3 N3 B
Default : No! R! X4 b) g" A, V& a; ]
Forced : No1 K. M# ^0 x7 `+ b

0 |8 d4 ]% B  v  ^9 a# XText #9% B1 w$ ^4 @0 x! z" h" u. t' Q, t
ID : 11
5 h9 p/ \( C3 I. sFormat : PGS
- F4 z" L2 s7 t- VMuxing mode : zlib
) c' v. H- z9 H& q+ W9 ZCodec ID : S_HDMV/PGS
! V1 x9 a1 L" u, t3 ICodec ID/Info : Picture based subtitle format used on BDs/HD-DVDs5 j8 z% _& z3 w, g% |" _; g
Duration : 2 h 21 min& N; _: w7 R# b1 L. f& j' w
Bit rate : 31.6 kb/s
0 {' [9 a; F7 tCount of elements : 3782
' n  m/ I( }9 c; fStream size : 31.9 MiB (0%)0 c! k. L  T3 M1 A. X; X4 b
Title : Czech-PGS
  b+ F+ Z" Q% U8 C" Q/ vLanguage : Czech
3 L" \  h7 C2 eDefault : No/ h  y$ B8 q0 Y
Forced : No
+ a: L5 Q- T- t* N  H/ Q
: @5 U( q( J1 l' kText #10( t, [' j: E2 z3 O" F0 n
ID : 12
  A6 `# [) J( t  {9 DFormat : PGS8 V, C( m# n* S6 q
Muxing mode : zlib
( I3 J4 c% u/ T5 x' ~7 iCodec ID : S_HDMV/PGS  U9 U- G& J! O' Z9 @& X' E4 M
Codec ID/Info : Picture based subtitle format used on BDs/HD-DVDs
. E% `* }5 ~1 @$ |4 x. g2 eDuration : 2 h 21 min
3 q2 C9 @3 ]/ Q8 `% @2 [$ e; E, uBit rate : 31.3 kb/s3 @) }4 \" y0 M( \2 z  c
Count of elements : 3286+ b, a& F  c0 k2 q" G
Stream size : 31.6 MiB (0%)6 J% v; a5 Y/ @! j* V) T
Title : Danish-PGS- S" G! c, M  Q  Z7 _
Language : Danish
6 C* l- I/ a$ ]8 ~( `3 K* b8 sDefault : No
" x& m) x3 N* g+ v. @- x. E2 Y$ u2 ~Forced : No9 `" d9 W, ?. n

# D! o' K# b' q" `8 r0 e3 yText #11
" g* U6 q: d* B3 i) ^ID : 13
  n2 f; Q- ^  ?/ b/ ~7 Q" tFormat : PGS, ]  b5 x! [) R  W& Q
Muxing mode : zlib0 f7 o6 P) }/ W  d! A& y
Codec ID : S_HDMV/PGS
5 r; v1 _3 A5 {4 ]& _: XCodec ID/Info : Picture based subtitle format used on BDs/HD-DVDs4 d- {" F+ M6 y" ]! I
Duration : 2 h 20 min
" L1 H  o4 Q2 {; W8 }Bit rate : 30.7 kb/s2 M! E4 W; f6 d9 C) y
Count of elements : 2647/ e' R- _! k' S) c1 V2 h
Stream size : 30.9 MiB (0%)
& @6 l% Z8 Q  g: g5 [$ `Title : Dutch-PGS6 M& b$ a% g2 J  ?
Language : Dutch
* j3 C% ]. R. _) dDefault : No
% I+ H4 S% B1 \  b! z+ s2 u* @  zForced : No. _2 z% j$ E4 O, X8 |# y8 \( s+ p/ ~
' A/ v' f( U9 }- |7 O
Text #122 e& t, O, V) m$ M' H2 }8 W2 G* |$ q
ID : 14
2 i0 U0 o7 s& @) Q0 w, RFormat : PGS
2 r+ }5 G7 n$ ^4 O' XMuxing mode : zlib6 V# S+ V7 m' Y( V7 [, v
Codec ID : S_HDMV/PGS
( D6 E4 m& v8 x1 n* x4 O: _8 wCodec ID/Info : Picture based subtitle format used on BDs/HD-DVDs
, g& u/ v4 I& QDuration : 2 h 21 min$ F/ l3 v  T9 B# K* X$ G9 C
Bit rate : 30.1 kb/s
& K, b0 L& q1 K, a0 i; I( iCount of elements : 2982* o2 a0 Y; `9 g+ \0 K
Stream size : 30.4 MiB (0%)
5 F6 G* \* w7 xTitle : Finnish-PGS, N7 s! P% i+ T  g  h1 u
Language : Finnish" O9 U% M5 T  |. h0 m! T
Default : No3 p0 k" J7 f: r* p
Forced : No
, S% M8 F. J1 h
5 M( o$ x# ~3 [: }' }* ]3 IText #13' v9 A( O4 r- `. w/ u
ID : 15
; _; ^1 X8 ?* b( g  y/ `Format : PGS
8 b& r: R. a3 _/ uMuxing mode : zlib
) y. [& }- D2 q$ L8 a6 Y7 tCodec ID : S_HDMV/PGS8 L, |# v  F. H; `
Codec ID/Info : Picture based subtitle format used on BDs/HD-DVDs* w! M! c$ R4 f, Y* k; u0 ~. F
Duration : 2 h 25 min3 k5 p$ w8 i* u* V
Bit rate : 27.0 kb/s+ k) n, d$ `) A) D) v( }7 q0 ?$ d2 }
Count of elements : 3586; {& n$ x9 E0 S7 k9 B4 |
Stream size : 28.1 MiB (0%): Q# S9 m$ A) Q1 I+ r
Title : French-PGS1 }3 h+ r0 V( K$ w
Language : French! v: o0 c, i1 @- o" G4 V, M
Default : No
  S! |! ]9 ^; ^Forced : No
" ~; |& ?, |4 l1 b1 O% L% n
2 w# j  C; t) w5 y+ Y. T  bText #14
& k7 t- q9 w, D3 W* rID : 16& f) J' [  \. s4 D
Format : PGS
& w& Q( a) p& g) f: kMuxing mode : zlib9 t1 K$ h: s$ S( S6 j# k
Codec ID : S_HDMV/PGS1 @6 b" G# O- k  }" O
Codec ID/Info : Picture based subtitle format used on BDs/HD-DVDs
8 n) I  b: m7 A5 D( `6 @4 iDuration : 2 h 21 min# h3 W$ _+ i" l* |9 P6 R5 A
Bit rate : 44.1 kb/s
. i) n0 b6 K$ w3 iCount of elements : 3951
0 ]: I% u, ^% C( W& dStream size : 44.5 MiB (0%)
& n/ w$ t8 ~8 UTitle : German-PGS
+ V, o! J1 E9 ?# dLanguage : German. a! x. ~  v  u- K) m
Default : No
/ w3 b" g9 t4 M, HForced : No
4 P! D! e% h. q. i2 `' I
1 l! w( A! |; y/ u' |; G' h1 sText #15
# ]( K% U5 W3 k4 q6 C- yID : 174 G( z9 f7 j) a8 w) M
Format : PGS
' C7 G6 b; D+ X, g- vMuxing mode : zlib: Y- ~/ |& `- u+ p& ~0 F
Codec ID : S_HDMV/PGS5 v! b, U# M/ ~" A
Codec ID/Info : Picture based subtitle format used on BDs/HD-DVDs6 v% I. p4 D) _: C' N! Q" y. z
Duration : 2 h 21 min
8 c; @5 J9 ]; r9 l2 I9 P- e5 i# mBit rate : 35.3 kb/s0 i- K! T6 f' x
Count of elements : 37388 R$ J. z+ l' q
Stream size : 35.6 MiB (0%)& L. y: `. J! `. ?% a  n
Title : Greek-PGS( R2 b6 `. Y7 c1 G
Language : Greek3 P$ O' j& q) A1 \8 F) ~
Default : No
7 I, @) P/ k  s1 [7 s1 ZForced : No  b3 \: b, a) x; R% z( D7 k& _8 V
" L" R3 o+ n% ?! S
Text #16& J. z0 _+ y' p, Q, L' V
ID : 181 r+ i" U  Q, `. V: w9 Q6 ]0 O
Format : PGS
7 d& O- A1 L& P1 N8 g! {Muxing mode : zlib
6 r6 v3 w; s% |8 h( XCodec ID : S_HDMV/PGS' n! p, Q) S  W/ u8 o% E0 o
Codec ID/Info : Picture based subtitle format used on BDs/HD-DVDs
, g# d: W! ~7 [. c1 s6 ?+ mDuration : 2 h 20 min
3 q  R$ k% ], t7 p( XBit rate : 29.4 kb/s
1 U3 ]# [4 R* E. ]! lCount of elements : 3838
: u. b0 }2 e2 vStream size : 29.6 MiB (0%)
$ s: u6 N# C& O6 e; Y9 ~6 XTitle : Hebrew-PGS& ~2 [7 Q6 z9 d4 d" u& x
Language : Hebrew
$ R: `% q  i( L8 JDefault : No4 z# D2 ^* A4 v; A! l
Forced : No3 f9 ^* }: o1 X6 P; M/ B; y, u: a

2 @( t  R) }5 h+ ?* x* OText #17; ~5 ~8 e! v  J* C
ID : 19
  f( x* B' P& T. U; Q8 WFormat : PGS% d: S& ]  M0 f7 D0 u. G! R0 e
Muxing mode : zlib( {" I/ ~; _4 g
Codec ID : S_HDMV/PGS2 o1 K/ j/ I: \% ]
Codec ID/Info : Picture based subtitle format used on BDs/HD-DVDs# z8 ^9 U/ |* m; b) W" B% s
Duration : 2 h 21 min  \+ _' Q  a7 H$ H
Bit rate : 27.6 kb/s
  p5 Z) m  @2 c% F( NCount of elements : 3846( Y  k3 J6 d* d. q9 {# S$ t6 W
Stream size : 27.8 MiB (0%)3 b% Z* {' @% ?
Title : Hungarian-PGS
3 C# Q# u' s# d7 v. k7 CLanguage : Hungarian
9 o  b& _& U! Z: w: S: QDefault : No* k# R% P' k$ q% d$ z; q
Forced : No* D" i4 I) L. \% J1 \

" c+ _& r/ V+ ?) }: P* x" \Text #186 [& ]# F( J0 @2 u6 K2 [
ID : 20
7 k  O3 g$ c5 N! h- M* a6 t" [Format : PGS, Y+ D2 ~! {5 K* q. l- D
Muxing mode : zlib
0 B" q9 a7 ^5 [. Z3 qCodec ID : S_HDMV/PGS- K1 V) r. s* p& S
Codec ID/Info : Picture based subtitle format used on BDs/HD-DVDs
( G. `0 I2 W. L" ^1 w+ z9 H+ dDuration : 2 h 20 min
) F# @" n* ^9 Y) c5 W8 uBit rate : 36.5 kb/s3 ?6 |% A- X* Q! ~
Count of elements : 3822! _( B1 |5 J  u
Stream size : 36.8 MiB (0%)1 m, ~* i8 i9 z' L' _7 H8 \( I+ x1 Y
Title : Italian-PGS
/ H% V$ x4 G6 E8 ELanguage : Italian4 F0 a% D6 \9 d/ s: h$ r6 J
Default : No
, u9 ~2 C. J. g$ C0 AForced : No
, f5 l" L8 Z* @( ]
! I1 {, N& g9 P2 L- jText #19
2 S6 i& L. g+ A6 r" \ID : 215 k1 E5 D3 D9 S: b: U9 j8 @
Format : PGS  j4 e! R; n. F/ Y
Muxing mode : zlib
4 N! S3 i- v3 C$ t1 ?/ ?% ECodec ID : S_HDMV/PGS8 D1 C& z- {+ w3 x4 U
Codec ID/Info : Picture based subtitle format used on BDs/HD-DVDs
0 @6 Z- h/ V: _- t* T: q) v' M9 VDuration : 2 h 20 min4 j  W# Y- U7 `2 j- y
Bit rate : 27.2 kb/s- g: W. z& g# M9 w+ ^. N
Count of elements : 4193
( Q, D( G% [& G% e6 Z4 G4 `Stream size : 27.4 MiB (0%)# R  v: F4 |+ R& T% Z
Title : Japanese-pGS
6 ~/ x1 |3 j5 P, v: JLanguage : Japanese- ^/ x, l  N: t( S; P) I/ j, P& N
Default : No& R. W$ E5 v- y2 N* p
Forced : No
; q8 S; q2 H4 h/ |) ^# e/ P
( ~0 P  L! Y3 BText #205 F3 T, ?, j9 K
ID : 22, }7 ^  Q5 w3 }" x) K5 m
Format : PGS9 e" u$ r, ?$ w. k/ M2 s/ r2 Y
Muxing mode : zlib
, \- {. `7 P& R0 dCodec ID : S_HDMV/PGS" D2 N" @  o/ k$ ?4 |2 f/ W9 k% @
Codec ID/Info : Picture based subtitle format used on BDs/HD-DVDs
) \) y! ?9 t1 w( E7 ^Duration : 2 h 21 min
6 r2 G! c; d9 I: h' WBit rate : 27.2 kb/s' s9 w$ v! e% [) A
Count of elements : 3874( Z. [& G, k2 n6 I! a1 o! r
Stream size : 27.5 MiB (0%)4 x" V; D4 h3 p8 V7 P* H$ m
Title : Korean-PGS
0 m, r. F: R+ K" }6 V1 z! lLanguage : Korean
; e7 b7 {: d. S, Q, s8 qDefault : No
1 r( y( N7 N' f+ d% w+ i" m) ^9 cForced : No+ `  M7 ~3 U4 _9 @1 ]! l
5 |1 K0 e' q& S% w9 t. r
Text #216 Y: k" @% P6 r
ID : 23
$ b& {2 a& B2 w/ QFormat : PGS1 z7 E  D  i1 @, l+ B
Muxing mode : zlib
% P4 k, P, |3 r+ W0 l, [5 g- Q2 fCodec ID : S_HDMV/PGS
1 u6 ~" \. V% U$ S# q+ L. oCodec ID/Info : Picture based subtitle format used on BDs/HD-DVDs. S! t( f; j: N
Duration : 2 h 26 min) V& e* L. q' I7 h1 }( P" o
Bit rate : 27.7 kb/s6 w5 l$ _' Q" R, l1 e" l
Count of elements : 3518  m/ v! I8 i; L) ~7 x7 y3 o
Stream size : 28.9 MiB (0%)
& {" k/ B6 g1 \# pTitle : Norwegian-PGS: R% D% @5 k7 H( P/ \8 H
Language : Norwegian
+ v# j$ W6 n& H  z, C- t+ wDefault : No1 {* U5 [1 h4 ^. M
Forced : No* L9 A- j) D" A8 n3 e

* t1 {  `3 u* {8 g1 ]Text #22
" Q' \9 a6 {/ kID : 244 S8 F0 A3 f& R7 v5 {
Format : PGS
: ^+ s/ [! ]; j$ P, ?. pMuxing mode : zlib
8 u( c0 f9 f# y2 _: f& k: C4 fCodec ID : S_HDMV/PGS2 k* I, ^# g5 |0 {; d
Codec ID/Info : Picture based subtitle format used on BDs/HD-DVDs* _& i0 i( c! |4 S7 w
Duration : 2 h 21 min* ~9 k; D0 N5 O  S6 _3 o
Bit rate : 31.3 kb/s
7 \5 a0 n( K  @) d# f, gCount of elements : 3764
& G  V% s! k  P) ^9 g& E" wStream size : 31.6 MiB (0%)
  s; R3 n& e9 J. W, y; ]; K' ]Title : Polish-PGS
/ J4 F& B. Q8 _7 ~; e6 BLanguage : Polish4 [! K! ]" V! _! ]. P% D: ~+ a. O, F
Default : No
6 F& }( H) C, X1 V3 [Forced : No
; h5 V/ u7 G" k( f+ K
/ _3 V1 q' k7 WText #23
  ^' |$ s2 T  p/ B8 e; MID : 25
5 }5 e- C$ C4 R3 F: A1 i, K5 mFormat : PGS
1 u( f" _2 R0 E/ GMuxing mode : zlib
2 y9 A* F; ~* M9 X/ U, h2 B- NCodec ID : S_HDMV/PGS
: P1 P7 R3 i7 N; yCodec ID/Info : Picture based subtitle format used on BDs/HD-DVDs; d# {% u# ]3 ^  n2 g7 a
Duration : 2 h 21 min: M2 _1 |- X% K
Bit rate : 31.0 kb/s  D2 i: D" F% n# O5 g9 R/ j5 w
Count of elements : 3738
% v7 F& z8 X: b: l9 aStream size : 31.3 MiB (0%)
8 i' L) G- p; ]3 h  V4 jTitle : Portuguese-PGS- |5 p8 T3 H4 T1 t
Language : Portuguese5 x% V, A- e3 ?4 J! z& k
Default : No
  s' H. x# k* V0 u/ n# qForced : No! U/ A- T% [% {) R; k

- v- I' i9 L# U# |Text #24
& D, ?7 t. l/ _& h, WID : 26+ p% X; L8 U3 x! T' o
Format : PGS. T+ w9 P& r& h- P4 L" ^* U, k
Muxing mode : zlib/ d, f1 ?0 a/ x4 X( ], j8 i) F) h
Codec ID : S_HDMV/PGS  y* t' G# b; L7 n2 a
Codec ID/Info : Picture based subtitle format used on BDs/HD-DVDs% y' u  G! O  ~( G
Duration : 2 h 26 min, }+ o9 q8 ~( a# S9 ^
Bit rate : 38.2 kb/s
/ n# Q" B/ t+ ?% p) TCount of elements : 37922 \: |$ D5 A2 A$ h
Stream size : 39.9 MiB (0%)
6 ?- R3 R* a( F6 K  x  V2 q: k" W5 kTitle : Portuguese-PGS
8 ^: M( f$ x4 z: x  y/ e. l; p( \Language : Portuguese
* a  K9 a; |, n3 z; Q& f2 o2 aDefault : No
7 Q: ~. U% E; gForced : No! t3 y; a4 ]4 `( J: s1 K1 x) n7 a
; U2 F  \! b' P* ?4 i) @' z  q0 G
Text #25& r6 n5 c  h6 |0 N
ID : 27
5 j9 _' l4 `7 j0 v, V, }& aFormat : PGS0 Q( X! z8 n( J- n) a
Muxing mode : zlib
/ ?( M: F* h1 p5 C2 w* CCodec ID : S_HDMV/PGS
. j& c; n+ ]4 S6 @+ P' q8 NCodec ID/Info : Picture based subtitle format used on BDs/HD-DVDs
5 G2 |' H6 [' o( E& TDuration : 2 h 21 min  r. B9 Q+ S' {0 i* r
Bit rate : 31.0 kb/s
8 A# Q: X6 z1 T) t* YCount of elements : 35545 e( n" O. A, L2 q! }
Stream size : 31.3 MiB (0%). H* o6 s4 x: F! p, z4 R5 D2 H6 b
Title : Romanian-PGS& G' v, Y6 c* W- w5 @1 |1 I# y
Language : Romanian
& n& @; c2 L. m( ^, ]' n2 m) e, V4 IDefault : No
% P! ]. g- h# u3 N% ]Forced : No
% }" u+ a1 |3 X! y9 M+ e: i3 A
$ [% D5 {5 r# ~9 T& |' ZText #26" J& h1 E. l( S/ M5 o! H
ID : 28
$ r( N# W* v* b, l8 G/ MFormat : PGS) S2 V) T# F$ g2 j1 D
Muxing mode : zlib. g- q7 X$ _: l9 a
Codec ID : S_HDMV/PGS
% e8 V6 u& k5 c0 B+ _* V. g, ECodec ID/Info : Picture based subtitle format used on BDs/HD-DVDs% o4 f- j8 N* ^9 N" S
Duration : 2 h 21 min6 d4 X: f, i3 l$ ?' M$ e, |' g
Bit rate : 41.9 kb/s3 Q  r2 N: ^; @$ n8 P) j  R+ A1 L
Count of elements : 3964
: c+ [  V( n5 P1 C7 HStream size : 42.3 MiB (0%)5 e- @+ G2 K' `
Title : Russian-PGS  R* `: `* z( E7 Z7 l
Language : Russian! G9 m: ]# y6 c
Default : No8 @; Y5 S$ ~! W: s
Forced : No
' }7 E3 T- U( X2 A9 N
( ~4 b" ~% i# J, R+ r/ pText #27
6 U7 `- @! t3 `# r. MID : 29
$ S- z4 f9 H6 [0 m" PFormat : PGS  O+ e8 ~3 G& h* o' C& n+ }
Muxing mode : zlib$ H+ `  N. X& O6 E; R& E4 J1 R
Codec ID : S_HDMV/PGS+ P! W& I5 y: d  F+ f4 \5 u
Codec ID/Info : Picture based subtitle format used on BDs/HD-DVDs) W1 `4 ^  s" }+ L/ {
Duration : 2 h 21 min
( U1 o2 f# d' c$ kBit rate : 34.3 kb/s
  E3 d4 G/ ]) ?3 b0 S) r" O- pCount of elements : 3952
( t3 S! h  S$ w8 L+ V& B4 jStream size : 34.6 MiB (0%)
- `3 L& {& o; ]8 j2 i- v* RTitle : Spanish-PGS2 Y9 c7 ?8 ~4 G3 s
Language : Spanish, q5 {! m; P1 Q; K/ B
Default : No
" V, G) Z: r7 B7 e$ l! `Forced : No# R7 B9 R: P; s+ V' r$ T6 b

) R, T! s  Y" `+ f2 @4 rText #28# f/ t+ H7 G' F4 ~6 C
ID : 30' m& r7 @( M9 V$ W! @. {
Format : PGS( h( Q# p" ^# b
Muxing mode : zlib
$ X- y4 |8 S0 n6 S: a' O; dCodec ID : S_HDMV/PGS
/ l# L7 w9 A' r8 j7 M3 P) f( oCodec ID/Info : Picture based subtitle format used on BDs/HD-DVDs
4 R: b8 b& {# i  NDuration : 2 h 21 min" G9 c- d6 I$ l
Bit rate : 37.3 kb/s! f3 |5 W5 T* O; X, a
Count of elements : 3904: ~7 n, A5 d' L" m7 x8 H' x# _
Stream size : 37.6 MiB (0%)
+ F5 X, d) [" c$ uTitle : Spanish-PGS
9 j( r: T- }8 E1 C7 aLanguage : Spanish5 x4 j) J3 h1 x
Default : No
- a$ X  W; i: HForced : No
+ b, p8 o2 M6 S% N3 f% j3 B- f
' Q$ R# q! j. b& {Text #29
2 |. j, M) n5 m& w4 iID : 312 \& W4 s- V7 n
Format : PGS* l4 k( _. T4 M' T  `/ o
Muxing mode : zlib/ P! {" q7 Q( c3 v4 T: G
Codec ID : S_HDMV/PGS4 G, W1 y/ M" P
Codec ID/Info : Picture based subtitle format used on BDs/HD-DVDs  U6 ~7 C6 r6 a. t" J: ^
Duration : 2 h 25 min6 S- b( P& D4 i; O# U9 N( q
Bit rate : 29.1 kb/s  E/ P1 {4 g* j# f
Count of elements : 33913 j1 _. l0 B# X# t
Stream size : 30.3 MiB (0%)
0 }# S. Z7 l+ jTitle : Swedish-PGS
6 Y; \% |. F8 ~; `Language : Swedish
& f7 z3 O3 j$ ADefault : No3 ~2 c6 n0 w9 u- l4 x0 k
Forced : No
% \' [4 h( R. a/ E3 e) _3 g( s  L# k, r# i( ?
Text #30
0 D" K, S$ w) F4 fID : 32
# u: H* i: U7 J& j. xFormat : PGS
7 h; _# F6 r* S9 pMuxing mode : zlib
, q) K1 Q+ z8 ?4 ACodec ID : S_HDMV/PGS1 }+ `3 b. A* M# _6 Z
Codec ID/Info : Picture based subtitle format used on BDs/HD-DVDs) ?7 R/ ]9 ]5 F( ^2 ~! [8 E
Duration : 2 h 21 min
4 N1 g! A# P( C& ?Bit rate : 34.0 kb/s8 y/ F: ]+ ~4 L' k- c5 I
Count of elements : 3874, |6 e% T0 V" R, f6 p
Stream size : 34.3 MiB (0%)8 a0 A. A  m% |1 T
Title : Thai-PGS
5 g7 i! s% b0 [- M/ a3 |5 o" DLanguage : Thai& e" h6 i$ X! E
Default : No
. ~- m* [5 c3 j- L" qForced : No/ a3 M/ ?+ O2 M  `2 l* W

6 L( v& r2 q, I$ }. qText #313 [) p% U/ `) K
ID : 33
  T- Z6 X- r( M% \- ?+ o3 j+ YFormat : PGS
7 r# b2 _. {1 QMuxing mode : zlib  Q# X/ ^' ~' }
Codec ID : S_HDMV/PGS% x0 Z- g3 f& L  g/ }( q: n0 R4 ]# D
Codec ID/Info : Picture based subtitle format used on BDs/HD-DVDs0 V1 r0 g, G) m, X2 e+ h" R
Duration : 2 h 21 min
! B% L% t! |! c3 d' D+ pBit rate : 38.0 kb/s
% C% e$ T: T6 ~- Z5 f' e) \Count of elements : 3868% B' r$ v- p: O" W# T/ x
Stream size : 38.4 MiB (0%)
& z: W5 V: v5 f2 w3 ZTitle : Turkish-PGS
. s7 n  G  H, X6 p! rLanguage : Turkish
0 Y( L0 X8 n3 H: Z# N  l( o4 |. `Default : No+ H0 H, |2 s  b$ T* \: {
Forced : No
( L: r; P& O! o
) @- D" v$ e& U+ W  {Text #32
. _( ^/ {0 X9 ^5 o5 O2 lID : 34% a+ ?) \* f3 A0 `" N
Format : PGS  e9 a5 w6 ?; o. `
Muxing mode : zlib
* D3 R( ]# g# g( O# _! YCodec ID : S_HDMV/PGS
2 H& @9 K- H" Y1 qCodec ID/Info : Picture based subtitle format used on BDs/HD-DVDs" y. i6 s2 ~  G. S1 U2 d$ t9 M' B
Duration : 57 min 30 s
1 c. K* Y* @, i, n8 DBit rate : 239 b/s2 P: Z+ Z5 b3 G! x$ A
Count of elements : 144 a" w- U- Y3 w
Stream size : 101 KiB (0%)1 v2 C; t8 X/ O0 N6 U' B. A
Title : French-FORCED-PGS
0 Y' V( m& N3 t8 |. nLanguage : French
1 j3 Z* t! j' t+ s  o/ n5 UDefault : No# A/ N$ l. H! Q8 n7 N9 E" D
Forced : No9 F! R: P! o+ b' P

( ]$ u# F) P0 ~$ d6 zText #33
  k! {; S% ?2 lID : 35
( K# K/ M# u% }, H! PFormat : PGS; ?, n9 Z* b1 V7 o
Muxing mode : zlib
. O# V6 f  S8 h2 v% T5 LCodec ID : S_HDMV/PGS
5 R' n% G2 v' c4 A. mCodec ID/Info : Picture based subtitle format used on BDs/HD-DVDs" b" d; `5 B5 J5 `
Duration : 1 h 34 min
3 Y+ m8 U- g8 \; E' VBit rate : 288 b/s
4 ~1 h( ?) }+ Q" SCount of elements : 26: v; y7 @8 [0 [
Stream size : 200 KiB (0%)
( m, \- f- b; f$ |) {9 F5 STitle : Japanese-FORCED-PGS0 X, n# n/ z: @
Language : Japanese! M$ S- x" }) W- |- f4 h& R
Default : No) c: Z! f+ m+ C+ R' B; R+ e- ~8 ^
Forced : No
3 P; s( l( d$ m, O  r6 W8 c0 a7 I! z
7 T7 P/ G4 o/ o7 v" LMenu
+ q+ `+ F3 g/ V+ i00:00:00.000 : :Chapter 1
9 ?+ k2 N# }7 \00:11:05.498 : :Chapter 23 N( |- `9 f2 S& @/ l# ]
00:21:55.397 : :Chapter 3; e: J7 [; H2 W- n$ X
00:39:55.768 : :Chapter 4
$ T, p3 f/ }' L0 j% k. M% n' X00:45:28.684 : :Chapter 53 k& m4 v/ d. X6 T; @! d
00:53:28.788 : :Chapter 6
* F  n) t$ ~5 Q4 `- d- R00:59:02.247 : :Chapter 7
9 m) j( o+ o+ p: b01:06:27.066 : :Chapter 8: S" J: v9 C/ V6 t; P
01:11:29.618 : :Chapter 9  m" s  E, y3 S& v5 K3 w' Y: g* H
01:17:54.169 : :Chapter 10
* X; @  d. w5 o( X' C01:30:28.131 : :Chapter 11
7 v) e* t9 q/ A01:37:39.228 : :Chapter 12( U. ]2 G: A! B! h0 N6 Y. e- p; I
01:45:54.765 : :Chapter 13' y* L6 }$ j' `
01:56:47.625 : :Chapter 14; W) }1 V6 e6 j! E$ r% i& ^
02:05:08.584 : :Chapter 15
, L& n6 @7 o% C5 B; z5 N02:16:07.701 : :Chapter 163 R4 J. K$ s& Q9 `* |5 s
# ^4 J' Q. }! p
Video24 v9 L" O; G) p
ID : 19 I5 J7 i& i3 a0 k& A2 `' g1 K
Format : AVC" ?! j5 H/ ~0 f* d" e8 |9 d
Format/Info : Advanced Video Codec5 W% V" q2 k9 u% r+ G  @
Format profile : High@L4.1% f8 r- E6 y5 m) j3 J
Format settings : CABAC / 5 Ref Frames, y# w: H/ s7 T2 T9 |4 C
Format settings, CABAC : Yes
' d. M$ `7 S, S" C8 w: Z; P! o) xFormat settings, ReFrames : 5 frames, }3 z" a  x+ Y, h# m) I
Codec ID : V_MPEG4/ISO/AVC" w* g* o" l1 ~  n- j
Duration : 2 h 26 min+ I# i  T" G6 d# F& T  `9 q: D2 E
Bit rate : 13.3 Mb/s1 r3 ]! e1 n6 l, F& v- V
Width : 1 920 pixels! f* ], {0 _- x* p) {7 f7 m5 g
Height : 802 pixels1 |9 Z- E+ b* h
Display aspect ratio : 2.40:1
6 X, ~5 _2 G5 q9 f3 BFrame rate mode : Constant
: l% [2 W8 I% y7 K% XFrame rate : 23.976 (24000/1001) FPS. X6 O) m3 f  q2 C( I
Color space : YUV; }! y0 s. V! [8 u3 Q
Chroma subsampling : 4:2:0! n7 A9 ?0 c$ M, b: m
Bit depth : 8 bits2 ]. {: P) W* l
Scan type : Progressive
5 E+ c* O  {$ U/ d  P+ dBits/(Pixel*Frame) : 0.361
" P7 P9 o0 B2 H& G# c: JStream size : 13.6 GiB (66%)* }. z; `) {1 |& @) Z6 [! o
Title : Bad.Boys.II.2003.REMASTERED.1080p.BluRaycd.x264.TrueHD.7.1.Atmos-SWTYBLZ% m, H( ]' O' p2 g5 Z* q9 j
Writing library : x264 core 155 r2901 7d0ff228 l; Y4 `9 k  c3 i7 c8 B+ b! Z
Encoding settings : cabac=1 / ref=5 / deblock=1:-1:-1 / analyse=0x3:0x133 / me=umh / subme=10 / psy=1 / psy_rd=1.00:0.15 / mixed_ref=1 / me_range=48 / chroma_me=1 / trellis=2 / 8x8dct=1 / cqm=0 / deadzone=21,11 / fast_pskip=1 / chroma_qp_offset=-3 / threads=25 / lookahead_threads=4 / sliced_threads=0 / nr=0 / decimate=0 / interlaced=0 / bluray_compat=0 / constrained_intra=0 / bframes=8 / b_pyramid=2 / b_adapt=2 / b_bias=0 / direct=3 / weightb=1 / open_gop=0 / weightp=2 / keyint=250 / keyint_min=23 / scenecut=40 / intra_refresh=0 / rc_lookahead=60 / rc=crf / mbtree=1 / crf=21.0 / qcomp=0.60 / qpmin=0 / qpmax=69 / qpstep=4 / ip_ratio=1.40 / aq=1:1.007 D) ], Q! h: h3 Q/ s9 V% B1 Y5 A' s
Default : Yes5 B- ~/ R  k" W. ?0 c8 n
Forced : No
2 s4 e% T# v/ n3 D$ N9 B% [- n" j  o3 l7 I
Audio #13 `( j3 G2 }! Z" u. L( d1 y8 g$ _. H
ID : 2% Q  i5 y% e9 h$ g/ e6 U
Format : TrueHD
$ c8 k8 H' C+ [: ^0 \- t, d. MFormat profile : TrueHD+Atmos / TrueHD) O( d7 D6 i6 E; c' o  p- {! C. A6 z) p
Codec ID : A_TRUEHD7 `7 H, Z" a5 n6 w2 Q6 [$ K
Duration : 2 h 26 min( L. y, H" J* ?6 h
Bit rate mode : Variable
& u% R2 o5 x9 C; QBit rate : 5 774 kb/s, K+ `$ Q- X: Y( S
Maximum bit rate : 8 961 kb/s% X( h3 j4 N- y3 F8 b
Channel(s) : Object Based / 8 channels
; F3 Y7 r6 I4 q7 E2 |# u+ }* BChannel positions : Object Based / Front: L C R, Side: L R, Back: L R, LFE0 c# m5 f0 B( M5 X
Sampling rate : / 48.0 kHz
2 W: g$ {: O' |5 S+ _Frame rate : 1 200.000 FPS (40 SPF)
0 l% d! R8 w0 |8 uCompression mode : Lossless. _+ E( F) h/ ]8 J
Stream size : 5.92 GiB (29%)
! C) h7 H' Y/ a8 y3 ]$ D) |/ P7 uTitle : Bad.Boys.II.2003.REMASTERED.1080p.BluRaycd.x264.TrueHD.7.1.Atmos-SWTYBLZ
+ w' j( h: N9 G7 K2 O: Z- J' |Language : English
" x0 S) s: n+ a9 o: A6 m( Z" VDefault : Yes
. O8 c# s  w: P/ u/ mForced : No9 W2 {) i4 x( j: C
/ o# ~$ r& \' I2 g. t  w- E
Audio #2
9 ?  Y# \1 O& {# pID : 3+ `9 D! l0 Q; \1 _- z6 D
Format : AC-3
7 l: {) U1 w+ E8 W% DFormat/Info : Audio Coding 3. m  Q1 r: F% _* a7 Z, ?9 }2 b
Codec ID : A_AC31 K3 K- S. l. y
Duration : 2 h 26 min. r5 Z$ ]7 v% R" D5 V5 z$ F/ Y& X: y
Bit rate mode : Constant
7 c9 s/ E# h8 f/ V( z1 RBit rate : 640 kb/s1 f1 P5 x/ o( F5 D2 k) C
Channel(s) : 6 channels
2 ^, `% i6 d$ JChannel positions : Front: L C R, Side: L R, LFE
7 z' T* ?  {* w& u2 O7 qSampling rate : 48.0 kHz
: N3 S6 \+ ?# }2 `5 l! yFrame rate : 31.250 FPS (1536 SPF)( O. \% l! W: @9 q- Q# S
Bit depth : 16 bits; K* V$ @6 B% ^/ ?( i" H$ |
Compression mode : Lossy6 ]% {( C+ L+ q( j$ I% A
Stream size : 672 MiB (3%)1 E8 X# c9 \4 K+ M
Title : Bad.Boys.II.2003.REMASTERED.1080p.BluRaycd.x264.TrueHD.7.1.Atmos-SWTYBLZ+ \4 A( ^0 ?$ ]5 [$ d: g) P& ~* b
Language : English1 s- g- f5 [: A7 X
Service kind : Complete Main( c# `$ f# x1 n3 S/ W+ p( L! @
Default : No6 I; |# [6 Y7 R3 g5 f
Forced : No/ D. l. \0 c$ H  ~; E

1 d7 V# w( r4 m3 PText #1  a8 t1 Z& U1 W9 }& b) S/ f0 x; @
ID : 4
$ c/ d! W. b" W  C- ^: V) LFormat : UTF-8
2 W3 B; i# n# Z0 E% [9 VCodec ID : S_TEXT/UTF8( U+ I9 S1 X6 _4 k  W
Codec ID/Info : UTF-8 Plain Text! J. o& |, m9 ?1 v8 I( g7 n
Duration : 2 h 20 min8 E( j- c! Q& h# K" \- @
Bit rate : 69 b/s( B3 K8 T7 n/ m1 m1 D4 ^8 n
Count of elements : 1912" ^4 r( v2 [) b0 F# s4 v
Stream size : 71.6 KiB (0%). O/ [  f# R$ v: y7 Y
Title : English-SRT4 U$ Z7 I: J8 Q# v5 A, |* v/ k
Language : English
8 U: d" |3 U* q% Z2 E3 x. bDefault : Yes
0 r8 V# d4 o4 k' vForced : No
) T' S: z8 s* [& d, M% I; [
  P6 f; O& S4 ~8 a/ i, V) |! BText #2
% Z3 ~/ b, \( |9 ]ID : 5
- A+ {, Z% z2 [+ qFormat : PGS
8 a) R, @5 e/ U3 \, B6 `6 D$ |Muxing mode : zlib( u9 w& U4 x, M
Codec ID : S_HDMV/PGS1 L4 T) B4 z8 f! d8 r
Codec ID/Info : Picture based subtitle format used on BDs/HD-DVDs
1 \9 P5 B/ w9 Y$ _* P/ [Duration : 2 h 20 min! g8 Y% I" M8 g. L/ i1 ]6 p; ?2 v
Bit rate : 40.2 kb/s, l' R' J9 V/ u0 S
Count of elements : 3824
- k' o1 _! Y: D) S# _' qStream size : 40.3 MiB (0%)
- }! x9 K' \" f$ k/ {7 pTitle : English-PGS
; d" q- A) z- E' \5 t& ~Language : English2 D; B: B) ^+ e: n
Default : No
+ _. j' [# W) SForced : No& W. U( b6 F/ ^, i

" @' [3 p; R6 S6 oText #3
- D) e6 i8 n/ F" d2 a9 w4 C2 LID : 6; [" l/ \4 c6 h" X8 y" N2 X
Format : PGS1 c9 k4 r! ?3 Z7 G$ N/ |7 Z! m3 M
Muxing mode : zlib% F; W: S. [% I* U: X  A
Codec ID : S_HDMV/PGS
1 e. u4 c! u1 \  Q4 mCodec ID/Info : Picture based subtitle format used on BDs/HD-DVDs1 q% X1 m) z- S
Duration : 2 h 25 min5 l* r; J- z. c; R1 f
Bit rate : 45.3 kb/s# I6 u* T. l/ E0 \/ l# i8 |# Q
Count of elements : 4518
$ s& `7 W5 Q( H: ~2 i) CStream size : 47.0 MiB (0%)
2 G; C4 N7 `3 C6 iTitle : English-SDH-PGS/ A) E) {+ {8 D: G
Language : English  D4 v3 \1 k0 N0 Z
Default : No6 b; b" o3 g: q& P
Forced : No
: X5 ~* A) ]0 }) m1 r5 I( F( q, `; f$ L
Text #47 p5 p& Y3 X) A* F6 r
ID : 7/ X2 I  l1 k$ L9 M" U
Format : PGS
+ M  [  ?, O1 x- ?2 EMuxing mode : zlib" R- z. q6 X* p
Codec ID : S_HDMV/PGS2 d" I2 D8 f: u$ L! ]+ M0 r+ n- I
Codec ID/Info : Picture based subtitle format used on BDs/HD-DVDs
! C5 H+ m. L. uDuration : 2 h 20 min
; V1 y1 T) {5 C  z/ o% p9 ~Bit rate : 40.2 kb/s
5 x8 z; a9 \8 K* ACount of elements : 38323 z/ C( M. ~  U# p
Stream size : 40.3 MiB (0%)
$ Y) ]8 f: v! ^  B9 `7 ETitle : English-PGS& D/ ^3 U" z1 k9 q
Language : English. t  R) N, O+ B3 ~2 Q: z# p
Default : No
5 x! z2 Z1 |. X" o9 n' [; ZForced : No6 }- O8 P, y8 T& @

- N" U9 P. p" Q+ a% a6 W' QText #5
5 ~; C* T9 h% |& yID : 8
' U+ ~8 S% b# hFormat : PGS
' A3 Q# i3 d4 BMuxing mode : zlib
' h2 \& g' o2 D, @& MCodec ID : S_HDMV/PGS
1 F& T, @4 J; PCodec ID/Info : Picture based subtitle format used on BDs/HD-DVDs
9 U, u9 a% r1 v/ d/ C! IDuration : 2 h 25 min
3 ^- ^5 x3 W& `8 NBit rate : 45.3 kb/s
. f' d# ~9 `# zCount of elements : 4518  y% E8 G( H/ _: E' W
Stream size : 47.0 MiB (0%)
) S, A! B: D% J9 N) g3 PTitle : English-SDH-PGS
: X4 n6 h: G$ i9 u1 s4 I# x9 s% I1 zLanguage : English
8 V( \7 n3 z  b) n5 LDefault : No9 [5 s' _8 j; U% U; l6 e. u8 a
Forced : No$ ~# V! J/ k1 [6 Q2 k: [1 K/ }

* b% q$ D" E# \6 G+ \# I8 v$ aText #6
" I  \" g* s- M) X% w" U. K( xID : 9. o3 R' Z" V) ^: D3 a7 F/ b
Format : PGS6 [2 `+ G9 L' A( S0 X
Muxing mode : zlib
6 j8 _2 e* W7 k! }" \' M5 ]. CCodec ID : S_HDMV/PGS, `; ]/ R) t2 y* M. ~
Codec ID/Info : Picture based subtitle format used on BDs/HD-DVDs5 U$ ], E5 s# {! t7 ]% N
Duration : 2 h 21 min
8 U+ p" v* n% Z" W: L# F; h, [* VBit rate : 19.2 kb/s
" q, ?3 c: i6 f) h2 n0 S) V, O2 xCount of elements : 3844  i; R1 x( y7 Z; X$ E
Stream size : 19.4 MiB (0%)
3 L. W2 }5 Q; S3 Q: xTitle : Arabic-PGS" Y6 D8 c0 a/ p* d8 h% o
Language : Arabic9 ?: n6 h9 q; m# v: ?
Default : No
: ?% e& w& B' wForced : No4 p1 u8 R) z. b8 Q4 B

/ A: q2 t2 B, s1 }* k* v) E- z8 tText #7
9 n; a% L3 U% O& t% qID : 103 M0 M; L. S& M
Format : PGS4 R: e) B4 {8 _5 I9 l9 ?2 p
Muxing mode : zlib
" z8 v1 h+ }; dCodec ID : S_HDMV/PGS3 t, n; a& F) s( h# u6 E# o  {
Codec ID/Info : Picture based subtitle format used on BDs/HD-DVDs) m+ p2 c1 ]* I& m
Duration : 2 h 21 min3 @* q* \" ^8 A  u2 ]+ l
Bit rate : 26.9 kb/s; t* G( I1 @( z8 {
Count of elements : 3880
0 P2 Q! I) Y* |8 l) eStream size : 27.1 MiB (0%)
3 Z2 E! @, h- h; QTitle : Chinese-PGS2 `6 w2 Z! `5 B& E$ @- Y
Language : Chinese; ^1 h; c  f% P/ ?, _0 u, c
Default : No
. N3 r$ d' |9 p0 G& ]: V; s1 mForced : No7 a5 ^' m7 I! I# M% {# T
! [: Z9 }+ W! g0 j0 C! Y; U1 P
Text #8, M% i+ |) U9 q( z! f3 `
ID : 11- n0 M$ b' l! r3 t. s
Format : PGS/ `# v+ \- n5 e2 l7 Y
Muxing mode : zlib! d) G" T$ D2 h2 Z! L
Codec ID : S_HDMV/PGS
  w+ O( @4 L4 [! Y% E& d( f7 h0 JCodec ID/Info : Picture based subtitle format used on BDs/HD-DVDs
/ }: _% T! k; J+ MDuration : 2 h 21 min
% d$ o/ D7 E# q% i% R) rBit rate : 28.2 kb/s
* o0 G) j5 k6 f' C6 L. e' t1 o0 f# _Count of elements : 3822
1 a# X  E0 n2 o# I! k% t, ^0 qStream size : 28.5 MiB (0%); ]9 ^. _+ }' ~- `# e# ^
Title : Croatian-PGS
# |  Z, J1 s% k; kLanguage : Croatian
0 o  B3 a. t% u6 PDefault : No
, o+ K0 E, K/ b" u( V1 NForced : No
4 j3 e, v( B' x8 [# A+ Z
& E$ I8 o7 t, Q& N. ]6 `4 u; dText #9
  L5 n2 n1 [$ o0 R; Q! L9 TID : 12, o0 ~2 m# s7 D7 r8 S3 k  Z: |
Format : PGS) T  z! t( Y! [2 D
Muxing mode : zlib1 t/ ?. K9 w9 }; d6 N: G
Codec ID : S_HDMV/PGS
2 m' Y0 N$ _4 j- xCodec ID/Info : Picture based subtitle format used on BDs/HD-DVDs
1 C5 @7 j& r( P" O$ G, ?8 R7 n; pDuration : 2 h 21 min
' b. H; f, P  y# ^- Y; ABit rate : 31.6 kb/s
) g2 C+ }2 s" x9 b0 @- P3 [Count of elements : 3782
, L0 O' E* j* R( i( G& ]5 ^5 i. iStream size : 31.9 MiB (0%)
1 q1 ~3 K  \' Y# y( nTitle : Czech-PGS
* G1 h) @/ s  e, o  V, iLanguage : Czech: |: K' i1 x# u& a
Default : No
' R# U  T! _+ y% k  A4 w3 cForced : No
/ M4 K+ r! E- u: y$ t. V0 K- {6 r% ^/ S+ w- U9 J
Text #10
4 P2 k/ _% P: B; D. M6 g, X) S: aID : 13; T! e. R8 X- H% J$ R8 D- ^
Format : PGS/ q8 a1 R( y( e; _$ c/ _" ]
Muxing mode : zlib
6 l. `1 ]# N  m. D$ J6 ?Codec ID : S_HDMV/PGS
' R7 H* \! O; H. LCodec ID/Info : Picture based subtitle format used on BDs/HD-DVDs
# Y. ~: i: m5 f5 I6 ]0 \Duration : 2 h 21 min
" T& h' g% e  K5 n" ~Bit rate : 31.3 kb/s* I$ B$ z$ R! R8 E  D2 x
Count of elements : 3286/ }. e& e% G9 `& |: Y  w
Stream size : 31.6 MiB (0%)
0 Y* X/ w$ u- N- ?Title : Danish-PGS9 X, V' }% f7 P- ^) c1 P6 z
Language : Danish2 O$ z( F( ~( v- _& m
Default : No3 }% r3 [5 D* k; H" V' @
Forced : No
( G0 g( p$ w$ i, w& O5 \, U" I. h9 K6 f) w
Text #11
! ?0 n+ s$ V& x6 _, V7 hID : 14
& ]+ _7 N# L8 C, y: Q3 y5 CFormat : PGS
. H. Y+ F5 I+ F# }( e" p: LMuxing mode : zlib
, W! G4 E- Q+ XCodec ID : S_HDMV/PGS1 ]% M6 _( _; ~4 a  N
Codec ID/Info : Picture based subtitle format used on BDs/HD-DVDs
; v3 }; y# }9 ~Duration : 2 h 20 min0 ]' }: }" ~) Y( G+ ]! I
Bit rate : 30.7 kb/s: {- g8 x- N1 G. q) L9 [! L4 a
Count of elements : 2647* P8 u+ k% i- U) n
Stream size : 30.9 MiB (0%)
0 D5 s) T8 Y: B7 _8 y/ vTitle : Dutch-PGS4 \* e2 B/ a  V4 t$ j
Language : Dutch$ x7 r; }5 N$ ^2 a' z
Default : No
1 f! J5 L2 F5 |3 e+ FForced : No7 W8 @3 ^( Z9 l, e8 v

/ ~1 h/ [( i1 S0 I; T9 E: x' _( cText #125 n3 J$ Q/ a& d$ ^2 J% W: s1 [  e
ID : 15& `- f5 z; z% j) {& I% f$ p
Format : PGS
, p/ R  ~# g9 n; P) h0 wMuxing mode : zlib* H5 v; P7 n% y. J. P' ]' G
Codec ID : S_HDMV/PGS5 h! C8 ]7 q6 p. c& v2 s: T
Codec ID/Info : Picture based subtitle format used on BDs/HD-DVDs
1 D% g  M- r6 [, l; q7 YDuration : 2 h 21 min* x8 W7 z% E/ H
Bit rate : 30.1 kb/s% A5 A5 H- ]1 V% L
Count of elements : 2982' q% e  S0 Q/ d- N7 O" V9 _. m
Stream size : 30.4 MiB (0%)
6 d* @7 E+ ^( k, U. q& T- ATitle : Finnish-PGS
5 M/ q0 ^3 r- o1 A7 @Language : Finnish* t& A  w8 a: @9 x
Default : No/ T- a( g( @2 h, y! g: }$ j
Forced : No/ |; C' k9 l; Z: ?3 w+ Q! W

9 y4 n: o, H- tText #13
0 z- ?# s1 e- {7 F# j! Y: t6 HID : 16
; R2 F3 }# e9 u; i- [Format : PGS
* O: L: p0 F& N; F7 [+ uMuxing mode : zlib
$ \8 n7 m: U4 G; HCodec ID : S_HDMV/PGS
) M3 Z( h$ d4 nCodec ID/Info : Picture based subtitle format used on BDs/HD-DVDs$ s4 V$ U$ x) V9 f1 W1 H6 |
Duration : 2 h 25 min
4 }7 ?7 @' U+ G# u' ?* _Bit rate : 27.0 kb/s
& r9 T$ `) O' k' pCount of elements : 3586
& o* m, N1 \& q9 V# b; ?Stream size : 28.1 MiB (0%)
- Q7 i5 f% }+ F& S, U1 `Title : French-PGS# u( L8 F6 t; U2 [/ l# e' t
Language : French; w+ D6 t* v" [& h
Default : No" J  I* o: h5 N/ D* m' @4 E4 B
Forced : No$ \, B5 _0 r% ]. d# w& q$ }
% I4 I. w; f4 a! r
Text #14
; C8 U8 [/ b8 k' oID : 17# G9 L8 j: \( B; y! ~. q% P: l2 n: i
Format : PGS3 w* o6 O+ R8 {* Q1 e
Muxing mode : zlib
1 C$ A, Z2 f4 C7 vCodec ID : S_HDMV/PGS, g9 |. {5 G; I2 z  D8 ]
Codec ID/Info : Picture based subtitle format used on BDs/HD-DVDs  _" `0 n" {' v& }8 S8 A
Duration : 2 h 21 min
, z2 s% ^2 x7 i" e( HBit rate : 44.1 kb/s
7 |9 I0 s+ D, H  E0 F  ]Count of elements : 3951; e6 P) p4 \7 J8 V
Stream size : 44.5 MiB (0%)
& E# C6 ]4 _' _5 r1 b& V0 hTitle : German-PGS
1 l" Z) Z" o  z9 k7 p9 b4 j+ v& BLanguage : German% B3 Z+ ], l( p$ }' @
Default : No
+ M3 j! e2 O+ Y1 ?Forced : No
) f) _& x4 {7 O* M! Q5 z
2 M, g$ @; ?4 x0 `1 |$ [Text #15
$ c% G4 p3 ^1 [  z3 zID : 18
& z4 V1 d+ J. c! eFormat : PGS2 t4 s$ L7 h$ Y: v# L3 e- `
Muxing mode : zlib) U5 [! m6 z6 p4 z7 D# R
Codec ID : S_HDMV/PGS& C( ?4 i* |' F/ s& ^
Codec ID/Info : Picture based subtitle format used on BDs/HD-DVDs4 N0 G! a- X# I
Duration : 2 h 21 min
8 a$ H( c" z3 _, ~" G/ h# kBit rate : 35.3 kb/s+ w' S8 d* S; t1 ?; ~
Count of elements : 3738
% j8 w& c- q  S+ f$ O( `: yStream size : 35.6 MiB (0%)
7 s/ ?  }" C) m; y8 Z8 v8 d: D+ YTitle : Greek-PGS, Z; S! u- O& ^: t) P
Language : Greek
/ H, L* h8 U6 d! j  v4 ], B, u. {  tDefault : No1 V: r0 L( E# h- s& `
Forced : No( b2 R) f( s4 C" C2 [8 A) i
- x: r2 W& Y* e
Text #16
! O" f& D# d) d- [ID : 19
0 I3 ]4 q8 ]& B  k3 aFormat : PGS
+ w" w8 X9 j; d# j; t* eMuxing mode : zlib
: R3 V# _4 S* H( tCodec ID : S_HDMV/PGS# r8 L. A6 {5 N1 b3 b0 V
Codec ID/Info : Picture based subtitle format used on BDs/HD-DVDs# N* d! z" G: I- E% ?* m
Duration : 2 h 20 min
$ z6 t. G) ?) QBit rate : 29.4 kb/s) Z" N" A, y3 J  C. U4 P: h8 M' r
Count of elements : 3838$ L$ r: ^# r4 U8 a2 J- _4 V
Stream size : 29.6 MiB (0%)
/ U7 f4 W2 x  c5 f: GTitle : Hebrew-PGS* U3 C! }  J* ], q4 m0 J' W
Language : Hebrew6 b+ P5 B6 F" b5 F* R, D2 {3 q  l
Default : No8 B* J: j4 Q, J
Forced : No
  U7 ~* h# z4 x, H; Z( [( R# L; a8 e' E/ _
Text #176 C$ q3 r9 k6 ]5 R/ a* h8 l
ID : 20" Z: Q8 t" r& q0 h
Format : PGS
: A5 q6 G% c4 G1 q3 ZMuxing mode : zlib+ S/ _8 ]& f  {. Z5 O
Codec ID : S_HDMV/PGS
7 O: K2 k  K' h+ oCodec ID/Info : Picture based subtitle format used on BDs/HD-DVDs
2 u; w  H4 q5 J( m) M9 mDuration : 2 h 21 min
, T# Q. [/ B. g! A3 E& Y2 o% DBit rate : 27.6 kb/s4 R  K, V0 y: s" c& K$ [
Count of elements : 3846% Y' |6 L: i5 N* V1 y
Stream size : 27.8 MiB (0%)
# j0 m! p) X9 Y  B- I6 M" I( B; zTitle : Hungarian-PGS- B# p0 e4 @+ I+ x1 n' X2 y
Language : Hungarian
2 ^. h1 y: z, G! L9 q& ?Default : No
* c( w9 z3 z, k( E. A! ZForced : No
5 R8 y. M* b. o
; \2 b& o) @1 X! C6 S9 C: kText #18
; y1 u. M' N5 U- Q1 j9 u& dID : 21
& c+ f' A4 D$ q: Q6 r( tFormat : PGS
' S: i3 B4 [& BMuxing mode : zlib
4 S3 ^. l" Z) }Codec ID : S_HDMV/PGS
5 j0 s/ f$ v9 D: j$ j- {' ECodec ID/Info : Picture based subtitle format used on BDs/HD-DVDs7 p. D+ c, I5 @5 H9 Z
Duration : 2 h 20 min
4 r8 _( |2 U% g2 u4 h' T7 L$ SBit rate : 36.5 kb/s# ?! e& p4 e; ^8 h4 Q
Count of elements : 3822
; i8 ]8 b' @% \: b7 M1 ^Stream size : 36.8 MiB (0%)
( e5 U# j1 n! A+ l( ^4 t! wTitle : Italian-PGS
; O- N  F4 L# L9 ?Language : Italian
7 C0 a% Z- v" ]7 RDefault : No
0 W9 y$ g% H5 W4 fForced : No
0 A# K) z) E$ l' Z/ _& w
. b9 G) ]. \, Q) e' MText #19
- N* ^: ]) S; i/ r/ @2 yID : 22
  G# ], R* M. dFormat : PGS" i) G* W6 O9 d  |% x
Muxing mode : zlib
# h2 K/ G7 n7 KCodec ID : S_HDMV/PGS
( T$ y5 L, ^6 y! y) d7 G7 f2 ACodec ID/Info : Picture based subtitle format used on BDs/HD-DVDs, p+ ^& n& W' {" V
Duration : 2 h 20 min
/ m( w* J- E, O) g+ p/ yBit rate : 27.2 kb/s
# S, R" b" |: G2 S6 J6 x2 |$ ?Count of elements : 4193
4 g2 M, A3 N) z, ~; l; e  S* mStream size : 27.4 MiB (0%)
3 H% R! o  ]7 M, p- C6 kTitle : Japanese-pGS0 ?: ~8 H) S2 \  i& |& q) L% S0 o
Language : Japanese
; J0 r2 L) _8 @8 X& v. d& HDefault : No
# V1 K" b) u$ u7 ~8 e6 ]3 @Forced : No1 W  k  U) C6 @  p# L1 I+ K9 b
: n$ X: N( H; M2 _
Text #20
0 k8 w. ~- b. ^5 `" PID : 23$ q- \3 s  `8 y7 {0 C' Q' v# P
Format : PGS1 ?/ N7 K# d6 y: Q" o0 D: c6 e
Muxing mode : zlib
8 i0 N4 J) s0 [* [: J- K/ ZCodec ID : S_HDMV/PGS: p" Y! L, z8 V# a8 u' \
Codec ID/Info : Picture based subtitle format used on BDs/HD-DVDs
$ A# R& d7 O( M( o& LDuration : 2 h 21 min$ i" Y8 E9 S- m& S
Bit rate : 27.2 kb/s' N' @: ^7 y/ H/ m( d' y8 g/ k
Count of elements : 38742 x' w2 A% q( }5 v
Stream size : 27.5 MiB (0%)
6 L4 S! [+ K! U) s& G+ G6 UTitle : Korean-PGS3 A( R) I# Y2 Y  t! n. D
Language : Korean
- D( [* n; f, E" eDefault : No
8 z9 E% \6 l. M! W6 F5 M2 yForced : No
- v0 [7 j  j+ A/ p) t3 ]* F7 U
7 }- a" O- v: x6 g- x* z2 Z( |Text #212 T, c0 J7 C4 h- g" c7 {. W7 b
ID : 24
5 E+ i) N1 X$ G, `  W* kFormat : PGS2 J7 ?0 q1 Q; A
Muxing mode : zlib
" g6 L% `/ a* L/ X- @4 ^$ cCodec ID : S_HDMV/PGS
0 h/ |9 `9 p- C' N5 T) K, q1 O, Z* yCodec ID/Info : Picture based subtitle format used on BDs/HD-DVDs4 s# I' \$ P! E0 l/ @# a
Duration : 2 h 26 min
6 B/ @: d, r' I9 i8 D9 bBit rate : 27.7 kb/s% j' g% `8 K0 X- L  s
Count of elements : 3518
4 K( X. @6 k! MStream size : 28.9 MiB (0%)
* z- I( c. K% T# z4 FTitle : Norwegian-PGS
  F' e/ P: {# ?1 ILanguage : Norwegian
; m2 N% }; Z! oDefault : No; l& p  A, Y& O( U" }$ @/ t
Forced : No
! O. j# v0 c' W- L
) B0 K- q% Y- T# c9 I* SText #226 O5 h" B. E! r: ]- g/ d
ID : 25' X1 c$ {8 f/ o9 n: X
Format : PGS
  V9 M. o6 m5 e$ h: HMuxing mode : zlib
- m2 J# Q- @& ?" ECodec ID : S_HDMV/PGS) n7 m9 K( t1 A9 g2 |) [: \
Codec ID/Info : Picture based subtitle format used on BDs/HD-DVDs
& b$ I: y& Z. `  ?4 ~* kDuration : 2 h 21 min
0 l6 o' J2 o% @Bit rate : 31.3 kb/s
# N  S! ^. E4 j! Z6 Y' kCount of elements : 3764
, x4 [' X# T4 I# S6 ZStream size : 31.6 MiB (0%). T0 H5 S% c# U: {
Title : Polish-PGS$ P) P$ ^% v4 M" c
Language : Polish
, V5 v3 ~! g1 y- ?4 p4 E4 {Default : No
# O( y- [. @; Y  ]Forced : No+ O  X0 @& s& S7 d- X4 Q
# w* k) g6 I/ `( x" k, g) a1 l4 T
Text #23
# e! n$ b, E. t2 _; lID : 26
' g( u1 u+ ~+ y7 u0 NFormat : PGS
0 n% }, v( e, MMuxing mode : zlib7 j' y$ I4 V7 l8 ?
Codec ID : S_HDMV/PGS9 P! r  z. z. ~5 j+ ?, c
Codec ID/Info : Picture based subtitle format used on BDs/HD-DVDs) \. P' t% d. h% o
Duration : 2 h 21 min& v/ ?; r! T' l* R0 F/ Z) X
Bit rate : 31.0 kb/s- r$ O* P, f4 R( `7 @! y
Count of elements : 3738: D/ P" N5 ?+ C7 K- Q$ j6 S$ b
Stream size : 31.3 MiB (0%), u; J8 L$ j: D  i$ K9 r: y
Title : Portuguese-PGS+ P2 i/ c$ y5 l0 O
Language : Portuguese8 X: V% Q! C' N+ T1 v$ W- ~
Default : No
9 k2 R: A7 ?, m) z4 s4 `! G3 rForced : No
' n2 x" u+ K% Q: T# [% Y1 Q7 n0 J5 W0 P3 a6 R: Y
Text #247 }/ T$ Q; v. J& f( y4 ~' s
ID : 27
4 M+ W7 C) r6 Z, J  E, W9 e* m+ }Format : PGS
8 h5 y& x/ K: i2 Q  B  u% G, C& zMuxing mode : zlib
9 a4 e3 D0 {1 t' |2 U* l4 jCodec ID : S_HDMV/PGS
/ @7 W( H9 c3 A$ ?' O" o; H$ }Codec ID/Info : Picture based subtitle format used on BDs/HD-DVDs. D/ K8 \! i/ [  t) C1 K; n5 K
Duration : 2 h 26 min
1 \( O0 r+ {; O( Z* ~, z  |1 }  hBit rate : 38.2 kb/s
1 L" @4 T0 f4 w9 OCount of elements : 37922 D! a) j# i% E" U/ }- u
Stream size : 39.9 MiB (0%)5 e, W, l2 d; g
Title : Portuguese-PGS: ]% g  G; f) d+ @
Language : Portuguese. A) I# T+ O$ c0 {
Default : No. ~  W% g9 C# b/ D: q! O( l
Forced : No5 u1 Z7 G: [$ q& V0 Z5 @

8 X0 X4 c# f  rText #25
" q1 S& j8 ^* a  lID : 28
( [( I8 o, j! B- W4 hFormat : PGS: R! h5 l# @& k! v! q
Muxing mode : zlib
7 B$ x. V6 P. E" R% L' bCodec ID : S_HDMV/PGS
7 k8 n; r3 \) P2 n' g9 }# dCodec ID/Info : Picture based subtitle format used on BDs/HD-DVDs/ Z% }+ i1 V" B. U
Duration : 2 h 21 min+ A' O9 V# c# Y3 `5 Y- N9 {- F
Bit rate : 31.0 kb/s! b, j0 U  ]# S! l
Count of elements : 3554& D! q, \- m0 P) r& q. Q
Stream size : 31.3 MiB (0%)* j: w+ n. F0 m; i) s: Q
Title : Romanian-PGS
$ C6 S& l" i( n4 zLanguage : Romanian
; Z1 x7 ~* J& [Default : No' x* ^$ E7 T5 M/ L* D/ p) h
Forced : No
  D  S- w" L6 K* N+ B
8 f2 l7 U7 m* x& Q( KText #267 b) t3 x3 I7 W' A1 X
ID : 29
7 I. H# @. z$ ?0 I  u+ j3 vFormat : PGS, ]- \/ W8 P6 V% A- F' D& h5 T
Muxing mode : zlib
8 K% y7 D) W/ [# S8 O0 `2 QCodec ID : S_HDMV/PGS0 R$ @( a" X  ^) h/ F
Codec ID/Info : Picture based subtitle format used on BDs/HD-DVDs7 [( [$ E+ ~6 s. c# |% i% i  t& z
Duration : 2 h 21 min
3 U+ m& d) {* ?# ^* h' qBit rate : 41.9 kb/s* @% \. ^% O1 O$ i
Count of elements : 3964; J4 a" k3 C6 L3 g  j
Stream size : 42.3 MiB (0%)
" ^+ m, [# P' dTitle : Russian-PGS
' P/ F% ], z1 ILanguage : Russian; K: x; @3 x5 C9 R: l' P( y& G- r
Default : No# p2 v' S# ?' H- l- l2 ?0 f) M
Forced : No" a9 I' C! h! F. H
; I5 X, e. ?5 U' }7 z
Text #27
+ n( w& P% d6 {3 H7 m: Q0 o/ nID : 30
5 F: f8 c  }5 i  r- }Format : PGS
5 |* _2 @5 _7 c5 vMuxing mode : zlib* [% T. c1 c" g& M
Codec ID : S_HDMV/PGS: E( A1 W: @# y* X! }" j7 c
Codec ID/Info : Picture based subtitle format used on BDs/HD-DVDs4 h5 m0 ~0 T( W7 I% B! ?
Duration : 2 h 21 min% Y+ N& [/ M9 y0 N2 Z
Bit rate : 34.3 kb/s/ S; O: n8 M' ]
Count of elements : 3952) r* u& c  f  `; o8 s& J! X4 K0 g
Stream size : 34.6 MiB (0%)
: V# L: L- |3 ]Title : Spanish-PGS
' e! m" [# P4 j$ P1 Z! u. PLanguage : Spanish* M" s# u, [8 A/ I( a1 H* C& f. k
Default : No
' }! J' y8 S3 l  ^3 HForced : No
5 a, b0 b0 {$ K. \) |" O: G' _5 n' `
Text #28
: _. ]5 k) m( T+ j! Y! e, z& R& R& }ID : 311 O' w* j5 a* Z8 z) I* ~  W) ~% I
Format : PGS
+ D+ S1 i9 r* D0 K0 u" S6 A: {: fMuxing mode : zlib( @1 p8 [1 b/ q$ x8 e
Codec ID : S_HDMV/PGS  o& V. T( J& ]# b
Codec ID/Info : Picture based subtitle format used on BDs/HD-DVDs
# N4 _6 y! j" {- d8 f  r$ NDuration : 2 h 21 min
. S' j5 w9 n5 ~9 L/ @$ C! LBit rate : 37.3 kb/s
+ b) R7 N: i5 N; E8 c3 bCount of elements : 3904
( C& I" ]+ w: ~9 j$ y, {- DStream size : 37.6 MiB (0%)
+ j5 P) `1 Y: o1 x; x* P/ d' ]Title : Spanish-PGS+ g, y" S& p, w( \4 K
Language : Spanish
% B8 P6 w9 `- [2 t/ ]7 X0 {Default : No
$ d) s0 ?7 |* H0 w& |Forced : No
# p: j# r$ o1 i( Y
( H0 [* e) M/ L; vText #29, C/ u' T: L3 r# L5 x/ a
ID : 32
  ^$ E! c$ Y) t+ `; `8 tFormat : PGS
* h% g! |$ h; L, XMuxing mode : zlib
3 Q6 W* D% O* kCodec ID : S_HDMV/PGS8 x  k- ?9 G# C2 f  `
Codec ID/Info : Picture based subtitle format used on BDs/HD-DVDs
, ]" x; ?  @+ j& c; v. Q; EDuration : 2 h 25 min+ h9 S: e  @/ X( K: t
Bit rate : 29.1 kb/s5 x, ?4 a0 ]( J; ~
Count of elements : 3391* x" b+ [- y2 g" k- x. D: X9 J" \
Stream size : 30.3 MiB (0%)7 V5 W7 G5 n8 n3 G2 h
Title : Swedish-PGS5 M' F; G/ E: K2 \2 m
Language : Swedish
, n! D: R/ @2 T$ M" |) G$ \" TDefault : No$ e: r% E) {4 R$ ^
Forced : No% m4 ]  A: s4 ^& d8 |

. d' f: ?& q6 l; h+ L* YText #309 ^8 \& `- l3 n1 @
ID : 33
& Y0 z% \, V! k( G* g5 O$ m  D! aFormat : PGS- ~/ j$ X: g: |2 s4 R3 G5 n
Muxing mode : zlib
# f7 L* x2 k' l# N, ?/ DCodec ID : S_HDMV/PGS
4 e1 R) `6 A3 F: I7 g/ ], V6 OCodec ID/Info : Picture based subtitle format used on BDs/HD-DVDs' u6 t- N& i+ o) `9 |
Duration : 2 h 21 min- B5 d3 @* r3 w8 C
Bit rate : 34.0 kb/s
/ F* X2 u+ {$ i& f. z8 {! |3 DCount of elements : 38740 c( o  B) A; g/ K* e2 H
Stream size : 34.3 MiB (0%). [% D# z4 E3 d* `( N
Title : Thai-PGS
% v4 F6 a. _/ O0 O/ J! p8 NLanguage : Thai. d3 W, s3 Y# D+ v6 k7 u
Default : No
+ y' A5 ?* c$ f: qForced : No
8 \! y$ G6 g# Z) G- L
7 ?! x2 l$ j5 [- NText #31
4 {# E- K) j6 s* B% V( qID : 346 h; D2 f* B( O" `8 S3 j9 P
Format : PGS! L3 Y2 r2 f7 k2 v
Muxing mode : zlib: ~9 u. ]% n2 m
Codec ID : S_HDMV/PGS% U$ f) v! P2 W* h9 O
Codec ID/Info : Picture based subtitle format used on BDs/HD-DVDs
5 `6 e: {+ n9 E: zDuration : 2 h 21 min9 M/ {9 Q  m: [% [( N2 P( B- S  ?, S
Bit rate : 38.0 kb/s
4 A2 @. j+ L+ }Count of elements : 3868' X7 W$ u! A2 I) e7 V
Stream size : 38.4 MiB (0%)8 H- L% w+ {* j; R
Title : Turkish-PGS/ e# `5 H1 w4 y2 e- m
Language : Turkish0 ~- H; x2 N. ~! o, G
Default : No- }6 A( ~6 {: y& f8 A
Forced : No
- F8 ~. U  x: z& m- `$ R0 E- v4 i  X- c7 x4 l
Text #32
3 n1 ~4 O9 e4 V1 O8 _- V. SID : 35% c- m$ g0 a2 X5 R. j
Format : PGS
4 t: ^& T: X; A. U4 oMuxing mode : zlib7 K9 P+ G8 o# J5 r0 f9 [" [1 S
Codec ID : S_HDMV/PGS
% x5 L1 e/ v! B% p$ h3 _. uCodec ID/Info : Picture based subtitle format used on BDs/HD-DVDs+ I9 N; A0 e5 [4 K1 `( [7 }
Duration : 57 min 30 s0 `, R2 i; ?7 N0 Q( m3 T
Bit rate : 239 b/s; y9 \$ c; d# i5 v1 w1 g
Count of elements : 14
0 O: j: I- N5 t. g! G5 h2 [# D3 m+ Z3 WStream size : 101 KiB (0%)
7 M7 ]$ K" a8 v! `7 o* A8 ^( VTitle : French-FORCED-PGS
7 b) @5 r: G* i, Y+ {- YLanguage : French- N! O& k& g1 H( `# V
Default : No8 e1 t! s3 q! ?; ]( y+ ]
Forced : No
% _' J3 m. H, l6 q3 s# ]
7 p# U; u% i& M+ R: a" tText #33
$ R& b& |' ]/ v6 l' BID : 36
3 a$ u0 F0 m  gFormat : PGS
. O* G; w* T+ JMuxing mode : zlib
/ d* _; N  ]0 ]9 G  _# ^3 G' PCodec ID : S_HDMV/PGS
, }& _" v( _6 V2 ]" i3 U  ^+ e2 P: Y- yCodec ID/Info : Picture based subtitle format used on BDs/HD-DVDs
1 f7 l, v" O  L! R" s9 XDuration : 1 h 34 min
- \8 c8 }4 G/ L3 f; G! [Bit rate : 288 b/s
$ K6 A% i; `1 ~) n7 x! b: KCount of elements : 262 G( ?0 x. {1 O/ Y' f
Stream size : 200 KiB (0%)
% w4 i' M" r# \. \8 KTitle : Japanese-FORCED-PGS! D! ^; R) m. f
Language : Japanese
0 ^6 U! U7 A! D4 o% ]( D/ o. l% c  qDefault : No- G. ]  }$ h. h2 u+ R
Forced : No
( w/ H: t( j- w: F8 E! g
* G/ E, `; _# N) q; f& R9 ^Menu
* `5 F; O2 [6 }3 d5 B00:00:00.000 : :Chapter 1
; J9 |- X; [7 c5 P5 N5 O00:11:05.498 : :Chapter 2% ~, i9 y% S7 Y; [) w* {. Y; T
00:21:55.397 : :Chapter 3
. g8 r7 f( n9 I( m' A" t00:39:55.768 : :Chapter 4; N' y3 l% e* x8 g% R
00:45:28.684 : :Chapter 5  o/ H6 }, i' n0 A" v( p
00:53:28.788 : :Chapter 6
; Y9 f: |5 `7 O7 q00:59:02.247 : :Chapter 7
% S& W- R/ h# s# T6 }; b7 I01:06:27.066 : :Chapter 8
) `# b$ X$ A9 N! C0 I01:11:29.618 : :Chapter 9
3 V. T4 W( j  d( x2 P, }01:17:54.169 : :Chapter 10
3 h2 R/ F/ t9 F: k01:30:28.131 : :Chapter 11
5 @) a' L. I2 t, @5 C4 h; M01:37:39.228 : :Chapter 12& H7 @0 H& P7 K0 \) T) r( k( K
01:45:54.765 : :Chapter 13$ @5 y3 w) @5 r& ]  `; h
01:56:47.625 : :Chapter 14
" p7 A2 o) [" _02:05:08.584 : :Chapter 15
2 F( L) H0 x$ i1 B. U5 a02:16:07.701 : :Chapter 16

: `* |8 i1 G3 YEncoded from 4k bluray.$ I3 y5 f  U8 H. v5 K
游客,查看本帖隐藏内容请回复 | 加入VIP贵宾可免积分免回复 了解详情 | 还不是会员:点击获取邀请码 Invitation Code

本版积分规则

小黑屋|Archiver|蓝光电影资源网

GMT+8, 2021-10-25 18:36

Copyright © 2001-2022, Tencent Cloud.

快速回复 返回顶部 返回列表