BluRayCD Forum

 找回密码
 立即注册【分享大片】
查看: 10|回复: 1
收起左侧

[2160P极清] 绝地战警2 [4K SDR高码版] Bad Boys II 2003 2160p BluRaycd x265 10bit & 8bit SDR DTS-HD MA TrueHD 7.1 Atmos-SWTYBLZ 57.09GB & 63.27GB

[复制链接]

6116

主题

6290

帖子

7万

积分

Post Share

金币
14356 枚
体力
20444 点

卓越贡献勋章

黄金嫖客 发表于 2021-9-15 05:16:00 | 显示全部楼层 |阅读模式
4 L+ N1 ^( B; L

" V& i) G/ i* w/ ^/ w. h◎片  名 Bad Boys II
0 I! V$ [% a# W( S◎译  名 绝地战警2/坏小子2/重案梦幻组2+ n% H( t+ z! ~
◎年  代 20033 p. n' V4 f! D4 o
◎产  地 美国
& r/ O; i* W- x$ c1 W( p* v* P◎类  别 喜剧/动作/犯罪
9 ?" ]6 S$ C8 R+ b6 y◎语  言 英语/葡萄牙语
# F. a5 O; J: p( ~. h◎上映日期 2003-07-18(美国)% }/ M+ H8 @1 l' m3 g0 u  r
◎IMDb评分  6.6/10 from 239,432 users; D/ r: `! y% i! @( S% h1 `3 J
◎IMDb链接  https://www.imdb.com/title/tt0172156/
/ a$ P  O' w  m, R◎豆瓣评分 7.5/10 from 34,638 users
8 e  `" _! D8 t1 x  T+ n- F◎豆瓣链接 https://movie.douban.com/subject/1307917/2 O- ^% y2 K  Y9 l. q+ n; w: ~
◎片  长 2 h 26 min7 u' i8 Q: ]$ E) s
◎导  演 迈克尔·贝 Michael Bay
' E5 J% f) `. L3 I6 m( D/ W4 v◎编  剧 罗恩·谢尔顿 Ron Shelton7 q. ^0 I+ k6 P2 F) r2 f' p
       杰里·斯塔尔 Jerry Stahl1 ^8 l* r) Q$ j5 P; L) z4 j' H5 o5 Z% g
       乔治·加洛 George Gallo0 ^! R4 [3 d$ P5 q
◎主  演 马丁·劳伦斯 Martin Lawrence- v! ~: a5 r. Z1 J7 z# w3 R6 _& T3 @
       威尔·史密斯 Will Smith7 i0 A) A8 \! g# I2 j
       詹迪·莫拉 Jordi Mollà
$ f9 x5 s- G; Z0 C0 p7 Y1 C       加布里埃尔·尤尼恩 Gabrielle Union5 @: Z" M- q0 V! X
       彼得·斯特曼 Peter Stormare
0 N3 z. f0 T+ E       特里萨·兰德尔 Theresa Randle
$ }4 \3 Y6 K" H( I       乔·潘托里亚诺 Joe Pantoliano! D$ Y# E" r$ P: Q
       迈克尔·珊农 Michael Shannon" u  y; r" k% k  i) X
       乔恩·塞达 Jon Seda
; `. h. H- g8 f5 P9 u. }       尤尔·瓦斯克斯 Yul Vazquez6 e/ F7 v- L8 ^4 v0 q/ k7 Y
       贾森·曼努尔·奥拉扎巴尔 Jason Manuel Olazabal# Y( B" H/ Q! l3 \1 f0 D
       奥托·桑切斯 Otto Sanchez; A& w; M" ^/ k3 E/ g! G
       亨利·罗林斯 Henry Rollins$ Y( M) A+ }* p. |
       安东尼·科隆 Antoni Corone1 w8 o8 _" ?, o( s5 v  C# u
       Gary Nickens9 X: E9 _5 J7 ~: c
4 y5 I/ r! U( }3 l$ l  `4 o+ s; K
◎简  介   + d3 z7 R3 t. x" s% m! x& O
; q& ~5 p# w6 H3 B+ ^, E7 A0 W, P
  本片是《坏小子》的续篇,故事仍发生在迈阿密。迈阿密的毒品交易于一夜之间变得异常猖獗泛滥,各个贩毒集团之间的火拼也接连不断,为了调查贩毒集团内部的重重矛盾,迈阿密警局的一对“黄金”搭档,潇洒的劳瑞(威尔·史密斯)和神叨的宾纳(马丁·劳伦斯)再度临危授命,很快,两人摸清事情的来龙去脉:一股外来的贩毒势力正在侵入迈阿密的毒品市场,为首的毒枭野心勃勃,意图控制整个美国乃至欧洲的毒品交易,建立贩毒王国。
# C! ?, ?' |9 b: I: B7 f0 o) u
$ T& E* x3 d: Q* N" L: E0 u1 L  警方展开行动围剿贩毒集团时,一位DEA的女卧底西德妮(盖布瑞亚·尤妮恩)被毒贩劫持,对方开出的条件是,劳瑞和宾纳必须去干违法的事,这可难倒了两人,因为漂亮的西德妮不但是宾纳的亲妹妹,还是劳瑞的情人。+ a& Y/ n  J6 x+ ^) {

, i( q; O6 R5 ^' X1 @- K( K  Narcotics detectives Mike Lowrey and Marcus Burnett are assigned to a high-tech task force investigating the flow of ecstasy into Miami. Their inquiries lead them to a major conspiracy involving vicious kingpin Johnny Tapia, whose ambitions to take over the city's drug trade have ignited a turf war.
0 u* K9 ?' O/ H+ m% t& v# H% {8 R% n  f
SWEATY BALLZ presents
( t* I) M) \# G  U* H+ s+ A  U; m% ?+ G. u3 Z9 ~6 v: ]
Bad.Boys.II.2003.2160p.BluRayCD.x265.10bit.SDR.DTS-HD.MA.TrueHD.7.1.Atmos-SWTYBLZ5 E% z/ M% H' G' T1 E
Converted from 10 bit HDR to 10 bit SDR using tripple mixed Hable-Reinhard-JJ per scene+frame analysis algorithm6 A# c2 M% B4 D, ~/ W0 F2 a
Screenshots are 8bit SDR
1 B# P6 Y8 \) [: h
! y3 {2 |8 T- g7 i5 k: e  [Video/ b) n7 D  A- |, d; ^* a5 h
ID                                       : 1
, H4 F  i4 V; k# dFormat                                   : HEVC
+ d' f( t) r2 s  f' f" c# fFormat/Info                              : High Efficiency Video Coding) T5 d+ A$ t2 C
Format profile                           : Main [email protected]@High
" z% ~% R$ o6 V) ?Codec ID                                 : V_MPEGH/ISO/HEVC  J  [# T% l& d5 ]) L7 _
Duration                                 : 2 h 26 min/ }) @* [3 b6 t# X5 q
Bit rate                                 : 44.0 Mb/s4 H, i' ~+ L. F# k% ^: `
Width                                    : 3 840 pixels
- k' l! i- e, _% a. hHeight                                   : 1 606 pixels
6 E6 {" J: I9 VDisplay aspect ratio                     : 2.40:11 z! N( l' G9 N0 H( A. r
Frame rate mode                          : Constant( j2 S4 ^1 ?6 M, _% q- E
Frame rate                               : 23.976 (24000/1001) FPS, Q; `* a  _  P2 n/ h
Color space                              : YUV% ]' W) r/ r1 B8 D1 j
Chroma subsampling                       : 4:2:0
1 r& `' B9 \& bBit depth                                : 10 bits
" j2 L$ X' g. v2 M0 JBits/(Pixel*Frame)                       : 0.297" G' t* P' [2 g' {9 Q# k
Stream size                              : 45.1 GiB (79%)
/ g/ U' F2 C" d+ Y- A0 g' |+ s1 i; OTitle                                    : Bad.Boys.II.2003.2160p.BluRaycd.x265.10bit.SDR.DTS-HD.MA.TrueHD.7.1.Atmos-SWTYBLZ
( ?, D5 i, ]' b) e* c* EWriting library                          : x265 2.8+54-79c76e42cb28:[Windows][GCC 7.3.1][64 bit] 10bit! w; n1 o( {# s& {: L
Encoding settings                        : cpuid=1111039 / frame-threads=16 / numa-pools=24,24,24,24 / wpp / no-pmode / no-pme / no-psnr / no-ssim / log-level=2 / input-csp=1 / input-res=3840x1606 / interlace=0 / total-frames=0 / level-idc=51 / high-tier=1 / uhd-bd=0 / ref=3 / no-allow-non-conformance / repeat-headers / annexb / aud / hrd / info / hash=0 / no-temporal-layers / no-open-gop / min-keyint=1 / keyint=24 / gop-lookahead=0 / bframes=4 / b-adapt=2 / b-pyramid / bframe-bias=0 / rc-lookahead=25 / lookahead-slices=4 / scenecut=40 / radl=0 / no-intra-refresh / ctu=64 / min-cu-size=8 / no-rect / no-amp / max-tu-size=32 / tu-inter-depth=1 / tu-intra-depth=1 / limit-tu=0 / rdoq-level=0 / dynamic-rd=0.00 / no-ssim-rd / signhide / no-tskip / nr-intra=0 / nr-inter=0 / no-constrained-intra / strong-intra-smoothing / max-merge=2 / limit-refs=3 / no-limit-modes / me=1 / subme=2 / merange=57 / temporal-mvp / weightp / no-weightb / no-analyze-src-pics / deblock=0:0 / no-sao / no-sao-non-deblock / rd=3 / no-early-skip / rskip / no-fast-intra / no-tskip-fast / no-cu-lossless / no-b-intra / no-splitrd-skip / rdpenalty=0 / psy-rd=2.00 / psy-rdoq=0.00 / no-rd-refine / no-lossless / cbqpoffs=0 / crqpoffs=0 / rc=crf / crf=20.0 / qcomp=0.60 / qpstep=4 / stats-write=0 / stats-read=0 / vbv-maxrate=160000 / vbv-bufsize=160000 / vbv-init=0.9 / crf-max=0.0 / crf-min=0.0 / ipratio=1.40 / pbratio=1.30 / aq-mode=1 / aq-strength=1.00 / cutree / zone-count=0 / no-strict-cbr / qg-size=32 / no-rc-grain / qpmax=69 / qpmin=0 / no-const-vbv / sar=1 / overscan=0 / videoformat=5 / range=0 / colorprim=2 / transfer=2 / colormatrix=2 / chromaloc=0 / display-window=0 / max-cll=0,0 / min-luma=0 / max-luma=1023 / log2-max-poc-lsb=8 / vui-timing-info / vui-hrd-info / slices=1 / opt-qp-pps / opt-ref-list-length-pps / no-multi-pass-opt-rps / scenecut-bias=0.05 / no-opt-cu-delta-qp / no-aq-motion / no-hdr / no-hdr-opt / no-dhdr10-opt / no-idr-recovery-sei / analysis-reuse-level=5 / scale-factor=0 / refine-intra=0 / refine-inter=0 / refine-mv=0 / no-limit-sao / ctu-info=0 / no-lowpass-dct / refine-mv-type=0 / copy-pic=1 / max-ausize-factor=1.0 / no-dynamic-refine / no-single-sei. Z) m. S+ U/ @! T  t' i
Default                                  : Yes) u! P6 M1 L  B) k9 K: q% O
Forced                                   : No
# \. k/ `' U# f9 X) Y; W* S2 |; S9 F% r  R  Y1 J
Audio #15 Y! u2 V, k; A5 d# b% }( ?" E
ID                                       : 25 f6 d( t2 z5 _( i6 X8 V2 `4 D$ k4 D5 ^; A
Format                                   : TrueHD9 v7 b5 u3 w* k& B4 |( s
Format profile                           : TrueHD+Atmos / TrueHD# J! h& A& q8 R" V
Codec ID                                 : A_TRUEHD
4 Y- y5 t8 S; M& }3 NDuration                                 : 2 h 26 min3 p2 i4 P- u. |; P% Q
Bit rate mode                            : Variable1 ]; r4 _  H% |7 w9 h9 _2 u" `
Bit rate                                 : 5 774 kb/s: O% @) \. m" Q& c
Maximum bit rate                         : 8 961 kb/s( n( c8 B* O' q* h# E
Channel(s)                               : Object Based / 8 channels& d. G# e7 y8 ], E: A; a$ Z
Channel positions                        : Object Based / Front: L C R, Side: L R, Back: L R, LFE
5 i, U$ h1 P/ f% p  xSampling rate                            :  / 48.0 kHz1 w5 Q# _. m- L) g; \
Frame rate                               : 1 200.000 FPS (40 SPF)
. M* z2 @# y5 F1 nCompression mode                         : Lossless
: C8 a+ q6 w  \1 ?7 t+ s; lStream size                              : 5.92 GiB (10%)
  T0 r3 C0 Z: B8 q' j9 I# j: HTitle                                    : Bad.Boys.II.2003.2160p.BluRaycd.x265.10bit.SDR.DTS-HD.MA.TrueHD.7.1.Atmos-SWTYBLZ# }5 [+ h- ?; F" H0 |: G
Language                                 : English
; U5 ^; X! S2 v* y& ?8 b0 ADefault                                  : Yes
. J: k' R, b% E" x) ^& w' MForced                                   : No
) V' k' _/ ]& o! s
( S% }: G0 k& \7 y( w% cAudio #2
6 U. y) C  s$ M7 j2 w- YID                                       : 34 y" I3 w# A( U/ F
Format                                   : DTS
' I* a! R, k' C  ]+ {Format/Info                              : Digital Theater Systems
8 ~/ {+ _+ V2 l# A4 F2 qFormat profile                           : MA / Core$ D  g3 g3 `- {/ h7 B8 o3 |, ?' y
Codec ID                                 : A_DTS$ a- U, i$ ?5 D) c
Duration                                 : 2 h 26 min0 i/ I" }' T+ k% B/ h# f
Bit rate mode                            : Variable / Constant
+ D: h/ u' _- W, r1 @6 U, UBit rate                                 : 4 644 kb/s / 1 509 kb/s( N0 p2 D/ Q2 S* o$ @+ R! v4 P! n
Channel(s)                               : 8 channels / 6 channels
/ R; h& ^# \$ V+ iChannel positions                        : Front: L C R, Side: L R, Back: L R, LFE / Front: L C R, Side: L R, LFE, s# z( A" R! u3 u
Sampling rate                            : 48.0 kHz
! M4 X0 B! J2 C7 _Frame rate                               : 93.750 FPS (512 SPF)
4 J8 ^  |# t8 ^8 N$ C7 ~2 JBit depth                                : 24 bits
$ w& y6 |) ?# W5 hCompression mode                         : Lossless / Lossy, ~4 }: |0 ^+ }- m  n& j2 V
Stream size                              : 4.76 GiB (8%)
1 j, F; V4 h- y% n; UTitle                                    : Bad.Boys.II.2003.2160p.BluRaycd.x265.10bit.SDR.DTS-HD.MA.TrueHD.7.1.Atmos-SWTYBLZ5 g" a" E. {. {: `
Language                                 : English" l; `- |- p3 y( a9 B
Default                                  : No
/ c  e5 J, `# b9 W7 L3 PForced                                   : No9 e9 s; [% a6 h. A% H

, d3 ]$ m# r0 N: k1 w' K0 }7 SAudio #3
- O' P- n5 o& }& F7 H  MID                                       : 4% W- Y5 _" N: S$ s1 `
Format                                   : AC-3
& _0 D: Y4 ?1 Q& @4 n# eFormat/Info                              : Audio Coding 3( N7 Q: D" ]& k& s4 M
Codec ID                                 : A_AC3" L# ?( |; B$ X0 c
Duration                                 : 2 h 26 min8 L( e* M7 j5 p( O9 L. n3 t
Bit rate mode                            : Constant
+ W. x* m7 {  M& RBit rate                                 : 640 kb/s
) l- |; z9 y2 F# {Channel(s)                               : 6 channels
! C( ]+ t+ g4 o( }1 F4 p: e) uChannel positions                        : Front: L C R, Side: L R, LFE6 r9 w/ q! _* ]1 s7 Z/ f. V
Sampling rate                            : 48.0 kHz
9 w- s: Q/ Z# b7 `$ H+ b# n/ v9 iFrame rate                               : 31.250 FPS (1536 SPF)+ R$ R/ Q5 z7 T/ i% Z1 Y
Bit depth                                : 16 bits
; L% Z5 L/ K: E' X- \/ {: `Compression mode                         : Lossy
+ j/ E4 }' z/ PStream size                              : 672 MiB (1%)% J. o: {' V4 o0 |- b3 y  F
Title                                    : Bad.Boys.II.2003.2160p.BluRaycd.x265.10bit.SDR.DTS-HD.MA.TrueHD.7.1.Atmos-SWTYBLZ9 J$ ~/ M( S- |9 \4 Q+ I
Language                                 : English
% @5 r7 ^) @. \- y' S" \& iService kind                             : Complete Main
& |: L: n/ k% d  `" }Default                                  : No
" ?2 {; `! c$ ^/ r; cForced                                   : No9 T1 b' ^$ h1 }

: F( ^" [* Z7 \! l4 s5 ]  VText #1
6 [5 e, ?9 t. u  p* f  M/ jID                                       : 5( ]7 g4 k% I" c' t0 ~1 @" S; I
Format                                   : UTF-8
1 N1 r0 w  s8 }$ P% c7 t1 cCodec ID                                 : S_TEXT/UTF8. f/ ~. a: X9 ]+ Q
Codec ID/Info                            : UTF-8 Plain Text
- N" F5 [5 p; C7 dDuration                                 : 2 h 20 min# @1 f* V  M6 N, I$ P- y+ g
Bit rate                                 : 69 b/s1 M8 F/ Q$ a9 z9 T2 m/ ?+ Y
Count of elements                        : 1912- x+ K  X- _) [5 ]. N) a$ U
Stream size                              : 71.6 KiB (0%). I  l# I9 e4 h) D1 W$ G
Title                                    : English-SRT
8 k/ c8 M$ }! J8 k( o0 Z& YLanguage                                 : English' h, I( k0 ^, d* R
Default                                  : Yes5 s5 c( B4 b/ @0 @
Forced                                   : No0 E4 A. M4 c9 q, E" D* r( i4 F  ]

8 ~. _: }9 q: U2 u$ j$ oText #21 p; a& ~8 B- ]9 c
ID                                       : 6
: w1 |9 D8 [4 r) x. W4 t, tFormat                                   : PGS- o+ q( g: Z8 |  \5 F2 ]9 g1 v
Muxing mode                              : zlib
3 `8 [1 q: N" n2 v7 _4 n' QCodec ID                                 : S_HDMV/PGS( n5 j8 \1 Y+ _7 R5 Z6 Q8 E
Codec ID/Info                            : Picture based subtitle format used on BDs/HD-DVDs
# _3 U3 V5 [9 hDuration                                 : 2 h 20 min
: [6 n# ?( l) U0 R7 h7 N6 ABit rate                                 : 40.2 kb/s, I2 j# S3 v; V! n
Count of elements                        : 3824% {+ F7 Q3 r4 k6 V
Stream size                              : 40.3 MiB (0%)
# I& e  w) E" p8 ?( RTitle                                    : English-PGS, G2 m) i( a% T! g' K+ `. T' h
Language                                 : English
- D6 X9 p( u: w& P# q* R! H) oDefault                                  : No+ u! E/ i6 I5 Y7 J; H9 I# G
Forced                                   : No' [% M7 C) t4 w% Q* B+ q+ y0 r: g

1 @" p, C  h# |* c( g: J; WText #3' U4 D  a# F, g, {& a# K2 J# D9 F
ID                                       : 7: a5 ?) F2 f, Y% [- K( g7 S
Format                                   : PGS
* ^4 X# `" q- v, f4 sMuxing mode                              : zlib! ~8 Z* J- [% P( @1 J  {+ ^
Codec ID                                 : S_HDMV/PGS9 z$ U  G# N1 t4 j9 b7 v4 w* q( s
Codec ID/Info                            : Picture based subtitle format used on BDs/HD-DVDs
  E- G& N  u7 n) S6 [Duration                                 : 2 h 25 min
; Y; w# J& `5 c1 @Bit rate                                 : 45.3 kb/s
6 u: G7 e4 b/ OCount of elements                        : 4518
/ o- v& T. P8 a8 f1 KStream size                              : 47.0 MiB (0%)
6 n& i% k% r! s# N- L: Q; O$ K- PTitle                                    : English-SDH-PGS  {! I& r5 K2 V* k
Language                                 : English
8 `* B3 J2 ~# u- d. M  iDefault                                  : No
9 X( P0 N+ f7 W! n0 ]Forced                                   : No
% p. ]& \" i0 y( B. k2 Y5 O' I" ~' \" z& y8 l5 @: b
Text #43 Y, n& w6 ?1 N1 ~/ p& @
ID                                       : 8( A4 @" S5 p5 K+ L
Format                                   : PGS0 m5 B  ^# @) Y+ K2 w! n4 ?5 j
Muxing mode                              : zlib5 R# X) q# [* h9 }
Codec ID                                 : S_HDMV/PGS& W- Y. D" i0 I+ ?* [
Codec ID/Info                            : Picture based subtitle format used on BDs/HD-DVDs
4 Y: c9 h: [% s" F- f- q* w% V2 xDuration                                 : 2 h 20 min
. N$ q, ~# g3 l3 `. j- `$ c5 X3 yBit rate                                 : 40.2 kb/s
7 I% e  c) f* XCount of elements                        : 3832
( o/ z' W' \$ h, O5 N' yStream size                              : 40.3 MiB (0%)0 s& |; l4 c# ]  I  p7 i% ^4 ]. {
Title                                    : English-PGS% ^! }. R$ b" N* w9 y# {
Language                                 : English
" i! ?2 l+ i  K+ c. d4 ]Default                                  : No! l: v: J0 u) t: D& B# b
Forced                                   : No$ I  L8 C( G. p
5 G7 a+ u, [$ u2 B
Text #5) s* K- U0 H% l0 L
ID                                       : 9
( o9 [! U- y5 q& V1 K: wFormat                                   : PGS/ i& c  S8 L- O+ t. b4 D* U$ q
Muxing mode                              : zlib
  \6 a3 _6 M7 s- d  S1 b: u/ UCodec ID                                 : S_HDMV/PGS
! g" a- n, |" L0 M) E" ?Codec ID/Info                            : Picture based subtitle format used on BDs/HD-DVDs
8 n! T; L1 W/ T) [/ A) |Duration                                 : 2 h 25 min* `) }/ p" ^" N2 R* ]9 |. x0 r
Bit rate                                 : 45.3 kb/s9 W0 `" q( Q4 s: G' l( u4 v+ W4 N7 o
Count of elements                        : 4518
+ U$ {3 m4 p6 s* s8 UStream size                              : 47.0 MiB (0%)
. U& M9 X- Y- u. j- S5 uTitle                                    : English-SDH-PGS
( I. @, b& W! w  m; fLanguage                                 : English
# M$ M; Z) X" q) M! R/ KDefault                                  : No
' ^  K: C' [8 u# F+ U" }Forced                                   : No
/ y, e3 L2 w" M
3 }+ |4 p7 w# I% HText #6$ M$ z4 R, A) e1 O0 h
ID                                       : 10
5 Y4 o# _. p% i. Z$ ^" CFormat                                   : PGS
4 w- g$ H, x) j! o1 c- C, qMuxing mode                              : zlib. d3 k# A  p- g3 h  r
Codec ID                                 : S_HDMV/PGS
- c% B( [4 }: |3 uCodec ID/Info                            : Picture based subtitle format used on BDs/HD-DVDs( Y* ~& o) ~; H1 W# R
Duration                                 : 2 h 21 min
" |  v9 e! |  z) c  J. y0 CBit rate                                 : 19.2 kb/s# X! A* \) j: J+ [
Count of elements                        : 3844
" r. a0 u6 N" I1 o7 U/ r7 jStream size                              : 19.4 MiB (0%)/ }0 _9 l2 A! p
Title                                    : Arabic-PGS
9 {9 F5 [5 Q. U) xLanguage                                 : Arabic
  T. {) V0 M4 H  f  zDefault                                  : No
# S1 E0 M+ e' R) I* {Forced                                   : No5 |) \6 c4 j  ]7 {/ d& J  X
  i2 i- ^: H) ]) y
Text #74 b! ?5 |$ F& W$ d! u6 L1 {
ID                                       : 11
. ]6 X/ _9 S! l; E3 O1 S* gFormat                                   : PGS# |/ D! e* G7 B  z, z
Muxing mode                              : zlib$ v, n2 F- T9 ]( r* v3 P
Codec ID                                 : S_HDMV/PGS
  v3 o6 g1 m) h- {+ PCodec ID/Info                            : Picture based subtitle format used on BDs/HD-DVDs
1 ]0 }5 |" }3 t7 t% }Duration                                 : 2 h 21 min
) R' `8 B* V# e- G, U  DBit rate                                 : 26.9 kb/s
, `3 |' D( {$ a' pCount of elements                        : 3880
2 z& \# d: o( l% m1 t0 ^Stream size                              : 27.1 MiB (0%)
* E8 k- _* L3 ]$ |: k# K$ Z  xTitle                                    : Chinese-PGS( j9 D6 {) P* r  X/ L0 }2 B; T: ^8 l
Language                                 : Chinese
( g' N8 O  s) I/ I* |Default                                  : No
2 {; S+ _2 ~" Z  tForced                                   : No( `1 R* Q. E) d- E; U+ R9 |. q

2 [1 i; x7 Q! R* YText #82 n5 w; C. Q0 }% Q
ID                                       : 127 J& J4 B+ e* \, D. V5 M
Format                                   : PGS2 B$ r1 W+ H' ]) N& h
Muxing mode                              : zlib! G) ~- _5 x' B. I8 ]
Codec ID                                 : S_HDMV/PGS
- y6 e! w; e$ m9 k% eCodec ID/Info                            : Picture based subtitle format used on BDs/HD-DVDs
* h- a" d/ ]! j+ m( [- |Duration                                 : 2 h 21 min
+ K: y* b+ o) }& F( a( CBit rate                                 : 28.2 kb/s
. O+ x5 c7 R! m: _: Z* `, L3 BCount of elements                        : 38226 ^3 Q+ i* e0 T
Stream size                              : 28.5 MiB (0%)4 m" K9 H0 R! j" C/ T
Title                                    : Croatian-PGS
/ l; t# h. @* V2 yLanguage                                 : Croatian
4 v6 t% J( V* e8 DDefault                                  : No; ^* u7 U; [" A! s
Forced                                   : No% @% `4 ?6 d+ \; F) @; i" p* |5 O& k
8 S% n# C. {- x; O" o/ h. |
Text #92 e% V/ U' g& [1 h5 z
ID                                       : 13
  f4 |3 q3 c% x8 i9 R9 PFormat                                   : PGS) k2 s% Q' d6 l% I( q" `
Muxing mode                              : zlib
& m' W& ], `, o' d0 n: ]0 S, f, NCodec ID                                 : S_HDMV/PGS. q; a0 P/ Y' p2 v: r" N% h: b& ~
Codec ID/Info                            : Picture based subtitle format used on BDs/HD-DVDs
' s: r) _9 |9 v# @% G/ c8 n/ W: ], bDuration                                 : 2 h 21 min# i' y/ E  Y. k4 ]  k
Bit rate                                 : 31.6 kb/s
9 d  P2 ^  q, oCount of elements                        : 3782. E4 C4 M0 _2 ^/ ^% }7 K# |  I5 s
Stream size                              : 31.9 MiB (0%)- E" W# |- F% `
Title                                    : Czech-PGS
  @6 @- Y0 X4 ^0 X6 g3 q% M& _Language                                 : Czech% f( V% g8 [/ X3 H! p
Default                                  : No  X6 t* k! u2 K
Forced                                   : No! ]: v  N; ?0 @
0 C* o+ R" J' r. V. {, i3 q
Text #105 Y! Y, e3 `9 e5 {
ID                                       : 14
' O/ y" c6 ?5 k* \+ \" @* LFormat                                   : PGS8 |5 t4 f5 a- l" ?9 v/ r
Muxing mode                              : zlib2 L9 m9 T1 P% x8 p/ d% D
Codec ID                                 : S_HDMV/PGS7 [" _+ T0 {  M6 g; h# W+ \
Codec ID/Info                            : Picture based subtitle format used on BDs/HD-DVDs
" T* t$ O0 I! y( sDuration                                 : 2 h 21 min0 m! k3 ?$ s8 y5 }- _2 D
Bit rate                                 : 31.3 kb/s; E: q$ @, C3 W3 X
Count of elements                        : 3286% B% @! F8 c& V0 D
Stream size                              : 31.6 MiB (0%)
# t, p. t0 i7 g. _, a0 {* |Title                                    : Danish-PGS* \; B5 }5 o) I- u" g6 M
Language                                 : Danish% m; ^7 h9 j* s
Default                                  : No
3 ]4 c; ^4 L2 lForced                                   : No; Y) [5 d' U3 y7 p. [
: H8 R+ c* N0 X) M9 h- ^4 a: n& e
Text #11
0 f9 G1 S6 h( y; r3 x3 m3 V8 cID                                       : 15: ^+ I! w" {* t, I* ~
Format                                   : PGS
9 p( m2 ?( V9 H! {! ]/ n2 ^8 ZMuxing mode                              : zlib( K# ^- `9 }& n/ j- n* q7 p! d
Codec ID                                 : S_HDMV/PGS- H0 o" [: w8 ~; E
Codec ID/Info                            : Picture based subtitle format used on BDs/HD-DVDs% N% W. M" x8 K1 ]
Duration                                 : 2 h 20 min- c# t4 V7 G  I& E/ f
Bit rate                                 : 30.7 kb/s
" W1 Q2 e% }: h3 tCount of elements                        : 26477 D) j- P* x: b6 N
Stream size                              : 30.9 MiB (0%)
+ l% G2 O- d7 JTitle                                    : Dutch-PGS1 T' L6 q6 ~6 k
Language                                 : Dutch- z. d% n  E  y4 Z! R7 M/ c1 [
Default                                  : No- `. i# a* o% {# d5 F$ y; I
Forced                                   : No
5 T1 d& u* w9 Q, w/ I/ [1 V5 n  J. i( D& X  [; S
Text #12- |% L( h: h$ B+ ?2 S
ID                                       : 16- S5 p- c, N" x, V: T+ w
Format                                   : PGS" I9 i' ]+ t$ M
Muxing mode                              : zlib9 J% e. L; Q9 x) k6 i) `' r/ [6 i
Codec ID                                 : S_HDMV/PGS" k2 n# I1 r. _8 f+ y" l
Codec ID/Info                            : Picture based subtitle format used on BDs/HD-DVDs" r3 ~9 [, j% X9 x
Duration                                 : 2 h 21 min
! d% g. F* o+ z5 l( ^3 R5 rBit rate                                 : 30.1 kb/s- p/ k2 z$ i! i
Count of elements                        : 2982; u+ B# \1 U* [$ x% r' Z
Stream size                              : 30.4 MiB (0%), C: D- ?/ _) C7 l4 g
Title                                    : Finnish-PGS
- `: s& C' J% l9 B* LLanguage                                 : Finnish0 D! w% o4 z  }6 R
Default                                  : No
# l. K/ O# V: hForced                                   : No. l* z' A& K' ]+ x
8 D5 r" X+ Z- w/ n1 V
Text #13
+ V: Y- u/ m2 ^- j' {% yID                                       : 17
& {7 ~/ e4 E# k4 QFormat                                   : PGS6 D2 v8 M/ k- p1 u0 ~0 }: u: e
Muxing mode                              : zlib
0 m' [8 M+ m" I) w0 wCodec ID                                 : S_HDMV/PGS
, I* n" |: L4 D: q  S: I0 p' q# ACodec ID/Info                            : Picture based subtitle format used on BDs/HD-DVDs
1 U5 r' k2 p0 l+ z, W/ q0 HDuration                                 : 2 h 25 min
) c5 X' g5 P$ b3 B( J" g5 WBit rate                                 : 27.0 kb/s; e" t' F- q6 c2 m3 r. i. k
Count of elements                        : 3586, b: ?' z; ?9 U
Stream size                              : 28.1 MiB (0%)
) t' d2 b+ b$ BTitle                                    : French-PGS
! v, M# V6 t$ I( T& ^/ DLanguage                                 : French
2 c1 p1 x/ H0 g6 i% d/ ^# d# aDefault                                  : No, I* U6 F5 B# p9 S7 m
Forced                                   : No( v$ t: E$ Y4 q2 Q4 M
% T0 a9 _' F. S2 y6 K4 [$ g
Text #14  A; y! l* e. e* U# a9 H
ID                                       : 18& o7 `7 t) H: m' G6 v' T9 }0 B
Format                                   : PGS
0 r, J) d/ S' `6 d; CMuxing mode                              : zlib4 K! }. y7 B  w& m* b
Codec ID                                 : S_HDMV/PGS1 f9 q' d, \% T0 W1 Y9 N8 l
Codec ID/Info                            : Picture based subtitle format used on BDs/HD-DVDs
: K0 m& K4 Y3 b: I6 p9 ]; t: IDuration                                 : 2 h 21 min
7 g& v4 S4 l' w) _: S' i; }Bit rate                                 : 44.1 kb/s
) W. F" e- U  ?$ g; p3 D: fCount of elements                        : 39519 t) b& Q/ L6 y' `
Stream size                              : 44.5 MiB (0%)3 M* y/ f8 @2 e. Y8 a1 ?
Title                                    : German-PGS/ h2 [# n; }2 M% Z) }# B
Language                                 : German( s# j% Z5 K: |2 r. D+ k
Default                                  : No
' c9 x. J/ i! ^7 p9 S6 OForced                                   : No
1 o+ a2 l; Y0 K9 P- d$ U3 M' [' w) C5 K) r; G' k( D+ _
Text #15( I" m3 i+ h1 t8 V& l
ID                                       : 19% T: s/ x6 r7 S2 {: m1 g, A
Format                                   : PGS
  |* H( }$ m: uMuxing mode                              : zlib
4 m! m4 t$ w* J& \/ LCodec ID                                 : S_HDMV/PGS
" o7 t# ~4 X9 z. Q% S& R" e* v" iCodec ID/Info                            : Picture based subtitle format used on BDs/HD-DVDs6 j% w+ V, ^" i3 Y  t5 z
Duration                                 : 2 h 21 min
/ A$ w( h5 @, Z3 B& U% j4 JBit rate                                 : 35.3 kb/s
/ G% d$ w% H- kCount of elements                        : 3738
0 B/ {( k3 [* Y& s; ^7 eStream size                              : 35.6 MiB (0%)
, y% }& S6 n- f+ Q" \* WTitle                                    : Greek-PGS
8 j9 g: T  O5 mLanguage                                 : Greek/ t! ?2 z% Q5 [, z: ?1 [
Default                                  : No
+ t% K% F( {% W9 T( N* D! r9 y% nForced                                   : No
- j5 s/ T3 w% K, B% f7 [; X1 C# p( s+ s6 }
Text #16: V; \) E3 H4 C+ \' R9 r; S! X
ID                                       : 20' L7 U/ ]1 i5 S- N! _0 r6 n
Format                                   : PGS
$ |5 ?$ ^/ z6 `/ a' m% r( n8 UMuxing mode                              : zlib( ]" B- s) q/ k1 C
Codec ID                                 : S_HDMV/PGS
$ k" Q" Y) u0 \& {8 e9 \; x' vCodec ID/Info                            : Picture based subtitle format used on BDs/HD-DVDs8 A% W! |& {/ c
Duration                                 : 2 h 20 min
% p! W5 K0 q" v9 }1 N8 VBit rate                                 : 29.4 kb/s" Q0 h1 {6 W$ o* G
Count of elements                        : 38389 M" R# C# z, H0 c3 R
Stream size                              : 29.6 MiB (0%)" s2 N5 @6 z2 z
Title                                    : Hebrew-PGS  _$ [) k7 L8 d/ Y- m
Language                                 : Hebrew" s6 l3 Y! u0 A2 v! o& P& R1 ~
Default                                  : No4 E! [2 S9 J7 U4 O* ?* `8 A( `
Forced                                   : No
6 H2 k) i2 t# d( x. f( C1 j! }5 R, O' a: J: K( L# O. U4 ^( S5 s$ ^
Text #17  w, B- {# k' V. V! b% R2 A
ID                                       : 21# K! \$ ?4 f* x
Format                                   : PGS
( ?$ E' Y# o/ I$ m6 yMuxing mode                              : zlib
0 Y+ t6 m5 L' TCodec ID                                 : S_HDMV/PGS
* B# v9 w% a4 \+ [  s. i1 @& }Codec ID/Info                            : Picture based subtitle format used on BDs/HD-DVDs0 u0 O  e8 u8 {6 H
Duration                                 : 2 h 21 min
6 x! u  e- t4 _. G8 \: ZBit rate                                 : 27.6 kb/s
' V- u8 |: O5 [2 g8 `0 q6 `3 wCount of elements                        : 3846
- K0 h, g" s& n! }Stream size                              : 27.8 MiB (0%)
% w. G- n# H# U! JTitle                                    : Hungarian-PGS9 a7 l! J5 p7 w
Language                                 : Hungarian
* h/ w, Y* Z; c) qDefault                                  : No
# A; Z# F6 q' X9 O4 N& ]7 @7 }Forced                                   : No
& O( n+ ~+ Z. t2 H4 ~- L9 q) T6 M# Q" J. N. w, {
Text #18* X6 D* i: x8 R4 X% j& \: M; C6 N
ID                                       : 22; U9 U4 S& O( s1 ?% @
Format                                   : PGS+ L! Y% A: m0 r" R4 m
Muxing mode                              : zlib* U! U3 r4 z' W( o: u3 P
Codec ID                                 : S_HDMV/PGS
! C; J8 R- C6 T8 v& PCodec ID/Info                            : Picture based subtitle format used on BDs/HD-DVDs  {  Z! d; y9 O# A( ^2 o
Duration                                 : 2 h 20 min8 R5 t1 b% w* Z
Bit rate                                 : 36.5 kb/s
/ c6 \  O. M0 k- `, n+ YCount of elements                        : 3822
' _0 K/ d$ O" V" Y7 U3 RStream size                              : 36.8 MiB (0%); C7 r  {7 v, I& D# G  B
Title                                    : Italian-PGS
* M' c9 R. p$ c/ j5 |+ q3 X7 ULanguage                                 : Italian
/ {( C" G8 ]5 ^4 a6 a0 m  xDefault                                  : No
! w$ I3 e' S% U3 Z8 I$ NForced                                   : No
- _4 e' z2 c* J+ t
" Q' j7 K' ^+ s* jText #19
2 q' K' q1 S8 X, `5 Y, sID                                       : 23
" n& _! u8 f0 |  D# Y( w3 gFormat                                   : PGS
$ E% Z0 e1 I* Z% H5 SMuxing mode                              : zlib
5 U5 n" J# N' o" d6 w0 KCodec ID                                 : S_HDMV/PGS7 Z, e  B" h# W1 V% B- p0 A
Codec ID/Info                            : Picture based subtitle format used on BDs/HD-DVDs' D4 G7 q) U# `6 {- Y2 a
Duration                                 : 2 h 20 min
  Q: p0 e% t+ Y' ~! PBit rate                                 : 27.2 kb/s' Y* U. Z* F/ O% G% [
Count of elements                        : 41930 D) a5 w- g* z* ~6 @' h
Stream size                              : 27.4 MiB (0%)
" e8 L( K+ c$ g4 x7 kTitle                                    : Japanese-pGS% O. H' d( w  f$ x
Language                                 : Japanese
4 L: w2 s! O, Y6 |" GDefault                                  : No/ V; {4 y% q- R& i; M4 f
Forced                                   : No
( x6 C9 L3 N0 `' s4 N  X8 L: _9 j: Z3 h0 s& r8 C8 Q' a& q
Text #206 K9 e( f9 V1 M: A
ID                                       : 248 F2 C& M$ v* P$ l0 L
Format                                   : PGS
  _, }" {/ R6 oMuxing mode                              : zlib3 J1 r' m9 f* \  }
Codec ID                                 : S_HDMV/PGS
1 f$ c: z/ b; ?. g5 ]* [+ ]: l, p( NCodec ID/Info                            : Picture based subtitle format used on BDs/HD-DVDs$ Y" X- z/ z# |2 V6 M- y6 \
Duration                                 : 2 h 21 min+ w& \1 g# H; c5 o0 E% R! T
Bit rate                                 : 27.2 kb/s
$ \; J# a7 g. O8 v2 t4 w0 xCount of elements                        : 3874& M7 c4 k- H# R% p0 q4 H8 T/ e! H( g9 Q6 n
Stream size                              : 27.5 MiB (0%)
" U: |. V2 d/ k6 aTitle                                    : Korean-PGS
* x  T8 {! J% G- h8 h+ lLanguage                                 : Korean! S6 v# R  Z& E- ]
Default                                  : No
5 S) I. e5 f/ K) i7 `3 ^) ]Forced                                   : No" V- r! R+ V$ n$ k, }8 @6 H

$ U- A/ I2 Z' `/ M1 Z" r  ZText #216 z; c7 Z+ ]6 ~& e/ ^+ r$ N4 {; U0 E
ID                                       : 254 K8 `" A- D) A& X5 s* e
Format                                   : PGS5 p) S3 O/ O+ U2 T0 E' G
Muxing mode                              : zlib
: w# p8 T0 ^! g' u! V! I& [8 cCodec ID                                 : S_HDMV/PGS
$ y- Z7 \8 s' X2 E8 W$ T, p1 PCodec ID/Info                            : Picture based subtitle format used on BDs/HD-DVDs
8 d( @' N6 D1 K2 f& C* }3 TDuration                                 : 2 h 26 min, I# \+ s0 v7 P% n5 j, a9 ~6 w) x( l% n
Bit rate                                 : 27.7 kb/s+ i2 o* I, k* t# T% w$ Q0 b
Count of elements                        : 3518
9 S4 q% Y% X* \. SStream size                              : 28.9 MiB (0%)6 @9 a2 s9 Q$ F& _1 w  m
Title                                    : Norwegian-PGS
2 r! ^/ V+ u. j) ELanguage                                 : Norwegian% G) l8 o  U7 @, X0 d
Default                                  : No0 r4 E; k6 f& I3 F) P; I
Forced                                   : No
3 Z6 t( V# Y( i! K, G" L. N
1 s( g7 q2 H; m, ?$ b) JText #22
. D# e$ A& |0 d+ |ID                                       : 26
# E1 U/ i! @) L# \- xFormat                                   : PGS( G6 k- {8 Q9 `. r9 D
Muxing mode                              : zlib
" C5 V; x' ?8 i6 [Codec ID                                 : S_HDMV/PGS' s- D# c9 b/ s* O' k$ J
Codec ID/Info                            : Picture based subtitle format used on BDs/HD-DVDs2 M9 D4 r. [1 x- M
Duration                                 : 2 h 21 min
- a# N/ Q1 T) A! g* @Bit rate                                 : 31.3 kb/s
6 X" u) h# Q" D! u% e: ~Count of elements                        : 37644 D6 G0 J7 u5 O9 C% b. G0 L; k
Stream size                              : 31.6 MiB (0%)' `1 I1 Y; v5 R: N3 s: A) [
Title                                    : Polish-PGS2 L9 |" S" X- N9 d% f1 C
Language                                 : Polish
: b: P* j( @  {$ @" d* MDefault                                  : No8 r8 C7 g: m2 J* @, W. y# g
Forced                                   : No) C  ~( ]: c: R, @9 u; O) i- h
* n. n/ q$ H/ E6 H- a! x9 t
Text #23
. c+ R8 r% S6 V$ R$ n0 aID                                       : 27% p4 j( ~7 ?1 o) d) n
Format                                   : PGS
$ }' j0 z" t) K0 T  U) q1 wMuxing mode                              : zlib; l" t" @6 O; L6 L2 g
Codec ID                                 : S_HDMV/PGS
# P6 M* a$ z0 y- C  Z5 a& f) rCodec ID/Info                            : Picture based subtitle format used on BDs/HD-DVDs& r) S5 Z8 b0 [+ ]
Duration                                 : 2 h 21 min
. r5 p8 }  d0 i; f1 c' I1 gBit rate                                 : 31.0 kb/s7 W$ f, F6 X" Q* {8 @: H
Count of elements                        : 37384 k9 b' V; q. I( x. D
Stream size                              : 31.3 MiB (0%)8 P. n) t, N6 }+ {4 @; z
Title                                    : Portuguese-PGS9 |4 R0 R+ N; H$ ]! c
Language                                 : Portuguese
2 O9 C2 D4 b8 k5 f8 `$ K* r/ `Default                                  : No
9 y4 t$ f; P* P8 CForced                                   : No4 P. e4 I1 `: c: n; |  R. U+ E1 s
& l8 M5 B+ }) n0 i% ?  P9 ~
Text #24+ A' U/ T8 @! ~
ID                                       : 28- E+ \; T7 l1 u0 l8 Q; p9 M) y$ X
Format                                   : PGS
1 e( }6 X) ~' z+ o; |+ r. P+ MMuxing mode                              : zlib
2 I/ k# F* y% ^6 i' p9 MCodec ID                                 : S_HDMV/PGS
/ B8 N9 w: `$ \  VCodec ID/Info                            : Picture based subtitle format used on BDs/HD-DVDs; d" g& ^2 e$ B7 V- E" F
Duration                                 : 2 h 26 min
3 @+ D( Z4 K& y# e0 m, x/ z9 SBit rate                                 : 38.2 kb/s
% G, K7 T1 M, h; O" `Count of elements                        : 37922 J" r* s/ r- d0 n7 I5 i8 }1 B# H8 ^
Stream size                              : 39.9 MiB (0%)
; z3 ~0 B1 N5 U& i9 |7 D( RTitle                                    : Portuguese-PGS8 k1 t8 S, C4 m4 a
Language                                 : Portuguese
/ v( t% F) V4 Y+ `; f" L5 M+ LDefault                                  : No
7 F. A, {- H8 ~) o9 p+ \' UForced                                   : No
( F  Z" N& Z3 |  o, S: I. A" g* D$ _; |. I0 k. e9 d
Text #25
8 b8 k' u! |! w% Y8 j2 \( s1 NID                                       : 29
9 u8 b7 V6 ~" ?Format                                   : PGS4 Q5 {7 s# q: m
Muxing mode                              : zlib) O, ^3 W; A* S: g3 I, |
Codec ID                                 : S_HDMV/PGS2 \; f. p2 |; n1 u7 v* I
Codec ID/Info                            : Picture based subtitle format used on BDs/HD-DVDs
: H/ Q: Z. I. vDuration                                 : 2 h 21 min
4 D# w" K  ]0 G) g8 D. B5 K, hBit rate                                 : 31.0 kb/s
: Y# g, M. i- [$ I! q+ }; K  ACount of elements                        : 35542 f' x. B, i# H; y* p3 F) `; Q
Stream size                              : 31.3 MiB (0%)
" J8 g' ~/ r* R/ y9 Q3 m; ZTitle                                    : Romanian-PGS
, d- E7 b. Y7 M  b* mLanguage                                 : Romanian
9 M3 B: M7 [0 D8 h- x: g* P3 vDefault                                  : No3 P- _, F! {' n9 b! c
Forced                                   : No
% h6 V2 v' o+ {/ s" ~4 q3 f
. N& M& J& L- w  q# HText #26( V4 I1 v6 ?3 ]8 @
ID                                       : 308 b& j+ e& j, R; y
Format                                   : PGS8 [% q( [# _1 m6 Y7 j
Muxing mode                              : zlib0 S. c# X4 M9 f( C8 R
Codec ID                                 : S_HDMV/PGS
) E: \9 {* h& @1 ?Codec ID/Info                            : Picture based subtitle format used on BDs/HD-DVDs9 f4 E# y9 C6 x- |
Duration                                 : 2 h 21 min
  n" D* a  n, z- i0 @Bit rate                                 : 41.9 kb/s( J( d7 G, o0 B% A) W4 h
Count of elements                        : 3964- [" \0 y4 B8 `& q3 n! E9 O% R- P
Stream size                              : 42.3 MiB (0%)% M7 g! q0 F' n3 q) }5 }1 L- [
Title                                    : Russian-PGS# T+ b! \, j6 s
Language                                 : Russian" D+ @: ^: Q# @' k$ Y
Default                                  : No
" Q; ^9 m7 y* h# m2 R3 pForced                                   : No
2 c2 t* g9 ~) K  R: q# b9 }
8 N4 V6 D) H5 S1 qText #27
/ a$ t, z7 R. M" ]ID                                       : 31
& c" K- h! \( g% v$ I0 _Format                                   : PGS
2 i  _* K+ S) x" J6 z- S( XMuxing mode                              : zlib
5 Q$ F7 _0 U$ ^0 W2 U' \  Y, oCodec ID                                 : S_HDMV/PGS
5 z0 r$ }4 @4 B6 y2 c9 o( |/ E$ }$ oCodec ID/Info                            : Picture based subtitle format used on BDs/HD-DVDs
8 d# [+ C. p  P6 I6 S5 m1 b7 SDuration                                 : 2 h 21 min) l1 j- M3 }( V" r
Bit rate                                 : 34.3 kb/s
! e+ P) D2 {" c2 H0 qCount of elements                        : 3952
6 S( S6 h- y( S4 ~( cStream size                              : 34.6 MiB (0%)7 X( ?) Y4 B# v4 l" I
Title                                    : Spanish-PGS7 e$ _2 Y( ~+ P, e  r# n3 m2 R% r
Language                                 : Spanish# ]0 S/ B1 F! Q- B
Default                                  : No
9 D& _" H1 Q4 I! UForced                                   : No
; U0 s& ?3 u' x1 m5 J5 i
, ?! q" [: f; c9 h( f* q! i+ g' B( JText #28" n/ N8 f* V2 F" J
ID                                       : 32
' b7 L$ v" T% q: \. Q. [Format                                   : PGS' j( }4 u2 w8 n
Muxing mode                              : zlib
8 E9 M/ O  u' Z2 i7 R' l. g& jCodec ID                                 : S_HDMV/PGS% S9 ?9 u6 f. Z- J( c1 N' S, F
Codec ID/Info                            : Picture based subtitle format used on BDs/HD-DVDs+ |& _5 U! t  x3 r- K1 N3 x
Duration                                 : 2 h 21 min9 A# l# H9 K: v$ {$ X- X
Bit rate                                 : 37.3 kb/s! @! L: V7 [& G8 ]+ Z
Count of elements                        : 39045 ]4 g4 i$ m" X8 O, B9 i
Stream size                              : 37.6 MiB (0%)* A( b4 [) [. i2 \2 f! A
Title                                    : Spanish-PGS
7 F& R* N9 u8 r$ J- ?Language                                 : Spanish5 s  [  v' ?& `9 L* {
Default                                  : No( N8 t; C4 q/ T
Forced                                   : No4 S. y3 r% k9 |: A& }( D
, X$ A( f% ?9 V5 A  E
Text #29! M7 x% w+ N# t3 x0 z
ID                                       : 336 u! J+ C8 O9 k/ b, z; B7 U$ x) C) _
Format                                   : PGS
3 k1 M) ^9 O1 m& FMuxing mode                              : zlib# y6 P: K5 v, r; d4 `
Codec ID                                 : S_HDMV/PGS
. z% `9 ^& e" I7 b, Y+ c/ u  |Codec ID/Info                            : Picture based subtitle format used on BDs/HD-DVDs
% Y' }7 m& O/ c3 H3 xDuration                                 : 2 h 25 min  S( F- D3 W" S2 t; j; M/ d( @
Bit rate                                 : 29.1 kb/s" p( }0 q& D/ H' Q. Q
Count of elements                        : 3391
# v8 k4 P! [( m& @8 DStream size                              : 30.3 MiB (0%)
& i9 C) o9 u  r$ P/ HTitle                                    : Swedish-PGS% x, ]( A- J; H7 ]% L% r
Language                                 : Swedish
& j% O+ H4 i* n2 MDefault                                  : No8 Y0 |% j  U- r: |: M
Forced                                   : No, w# U% H  v5 V3 o3 Q8 E# M
$ }2 P" y$ m1 I5 A
Text #30$ o# y/ B3 H+ i
ID                                       : 34* G  I( U. o" D9 l
Format                                   : PGS% Y2 I6 K" z8 _
Muxing mode                              : zlib
% n0 ?5 u" B# ~) G. O+ d2 [Codec ID                                 : S_HDMV/PGS9 ~* _- [# L! m# U1 v, Z
Codec ID/Info                            : Picture based subtitle format used on BDs/HD-DVDs6 c3 J2 j# R: a$ Z
Duration                                 : 2 h 21 min. }4 q1 E; h- D! q
Bit rate                                 : 34.0 kb/s6 \; i5 y1 a  ~! r7 }
Count of elements                        : 3874
2 H( T& ?0 i$ W2 M+ C( U0 _. y: |Stream size                              : 34.3 MiB (0%)
/ ]- I- e9 d; J+ U% u. U5 I2 DTitle                                    : Thai-PGS
2 E' t, Z; B& k0 I% S; Q1 [2 I. D% WLanguage                                 : Thai9 W" ]. ^2 `+ P* G8 C1 [
Default                                  : No
3 @% n8 g) y  k& t+ O9 W. cForced                                   : No
& H  C" j9 _( b- W( i9 P
, A7 [6 c. ?2 h8 nText #31
* j& D" w7 ~, l. V3 ]1 yID                                       : 352 I! A0 D5 _7 h- p& q$ C
Format                                   : PGS
# @" Q: j. B2 [4 W9 YMuxing mode                              : zlib
; `  w% S8 @: {* X, rCodec ID                                 : S_HDMV/PGS
2 E6 M# i3 I- g7 ~0 WCodec ID/Info                            : Picture based subtitle format used on BDs/HD-DVDs
. h& j' p& M; kDuration                                 : 2 h 21 min
" Z# O, K- R* ^2 q' [' [+ N- R3 D# LBit rate                                 : 38.0 kb/s
9 U/ [3 [2 z) q$ ?" s, xCount of elements                        : 3868
$ F4 @. i7 @* B+ I5 v6 zStream size                              : 38.4 MiB (0%)5 c' b* n6 [4 p( d
Title                                    : Turkish-PGS
: I' Q! ~6 p: p  d% }6 C2 z2 n/ K/ hLanguage                                 : Turkish
: u( f9 }. J8 A5 lDefault                                  : No% o' W- {" ]7 ]5 Z' T8 f$ R
Forced                                   : No
" _0 M  a' O$ o: i
9 y7 |4 y0 W$ wText #32
$ ^& u$ W% G9 zID                                       : 36
0 X1 ?2 H9 A  E' ^( ?) BFormat                                   : PGS) a7 }0 f- v) y
Muxing mode                              : zlib2 c: \, d1 ]# b) ~! i
Codec ID                                 : S_HDMV/PGS( b+ d* H8 a2 B/ e( E! A3 x% D" I
Codec ID/Info                            : Picture based subtitle format used on BDs/HD-DVDs
+ n$ x! `3 c, M5 O5 X$ x7 n# B  LDuration                                 : 57 min 30 s# B/ b3 G* w$ D
Bit rate                                 : 239 b/s5 p5 \- |( H1 ~
Count of elements                        : 14, y. O* g7 d" R& h
Stream size                              : 101 KiB (0%)
# s" }) l# U2 KTitle                                    : French-FORCED-PGS
# x" _$ W3 q: ALanguage                                 : French
7 H# m1 E+ d/ w4 D$ [Default                                  : No6 I& d: X$ h% K+ B5 o+ d4 p
Forced                                   : No4 j$ d  [+ E" q

6 u9 P0 L! R* W/ f2 @; SText #33
8 w' k8 ~3 M1 u8 N7 J) @6 z; x/ xID                                       : 37
2 k; [9 `/ `" k$ S% r4 j) cFormat                                   : PGS2 ?  P( c8 ?3 _* `! Y2 G
Muxing mode                              : zlib( c3 v& t! f  V4 M4 s" g
Codec ID                                 : S_HDMV/PGS
0 W1 F3 V4 R, v! _! n. K  }5 W8 f8 lCodec ID/Info                            : Picture based subtitle format used on BDs/HD-DVDs
- R. t" }4 O: G& @& @Duration                                 : 1 h 34 min
% R. ]3 ?) B! ~( M% A' U4 F5 eBit rate                                 : 288 b/s
& c6 r5 ]- \+ I% b) u! \- O6 fCount of elements                        : 26# I9 ]$ s8 T( v4 U8 M" m7 `
Stream size                              : 200 KiB (0%)
- I" v+ e# |( x6 X) m$ ZTitle                                    : Japanese-FORCED-PGS) P* Y3 k! z) g! f1 T* @
Language                                 : Japanese
% @" h4 |5 m# {' c* r. a8 ODefault                                  : No+ |9 F3 [) s) N: C( H" F+ o
Forced                                   : No
/ ]( W) y3 F" l9 R
, P  S' E  Q4 g0 C3 p  b( ^Menu
' ^6 _0 Z* }6 n" S  g00:00:00.000                             : :Chapter 19 C- N( {0 b0 N+ q3 e
00:11:05.498                             : :Chapter 2' H/ G; J0 A9 A3 B8 D6 m% H4 u
00:21:55.397                             : :Chapter 3
# N' _2 x# {* k) w0 i+ ~; A00:39:55.768                             : :Chapter 4
0 I% l3 x3 y! z6 m! M) a9 }00:45:28.684                             : :Chapter 5) k3 i5 p! E1 u. ?. E
00:53:28.788                             : :Chapter 6
4 w8 k. z9 U( |  d6 k00:59:02.247                             : :Chapter 7
. x! ~/ Y; u8 x01:06:27.066                             : :Chapter 8
; \9 ~8 s3 s0 J# k9 }4 r) e7 b01:11:29.618                             : :Chapter 9. f1 ^7 _: L4 M* j$ t1 O- d
01:17:54.169                             : :Chapter 10
' C% h4 I( B& f7 {) V+ ~1 x01:30:28.131                             : :Chapter 11
( A. P0 y, N  B01:37:39.228                             : :Chapter 127 i/ W) x, r3 U0 N3 L
01:45:54.765                             : :Chapter 13( G& [2 \, K0 y/ i, b! J; }& o
01:56:47.625                             : :Chapter 14
4 E; x& S. u0 U/ b02:05:08.584                             : :Chapter 15
) d8 b) R* K3 D$ u. s02:16:07.701                             : :Chapter 16
SWEATY BALLZ presents, ], B. S  T! f; E2 y. R
8 O0 r7 O9 ^, N0 C
Bad.Boys.II.2003.2160p.BluRaycd.x264.8bit.SDR.DTS-HD.MA.TrueHD.7.1.Atmos-SWTYBLZ
3 Q- O* y9 ^# ?# o0 I# ]& kConverted from 10 bit HDR to 8 bit SDR using tripple mixed Hable-Reinhard-JJ per scene+frame analysis algorithm4 i/ R) u2 \+ G0 G
; h, {8 S+ u/ \: P  v$ m6 Q5 X
Video
4 |  h! z7 U) x; q5 t# `! pID                                       : 1
" m' W/ b- c( J) y9 YFormat                                   : AVC8 v! s7 g$ {6 g5 N# u7 O1 _* n
Format/Info                              : Advanced Video Codec
( `2 F/ _8 B0 |Format profile                           : [email protected]
0 s$ P4 S( E; J# u) \Format settings                          : CABAC / 5 Ref Frames
% F% t* K6 F3 G; MFormat settings, CABAC                   : Yes
3 l7 F, N& ~- @( J  g' _Format settings, RefFrames               : 5 frames
9 m& r3 P2 I! }/ g4 a8 i6 CCodec ID                                 : V_MPEG4/ISO/AVC
) W8 B  u+ M" L0 w, g1 ~Duration                                 : 2 h 26 min
0 a- s9 g8 x4 W) GBit rate                                 : 49.9 Mb/s) @! f3 H3 P0 d# B
Width                                    : 3 840 pixels
4 ~( o; w* o& G! b, [4 ZHeight                                   : 1 606 pixels" X7 Q: k1 l" n& r* x: N) v
Display aspect ratio                     : 2.40:1
3 s- c( C5 [- m' i/ |Frame rate mode                          : Constant: u  f% O) e& B3 }  H: H
Frame rate                               : 23.976 (24000/1001) FPS+ C+ `7 d2 l1 w) A) K
Color space                              : YUV/ d3 t3 L9 l) I5 N% g- h3 y1 z
Chroma subsampling                       : 4:2:0
5 Z' t/ o. e/ f3 P0 n) NBit depth                                : 8 bits4 n* p+ p% @' h# X
Scan type                                : Progressive
% A( e0 Q+ ~3 e! Y7 ^* g, yBits/(Pixel*Frame)                       : 0.338+ W/ n6 t* @+ E, F
Stream size                              : 51.2 GiB (81%)2 U) I5 J, v' ]* K  d, j
Writing library                          : x264 core 155 r2901 7d0ff223 T2 I, s4 g' Y( K* h3 t
Encoding settings                        : cabac=1 / ref=5 / deblock=1:-1:-1 / analyse=0x3:0x113 / me=umh / subme=10 / psy=1 / psy_rd=1.00:0.15 / mixed_ref=1 / me_range=48 / chroma_me=1 / trellis=2 / 8x8dct=1 / cqm=0 / deadzone=21,11 / fast_pskip=1 / chroma_qp_offset=-3 / threads=50 / lookahead_threads=4 / sliced_threads=0 / nr=0 / decimate=0 / interlaced=0 / bluray_compat=0 / constrained_intra=0 / bframes=3 / b_pyramid=2 / b_adapt=2 / b_bias=0 / direct=3 / weightb=1 / open_gop=0 / weightp=2 / keyint=250 / keyint_min=23 / scenecut=40 / intra_refresh=0 / rc_lookahead=50 / rc=crf / mbtree=1 / crf=22.0 / qcomp=0.60 / qpmin=0 / qpmax=69 / qpstep=4 / ip_ratio=1.40 / aq=1:1.00
) q, K! A; M/ e4 P$ bDefault                                  : Yes" B5 X, H% ~6 W4 Z
Forced                                   : No! a" S2 \! F% D/ W3 f
3 C4 l7 T" o  G  p9 F2 `: v; j
Audio #1: q/ z9 l- {  a
ID                                       : 2! k5 s8 b, V+ |9 ^5 K
Format                                   : TrueHD( l1 z* a1 I# @7 m' o7 b& Y
Format profile                           : TrueHD+Atmos / TrueHD
. J& T1 T6 T1 Q2 k6 h; \/ h% iCodec ID                                 : A_TRUEHD6 z8 z0 e. o  Z: a4 |1 C$ ?
Duration                                 : 2 h 26 min8 w) m  }$ l# L5 j4 U6 W
Bit rate mode                            : Variable
' N* f' p  [+ Q  J1 `9 D6 P+ QBit rate                                 : 5 774 kb/s
% \" _" h2 }# k' S  MMaximum bit rate                         : 8 961 kb/s
. r) ~& {6 {6 t# p) D; t. BChannel(s)                               : Object Based / 8 channels
, h# f: x/ ~/ T# q' @2 t: uChannel positions                        : Object Based / Front: L C R, Side: L R, Back: L R, LFE
* e5 [! f: H* w0 ]7 Q. ]Sampling rate                            :  / 48.0 kHz
. V3 f0 {: t4 v! n4 KFrame rate                               : 1 200.000 FPS (40 SPF)
8 E9 C# u- N4 T; d, N; NCompression mode                         : Lossless
. v8 m' M) u  V3 RStream size                              : 5.92 GiB (9%)
8 M% \# p+ I+ n; S0 L9 WTitle                                    : Bad.Boys.II.2003.2160p.BluRaycd.x264.8bit.SDR.DTS-HD.MA.TrueHD.7.1.Atmos-SWTYBLZ
/ r( s8 H1 F/ wLanguage                                 : English
1 k3 L- U* e4 g' U7 xDefault                                  : Yes
5 L0 `5 A9 j. K, k6 H' f  s. HForced                                   : No
9 o! b' R) l) ]" l5 z% C+ {/ l
5 ~" J9 ]' @& _) e" w. K. K8 AAudio #2; T! C' ^4 D6 \! }- Z7 A1 N
ID                                       : 3$ M4 l! j9 R+ x
Format                                   : DTS! e/ Q  y0 P. f
Format/Info                              : Digital Theater Systems$ ^+ z% W* e! S* c! T% i( J' B
Format profile                           : MA / Core
, _+ z+ J5 ^# D8 tCodec ID                                 : A_DTS6 s1 j7 g* j$ S: F3 X4 X" Q: @
Duration                                 : 2 h 26 min6 W6 [; _- y4 A3 \3 f
Bit rate mode                            : Variable / Constant# N3 a' @% [+ r3 p! i
Bit rate                                 : 4 644 kb/s / 1 509 kb/s
. u0 G4 D% ^% D) X2 |8 \; G, zChannel(s)                               : 8 channels / 6 channels+ O" ?" f0 C& U1 @1 x' y
Channel positions                        : Front: L C R, Side: L R, Back: L R, LFE / Front: L C R, Side: L R, LFE+ x; [. y( y# q, _2 r& d
Sampling rate                            : 48.0 kHz
3 \, W) L5 \7 h& S" G' DFrame rate                               : 93.750 FPS (512 SPF)* [+ H( L5 g/ Z/ d3 Q9 T/ k
Bit depth                                : 24 bits3 Y) F- T. w3 q" p; O/ d' L
Compression mode                         : Lossless / Lossy
# n2 {3 g4 ?/ b0 ?; d8 M& z8 \Stream size                              : 4.76 GiB (8%)
6 i8 f. i4 \) BTitle                                    : Bad.Boys.II.2003.2160p.BluRaycd.x264.8bit.SDR.DTS-HD.MA.TrueHD.7.1.Atmos-SWTYBLZ3 X" r0 {$ O( [# }% s
) j  c5 o; C8 g' {) e( v. o
Language                                 : English
8 @* b0 f5 Z( \4 z$ uDefault                                  : No+ L- H; b4 L9 j
Forced                                   : No
, V( ?  E" K6 W0 c2 H$ H- @# T+ G  E/ i0 S: c
Audio #3
" i* J# G2 r3 l; a7 [ID                                       : 4; u- }' d! y% M3 V
Format                                   : AC-3
  e  U8 F# C" W" v3 k$ }+ QFormat/Info                              : Audio Coding 3/ _9 `* K& R6 f. Z
Codec ID                                 : A_AC3
. }7 \; E7 U& M& ?& VDuration                                 : 2 h 26 min
8 J  ?) l- b6 F  C9 s/ p! VBit rate mode                            : Constant
# D$ h% }, J; I& DBit rate                                 : 640 kb/s2 L0 I( R+ s" Y- B9 r# g7 Q. S1 ?' i
Channel(s)                               : 6 channels# \; \5 c$ O( c. P
Channel positions                        : Front: L C R, Side: L R, LFE
/ D2 s! U4 J5 `Sampling rate                            : 48.0 kHz% M2 X- @0 L. p0 b
Frame rate                               : 31.250 FPS (1536 SPF)
, J; t' O7 |# Y2 M/ `- DBit depth                                : 16 bits! `2 [- f- S1 @9 B
Compression mode                         : Lossy
+ h6 Y1 p6 D9 d6 w4 LStream size                              : 672 MiB (1%)
- G. }$ d+ O( _: uTitle                                    : Bad.Boys.II.2003.2160p.BluRaycd.x264.8bit.SDR.DTS-HD.MA.TrueHD.7.1.Atmos-SWTYBLZ
5 k/ Q9 p4 ?& kLanguage                                 : English3 g" r( U. @9 f0 y. B  N& s7 G8 J
Service kind                             : Complete Main4 L1 X, I/ L0 C8 \
Default                                  : No
- T: H" v5 n3 D5 i( k2 ]& gForced                                   : No# C1 a+ L9 u$ g* X; D+ j6 x; f
  \& Z: ~' n' S4 X9 ]7 m( m1 b9 U
Text #1
& j% |7 G/ A# @. c6 {% f  r  W  uID                                       : 5
+ L& G! P6 f# I% tFormat                                   : UTF-8
8 q4 e8 Y# `9 i* I& ^1 s: V3 jCodec ID                                 : S_TEXT/UTF8
/ x/ a* [( q$ |% C, \# m) DCodec ID/Info                            : UTF-8 Plain Text
3 f; i# K) N0 S  n2 S; Y% Z9 LDuration                                 : 2 h 20 min
; F( j% d4 m7 w, g2 cBit rate                                 : 69 b/s  M0 j& A3 Q/ s+ V: M0 L3 z
Count of elements                        : 1912) d' y, a" \7 M: }4 Z) C" c
Stream size                              : 71.6 KiB (0%); X8 d+ v! l8 l# A+ E5 n
Title                                    : English-SRT( {# C8 `! F6 l; I% N4 Y1 C
Language                                 : English2 C* S( N# h" K
Default                                  : Yes4 B  I& F1 B! Q; j: G5 F8 F4 S
Forced                                   : No6 I# {3 l4 E0 n' M
# @5 r5 m8 y5 f4 ~4 b* E6 n
Text #2$ z; s8 B" `3 N. b( b7 q- A/ u5 m" @
ID                                       : 6# I7 [, B% U- w$ t) k% G
Format                                   : PGS0 s4 c+ B" t  h, `! ]
Muxing mode                              : zlib& F& d; r! |) k1 V
Codec ID                                 : S_HDMV/PGS
0 {, t4 |/ R* |0 T- {1 WCodec ID/Info                            : Picture based subtitle format used on BDs/HD-DVDs
8 q5 m% I! t1 z* [Duration                                 : 2 h 20 min
" c: O7 z3 i; I5 KBit rate                                 : 40.2 kb/s
% T3 b" F  [" @, t9 ECount of elements                        : 38243 }. f0 ~, _/ p8 d/ o
Stream size                              : 40.3 MiB (0%): _: V8 s" y  a! X9 ^# Q( l
Title                                    : English-PGS) f3 Q3 q. d  F1 Q; ^
Language                                 : English
2 `& s* Y$ g2 a4 d/ s- ]5 R( i* S# KDefault                                  : No
! F2 h6 U1 y# L: c. e8 zForced                                   : No6 c, K4 \7 D1 G; e; ?6 z
8 f. b2 C$ e- {0 c. \' }
Text #3
+ V' `! k; n9 F. t& c1 hID                                       : 7
6 N) M- G( L$ t4 f  w* LFormat                                   : PGS1 X- l7 K$ Q4 H8 F# W7 C
Muxing mode                              : zlib
! c( I: a6 ~* m0 ]7 J7 pCodec ID                                 : S_HDMV/PGS
) a) h2 G9 V3 q& GCodec ID/Info                            : Picture based subtitle format used on BDs/HD-DVDs, S8 [% [0 R; I: D
Duration                                 : 2 h 25 min
. Q4 l+ f9 M2 T1 o7 [2 vBit rate                                 : 45.3 kb/s2 ^2 e2 D$ k5 b6 d3 ]
Count of elements                        : 4518
1 S) O+ U3 S! p/ f* ZStream size                              : 47.0 MiB (0%)* ^% t0 a& j" \- j: ]3 d
Title                                    : English-SDH-PGS
6 F: f9 T6 `6 ^+ w) GLanguage                                 : English, k& d% H4 |) _
Default                                  : No1 Z0 F% ]. T% }2 T$ F. Q1 m
Forced                                   : No
  X0 K% `4 t$ p# D2 H; @$ ?5 K- A" y; h& n  X
Text #4
& F) i# \2 h1 ZID                                       : 8
' K1 Z6 N1 U8 D" ^9 B- Y/ xFormat                                   : PGS0 l/ a; \& U: [4 w& I  L
Muxing mode                              : zlib
7 [" F% N! h, J  z3 Y6 kCodec ID                                 : S_HDMV/PGS
' w) E1 u( i) mCodec ID/Info                            : Picture based subtitle format used on BDs/HD-DVDs& \( I- @2 }# v7 Y8 r
Duration                                 : 2 h 20 min" s. p% F% z5 k  r0 \8 Z* f1 k
Bit rate                                 : 40.2 kb/s
! Y( h2 F4 G6 _9 \. a' G- k  C% JCount of elements                        : 3832% c* W1 k) U2 [2 b
Stream size                              : 40.3 MiB (0%)$ Y9 G3 X3 M. k% s3 i1 m7 y" o
Title                                    : English-PGS
- P; a) E9 b, W: O$ G! ELanguage                                 : English
# Y" c7 i2 k! c! {: p9 rDefault                                  : No
/ _: E, n1 T8 EForced                                   : No
) r& Q5 L  z$ k' k/ |2 f+ U( Y9 F8 A+ r& _- e, v+ a8 l9 w
Text #5$ k3 r* n2 K* w% g* O
ID                                       : 9
2 e. k1 u7 M& l$ mFormat                                   : PGS0 d0 F' R! O3 e7 Y  Z
Muxing mode                              : zlib
: n6 h  P0 f6 e1 A% I4 e2 d# t! z# bCodec ID                                 : S_HDMV/PGS
$ i: a2 P7 d- m1 X6 ?7 ?; gCodec ID/Info                            : Picture based subtitle format used on BDs/HD-DVDs
4 e* V. W+ B( G+ T0 x" s* ^7 _Duration                                 : 2 h 25 min4 e" k3 R6 f7 w3 O- D9 H7 ]/ `
Bit rate                                 : 45.3 kb/s
( W/ S4 r8 i2 KCount of elements                        : 4518/ S  L4 {! M# A8 G( e
Stream size                              : 47.0 MiB (0%); R% h0 ?+ V8 |
Title                                    : English-SDH-PGS
( I1 s3 ]& Q9 I* {Language                                 : English( `+ {0 a5 B, u7 K, n
Default                                  : No
; w% m! }- R7 p9 M5 c. ^1 V6 jForced                                   : No8 y( ^% G5 c- g* y9 v2 f) g
7 c( c' v0 I( l! ?; W7 k5 ~
Text #65 y% {" T# {' H  M% b" \; {5 H
ID                                       : 10. e: O8 d2 J" h6 w
Format                                   : PGS) J1 x& y* d7 u1 y4 r1 @  [
Muxing mode                              : zlib
" Q4 r/ y; u. R3 MCodec ID                                 : S_HDMV/PGS
) K# [, L, S, [' SCodec ID/Info                            : Picture based subtitle format used on BDs/HD-DVDs. P7 ^2 E5 t! n: k/ r. k) b6 V  `
Duration                                 : 2 h 21 min
( s1 u9 }5 E6 o3 yBit rate                                 : 19.2 kb/s2 F1 h' e) R2 g5 h8 |5 i
Count of elements                        : 3844* H; i# `0 i% x+ l& K
Stream size                              : 19.4 MiB (0%)
. E3 U* n, p! q# T6 B8 D1 k6 a$ r! f8 G- mTitle                                    : Arabic-PGS
8 _) k: U+ q9 o  q2 ^( L2 dLanguage                                 : Arabic6 N) e) k: L1 K  R! L& q
Default                                  : No
1 U% u6 y! f9 Z0 WForced                                   : No
, F/ U9 ~  S( \  L8 i+ w! Y
& K+ s$ r- B- nText #7' ^6 j2 p2 T1 `
ID                                       : 11% ^/ j2 w- c0 T" f7 n2 d
Format                                   : PGS
9 g1 a) m9 {; ?. ZMuxing mode                              : zlib
  B$ n1 c$ b. o( D! B/ `7 h( k. U3 jCodec ID                                 : S_HDMV/PGS
# P8 J$ ^  h0 p7 W" ?Codec ID/Info                            : Picture based subtitle format used on BDs/HD-DVDs
8 i9 R; e- B% {1 T3 wDuration                                 : 2 h 21 min
" Y/ K( _" f3 O1 t6 d2 eBit rate                                 : 26.9 kb/s
- i6 m9 ~! l* \$ X& dCount of elements                        : 3880, a8 B8 _4 ~* q* Y  C: ]" V5 w
Stream size                              : 27.1 MiB (0%)
6 w& S/ v, x. D7 i$ Y" B( b9 fTitle                                    : Chinese-PGS# `3 A5 {  |( ~5 Q7 q
Language                                 : Chinese
* m9 u$ G& b5 l* d1 Z4 s  `) sDefault                                  : No* y$ T# I% Z8 n+ v& G8 I8 D
Forced                                   : No
% Z3 B: q4 r" a2 s& V$ L, ?: n' v% A& X  U! D1 ?! C% q
Text #8
# B$ y: B5 h) n6 v4 r: O# z1 ~# wID                                       : 12; ?& O$ [1 M! M3 G; ^7 m9 M, m
Format                                   : PGS8 x$ \8 K, S8 e* Y' T
Muxing mode                              : zlib1 G" Z+ H1 ]- z$ I# B
Codec ID                                 : S_HDMV/PGS
3 ]5 z" D% [- R+ t0 ZCodec ID/Info                            : Picture based subtitle format used on BDs/HD-DVDs3 q; e9 I& j/ R4 y6 ~
Duration                                 : 2 h 21 min. a* a1 T: }) `3 {
Bit rate                                 : 28.2 kb/s8 q- |6 M- W9 S" {) J& ~! ]
Count of elements                        : 3822
7 p3 P  \$ f$ z4 @Stream size                              : 28.5 MiB (0%)
. j9 }" P2 ]/ @, ]5 gTitle                                    : Croatian-PGS
) i5 q/ N. ]; p8 R9 p' h6 KLanguage                                 : Croatian
& M. j1 x. }& EDefault                                  : No
; ^5 D) @* x2 E3 t) ^$ \Forced                                   : No
# Z  i# R: M8 |+ o3 w/ V1 W+ `% E3 p* J: ], x; P! i
Text #9. w  \6 z: z, _; Y$ w6 F
ID                                       : 13
# q' x+ I1 ~  k9 m( X0 CFormat                                   : PGS
. ]) K7 c% J' c0 T& S$ ]Muxing mode                              : zlib
2 }1 B' k& \. m, N; S8 w1 |# zCodec ID                                 : S_HDMV/PGS# L8 j) Z3 o. d0 A5 u+ z
Codec ID/Info                            : Picture based subtitle format used on BDs/HD-DVDs, E! ~7 f, ?- B) P
Duration                                 : 2 h 21 min
2 t, o- n) Y7 R; ?' nBit rate                                 : 31.6 kb/s+ S5 M, b  x+ ~! O
Count of elements                        : 3782
4 c$ m; }" C6 O$ @Stream size                              : 31.9 MiB (0%)
) g) _. c$ {, I5 t, J2 _0 DTitle                                    : Czech-PGS
6 F# ^# z4 o  C9 aLanguage                                 : Czech: x- h2 l/ Y! |, F7 q: C/ a( p/ i
Default                                  : No' `! Y& @! e' C: ^/ L) u
Forced                                   : No1 W% f2 W1 L8 V! H: t+ I

5 O" [. l* u' xText #10
' m3 f" N" E% mID                                       : 14/ Z; n4 w  O$ z" ]4 |1 T; Y
Format                                   : PGS4 G6 p7 E/ S6 ~7 n
Muxing mode                              : zlib: B7 }1 D8 t# q, _8 v
Codec ID                                 : S_HDMV/PGS
% |$ U% T' J) ECodec ID/Info                            : Picture based subtitle format used on BDs/HD-DVDs
* C& ^9 g; Z+ k) j$ n4 |7 mDuration                                 : 2 h 21 min
# O9 I8 r; w# o* i/ F5 a1 |) k3 |Bit rate                                 : 31.3 kb/s: v0 a' o+ o# [+ c2 \( C
Count of elements                        : 3286
4 M) H  f8 }6 }% A7 s' oStream size                              : 31.6 MiB (0%)
9 Q* _& [( \& M% d4 P# C3 Q8 B$ ZTitle                                    : Danish-PGS
% M2 F7 i4 d7 C) jLanguage                                 : Danish$ Q: l! c3 e+ y) b: C4 `; q
Default                                  : No
3 |! {6 d; U! B! v! i; @- B' XForced                                   : No$ a( V& ]. x  D  ]2 n4 m6 a1 V

" Q4 M; A0 R0 B8 z2 aText #11! x2 H% D0 ], j7 p) J% _
ID                                       : 15
, z. x! E% F9 N& B- pFormat                                   : PGS; k' {2 i9 T, L$ Z- O2 r3 V
Muxing mode                              : zlib3 H/ F& q" E# z  P; B5 c
Codec ID                                 : S_HDMV/PGS
  E- t, X* |: Z" ]1 a. L/ [Codec ID/Info                            : Picture based subtitle format used on BDs/HD-DVDs
7 {% f' a+ e* u8 m  F& VDuration                                 : 2 h 20 min* T- \* F3 H. b7 X3 v- |8 ~
Bit rate                                 : 30.7 kb/s5 }# y0 M; O0 Q& {0 F+ q) |
Count of elements                        : 2647
- |, O8 j" n! H" HStream size                              : 30.9 MiB (0%)
5 o, U" A  ]: v0 ^- ^Title                                    : Dutch-PGS9 E/ n/ u0 X/ Q' m7 W1 H- ]
Language                                 : Dutch
# G! U9 s2 _: w, o2 EDefault                                  : No
% i" y4 w3 N0 J1 ]' ~Forced                                   : No
1 u1 t' {# p- X; ~/ g9 w- t
  _9 r+ z2 X& d0 h6 BText #12
" \% N+ O% Q+ g. y; H% ?- DID                                       : 16
9 s- t) G9 d" w! iFormat                                   : PGS: n* d2 ?$ b( k* Z+ M
Muxing mode                              : zlib/ `9 u. Q; C/ H8 B; D/ O4 a
Codec ID                                 : S_HDMV/PGS( ^" H' d& P7 ?2 e- x; n7 {% c
Codec ID/Info                            : Picture based subtitle format used on BDs/HD-DVDs& S$ K! ?+ c: c0 r3 W; g+ p
Duration                                 : 2 h 21 min
: v0 y0 {; O/ _! }* x: `9 FBit rate                                 : 30.1 kb/s+ e" W# g8 X: F6 Y
Count of elements                        : 2982/ P- E2 F; I- @; S
Stream size                              : 30.4 MiB (0%)0 q% y1 }$ B1 a, }% L
Title                                    : Finnish-PGS9 A) H+ }% A9 i3 B
Language                                 : Finnish
) ?& w9 u- h) }1 F4 X( q- T! pDefault                                  : No
$ K) n1 D6 Z: l8 Z# _. g1 v( tForced                                   : No
4 ^  z6 {) q- F; x: U% C5 Z  }2 W, W  D1 b( L
Text #13( @" |/ u' m7 Z! l
ID                                       : 17
7 X' Q3 l. b: C/ o0 s  Q- F% l4 YFormat                                   : PGS
# z. J+ r. S) p6 }0 R1 GMuxing mode                              : zlib
3 C. `$ ^$ o6 n% _9 rCodec ID                                 : S_HDMV/PGS$ y( _1 L4 K% Q3 _1 v6 Y6 y
Codec ID/Info                            : Picture based subtitle format used on BDs/HD-DVDs
: H/ l) x  y( w2 H: X2 PDuration                                 : 2 h 25 min
) k' Z  i0 \( EBit rate                                 : 27.0 kb/s* R9 h4 Q3 [4 h9 N
Count of elements                        : 35865 m4 t  E: V, l; h7 M
Stream size                              : 28.1 MiB (0%)
: @1 V- ]! d; R' {- nTitle                                    : French-PGS2 s/ n3 |1 X4 N2 d* R. c/ t6 \
Language                                 : French$ U& x# G9 S* m, H+ t; ^, w4 F
Default                                  : No
. B9 G7 C/ T5 y6 k' |Forced                                   : No% a; I5 k, s' {8 V6 h

* t. H" [& k* C& P! ZText #14$ O) j! j" O9 h
ID                                       : 180 Q" p: S( ]( @" v; v5 P0 c7 Z
Format                                   : PGS( J# C6 E4 X9 p* p
Muxing mode                              : zlib
8 {! c, X3 a  X* nCodec ID                                 : S_HDMV/PGS
1 l% M( P+ L2 W7 r, c0 F; bCodec ID/Info                            : Picture based subtitle format used on BDs/HD-DVDs' w  z5 A1 d4 g, E6 F
Duration                                 : 2 h 21 min. N. m* O8 c! o/ n! i$ t8 s1 L0 z4 C
Bit rate                                 : 44.1 kb/s
- w+ E" o2 W2 r- iCount of elements                        : 3951; K& {: f7 l4 p4 @% d
Stream size                              : 44.5 MiB (0%)
8 G- h/ g: N( @5 \/ Q6 i4 oTitle                                    : German-PGS; g, }1 r# |, D
Language                                 : German' C2 u" |9 s  g' d+ H/ ~, h. h
Default                                  : No$ r6 s3 B. R; ]% ~
Forced                                   : No* \/ B0 q7 o6 q$ d8 o

; P6 C3 C: `! R9 V3 ]3 dText #15- w- T) x7 h. W8 n; s
ID                                       : 19
% h6 e) {4 m+ \) p$ U* ]  W; MFormat                                   : PGS5 ^$ T8 ~( s( k2 E; u& H7 R
Muxing mode                              : zlib' Z9 q) |6 p5 ]
Codec ID                                 : S_HDMV/PGS" r/ ~+ N" L' H, M% D5 M9 {* R
Codec ID/Info                            : Picture based subtitle format used on BDs/HD-DVDs' J+ W" d9 Q8 W% c
Duration                                 : 2 h 21 min
0 E# D1 \3 h* k, l7 PBit rate                                 : 35.3 kb/s
! |0 M: `. A0 q' ^7 HCount of elements                        : 3738
1 a: D0 @- _4 N0 D' h9 ]/ I/ K% zStream size                              : 35.6 MiB (0%)8 h8 i2 H% o# m$ ]6 i
Title                                    : Greek-PGS, l. _0 o' q* e! j% E
Language                                 : Greek0 o+ {/ j  O5 f; w% R
Default                                  : No' l2 l! i0 q* Y+ p3 i
Forced                                   : No0 p) l" v) `5 _1 ]

) E+ R" |4 ?/ NText #16
2 W; v! F6 u8 o7 _- Z3 xID                                       : 20; v5 F0 B5 f; s" W" L- I2 i
Format                                   : PGS
' i/ h. f* S5 S, ^# s" IMuxing mode                              : zlib4 e  O, j) c" _! l
Codec ID                                 : S_HDMV/PGS
4 X3 m# r) Y) G0 N+ V4 ECodec ID/Info                            : Picture based subtitle format used on BDs/HD-DVDs/ w' T. U6 Q/ D+ n
Duration                                 : 2 h 20 min
. x# p8 C: C5 d+ ZBit rate                                 : 29.4 kb/s8 U0 i( b) g, A/ \1 V
Count of elements                        : 38383 S: l( j2 s; r: i) k6 J* N
Stream size                              : 29.6 MiB (0%)
+ U4 B  K4 x$ z3 gTitle                                    : Hebrew-PGS
1 a7 C4 x5 o6 r& D8 k& q+ h7 TLanguage                                 : Hebrew3 ]8 O9 l  x! D3 w# U
Default                                  : No
, p  b* K; P- p2 zForced                                   : No* e8 B3 h' v" a& N2 E

; t: I& p* _0 e6 XText #173 M( `5 ~% p* y# [' C; X. R
ID                                       : 21* ~! [$ l, y9 g+ f" C8 p% c
Format                                   : PGS+ b( G# ~+ h6 O, a3 S
Muxing mode                              : zlib" F; h, Y4 Y8 b0 `/ k, R8 z
Codec ID                                 : S_HDMV/PGS/ n' N( S* y; \( x
Codec ID/Info                            : Picture based subtitle format used on BDs/HD-DVDs8 ]% o/ ]$ g4 ~* t0 ]6 t! _  e9 G
Duration                                 : 2 h 21 min
3 }7 q, S: d1 a9 a$ r- ABit rate                                 : 27.6 kb/s" Y8 l+ m' a% S  Z
Count of elements                        : 3846
. j" ?3 ]& ~9 G) ~5 b' {Stream size                              : 27.8 MiB (0%)5 I) |2 }% b( K! `8 d
Title                                    : Hungarian-PGS
7 U( j4 e5 G! uLanguage                                 : Hungarian- M0 Z: u  m4 s! [4 {" \% C
Default                                  : No
- j. b; U7 E* N' d5 v7 iForced                                   : No
) S. s% `6 I$ t  F  Q4 e- o$ Z1 \
- [* z; `* t) g) xText #187 O' z% L; j4 B, l
ID                                       : 22
" ~' e* f0 [' F( @! f9 w: WFormat                                   : PGS
9 l. K3 q- W$ u$ SMuxing mode                              : zlib
4 ]3 ^* K6 C6 B8 N; yCodec ID                                 : S_HDMV/PGS
# u/ z8 c& j& w" D: c+ j1 xCodec ID/Info                            : Picture based subtitle format used on BDs/HD-DVDs
7 ]1 Z: E) Q3 T3 [6 B( R5 n4 c/ YDuration                                 : 2 h 20 min
3 X! s  x' w) k' ?: \4 }2 C7 W! KBit rate                                 : 36.5 kb/s# l$ v- l0 g" {" h6 q. d
Count of elements                        : 3822
9 \5 Y& T) t3 ]# E9 t% t5 VStream size                              : 36.8 MiB (0%)3 Y# x7 v4 Y1 f7 C; q5 e/ x
Title                                    : Italian-PGS$ j8 o* V- \' Q0 s" y7 u0 B
Language                                 : Italian6 l+ W) t9 \! C& L- @  v
Default                                  : No
: p" q8 @* |- Y' DForced                                   : No
8 M8 M9 h. f0 O5 |8 e3 ?6 O# |% \8 a7 s- [6 J7 t8 w
Text #19
2 i! o- I% D0 `. u* U3 tID                                       : 23: l$ U. f7 P6 k  @
Format                                   : PGS4 ^! X' [; r, }  w& x$ z. w
Muxing mode                              : zlib. v6 }1 _; {  e6 X4 Q4 N5 k7 ^  a! {
Codec ID                                 : S_HDMV/PGS
% O; O& ~1 E# X" s. |/ H, UCodec ID/Info                            : Picture based subtitle format used on BDs/HD-DVDs, W! [& r/ E) a* _
Duration                                 : 2 h 20 min
0 @5 B* \& U6 j# t5 L& lBit rate                                 : 27.2 kb/s
% B" f4 e9 R$ L& BCount of elements                        : 4193" G7 C% {% \( \# L! Y! h
Stream size                              : 27.4 MiB (0%)
. E7 G( V& p, g3 |% G& ]2 J  I& S# OTitle                                    : Japanese-pGS
2 q2 K) C+ m/ mLanguage                                 : Japanese7 z/ x4 p4 q# |; V& C$ [0 m
Default                                  : No
2 m) Z- m. [2 j, ZForced                                   : No, a3 w6 @) e- s, b( ]
& g$ Q; q0 i' T$ A$ S  F5 g0 O: w
Text #20
% N, S# p9 n$ _8 T( UID                                       : 24
3 i8 \& ]% W% x! |! ^7 n! hFormat                                   : PGS
8 _3 Q" v3 R+ a3 A; i# P  h3 jMuxing mode                              : zlib
/ r+ L5 b9 a0 Z  _Codec ID                                 : S_HDMV/PGS% o* P; _) i+ C
Codec ID/Info                            : Picture based subtitle format used on BDs/HD-DVDs
/ r; p: d- |0 n9 U% pDuration                                 : 2 h 21 min, b4 @* `! b* j! Z4 x/ v! }( R
Bit rate                                 : 27.2 kb/s5 s/ \- T" r( l  B5 e( T
Count of elements                        : 3874+ }( I4 x# }- J: j8 C8 Z( T8 ~# D6 w
Stream size                              : 27.5 MiB (0%)
" ~: z$ X4 I2 U. rTitle                                    : Korean-PGS
( Z2 r7 t* T2 A5 q1 G2 ]( c8 X  P& X+ aLanguage                                 : Korean' `$ T; ?- p& X( W8 z. f1 P$ q
Default                                  : No8 K. ^/ i% ]" y/ q
Forced                                   : No
/ b+ m- a" p4 {1 W% ~. v/ i+ U$ D  R+ S! I& u! J
Text #21* Z3 _8 ]2 i. o% c2 l) A
ID                                       : 259 S% s' r( |/ r  k; e! i
Format                                   : PGS
+ a& s, t2 v2 x3 [Muxing mode                              : zlib
2 u' f. m: o% \Codec ID                                 : S_HDMV/PGS
% k, c6 E, {, \Codec ID/Info                            : Picture based subtitle format used on BDs/HD-DVDs% Z8 b! I5 n7 ]+ `
Duration                                 : 2 h 26 min
& ?5 O2 f' I) B4 P1 C8 vBit rate                                 : 27.7 kb/s+ a5 h7 K+ H4 A; v
Count of elements                        : 35186 X& W  [: \! J. \
Stream size                              : 28.9 MiB (0%)
- }4 L) ]. m1 h& x& r$ M) j+ \+ {( YTitle                                    : Norwegian-PGS
# O, u+ y1 |8 y  sLanguage                                 : Norwegian
& I# f5 A1 v7 d! h& q( F$ yDefault                                  : No
  P/ z: l) T9 uForced                                   : No
! M# B8 n9 N2 R# B5 f8 Y% }. h9 C% x5 f8 |
Text #22
/ f# S: u6 }% PID                                       : 26
7 A) q* k( `; j8 w6 k$ i" H  h6 dFormat                                   : PGS
" c) Z# S. P  ]3 X: w7 {3 M( \Muxing mode                              : zlib% \. ]" M/ f9 z. }
Codec ID                                 : S_HDMV/PGS3 V3 i% o  u& U# e; ~
Codec ID/Info                            : Picture based subtitle format used on BDs/HD-DVDs
4 }) S) [" E2 z1 JDuration                                 : 2 h 21 min5 `( j0 O) ]% e; A1 r# w# `. N
Bit rate                                 : 31.3 kb/s
7 m3 F% P; D* ^, cCount of elements                        : 3764  d& S; M! i) G' ^
Stream size                              : 31.6 MiB (0%). t2 ~; ?8 |6 d5 V) s; [3 R
Title                                    : Polish-PGS
9 P3 D5 f8 G6 A! FLanguage                                 : Polish
. f# X' U7 z& T; ?: U( t% r1 mDefault                                  : No. f+ E4 ]- v4 k
Forced                                   : No
. q& ]5 }/ Q! t  ~
: a7 b4 [0 R7 t6 v' iText #23
6 ~4 P7 b9 d' L. Q8 ~, IID                                       : 27
. _8 B( r- P/ S+ D/ c7 B6 VFormat                                   : PGS) Y7 x3 i; H& d1 h8 \
Muxing mode                              : zlib6 b( Z& \% |9 n: l$ w5 M" Q3 M
Codec ID                                 : S_HDMV/PGS
* y6 B# W" ]7 dCodec ID/Info                            : Picture based subtitle format used on BDs/HD-DVDs! V4 T- b8 h' T% M7 D
Duration                                 : 2 h 21 min! h! t5 q! L/ U- ^" |" i/ q- N' b
Bit rate                                 : 31.0 kb/s# u2 k, K  t* Q0 H5 I
Count of elements                        : 3738
9 D3 L% z% {4 LStream size                              : 31.3 MiB (0%)
5 n8 b6 [' O  k& D8 VTitle                                    : Portuguese-PGS6 |9 i# L7 p, [4 t
Language                                 : Portuguese
. T% i5 [  ]7 v+ Z/ c  _- J3 HDefault                                  : No7 N: R* ]7 b: {
Forced                                   : No
0 {" }1 {( @9 a# L0 Q+ l! f2 R; J4 x& c1 Q  q* j* H
Text #24$ m6 d7 M  Z/ ?, v$ A/ F
ID                                       : 28
1 }( n. ]" p9 l+ L9 AFormat                                   : PGS
0 p$ X0 `6 t4 I6 T! L* QMuxing mode                              : zlib
2 ?. p; Y# i  l. ~& wCodec ID                                 : S_HDMV/PGS
  W8 c% ^0 l. ~4 F+ l, s0 {Codec ID/Info                            : Picture based subtitle format used on BDs/HD-DVDs6 l  \6 |2 M( Y3 J" R
Duration                                 : 2 h 26 min+ p6 Z; a1 I3 e% S* `- M
Bit rate                                 : 38.2 kb/s6 ]0 f/ S( t4 `9 e
Count of elements                        : 3792
. h, n. G; p) j7 U# F2 QStream size                              : 39.9 MiB (0%)
( D- c6 h3 N/ gTitle                                    : Portuguese-PGS
% ~. R. f; p( b* SLanguage                                 : Portuguese1 x0 I( z3 G  p4 ]) C
Default                                  : No4 z2 H- q7 V; \! @
Forced                                   : No
- |# G* B6 o' g/ b* R- i$ d7 Z/ ?7 C
Text #258 A) Y, D& S' T
ID                                       : 29! k7 ^% A$ S' G9 z9 c2 e/ \4 u: E
Format                                   : PGS
& `/ C3 ^, a) t8 D7 }% z& z. SMuxing mode                              : zlib% c: k1 [1 H2 f, ^* s, Y1 P% q2 b8 u
Codec ID                                 : S_HDMV/PGS
4 w, p1 o0 q# V3 j! L3 f5 T5 PCodec ID/Info                            : Picture based subtitle format used on BDs/HD-DVDs( L* T, n: s7 h* r7 }8 {
Duration                                 : 2 h 21 min8 u! f! R' E: I# F6 Z
Bit rate                                 : 31.0 kb/s
1 Z7 ]; w. M0 Y( r3 F. ^5 JCount of elements                        : 35541 _7 n" N. @& K3 c2 x
Stream size                              : 31.3 MiB (0%)
4 n; U/ ?9 l! C/ _/ ]8 L' STitle                                    : Romanian-PGS) D, \7 S, {, {: d5 |4 i
Language                                 : Romanian
7 G3 m2 E8 T( r. Y8 sDefault                                  : No
( H" u$ b, S8 n( eForced                                   : No
, X* j% i" c! Y, Q7 E6 a$ n; q, Y( o6 x. {3 Z
Text #26
. {  T. G) x' M/ P* o* OID                                       : 30
  `0 [) K, q# {0 _  B9 kFormat                                   : PGS
; n# D. s: m* M4 u1 q, _! }Muxing mode                              : zlib/ U1 L/ D& e) h- E# s
Codec ID                                 : S_HDMV/PGS% i' n7 ?  O+ A! I
Codec ID/Info                            : Picture based subtitle format used on BDs/HD-DVDs) |. r& A, n' z
Duration                                 : 2 h 21 min
' M8 q4 ~; N% P' [% j6 GBit rate                                 : 41.9 kb/s
8 i% M: ]+ h9 h$ @+ y2 N7 p+ uCount of elements                        : 3964
$ H) ~6 }$ g8 o, ?# c+ e8 uStream size                              : 42.3 MiB (0%)( L! \3 H( o  n# a
Title                                    : Russian-PGS7 x3 W# X5 e! e9 j5 G8 z
Language                                 : Russian
0 h8 b/ }4 G1 i, X+ c9 ADefault                                  : No
" |) L7 p* {: P  o" tForced                                   : No
! {. z2 m6 b1 A( @4 j0 @1 _8 o/ m! z5 s7 c5 B7 b- Z/ D
Text #276 v' ]# L  n, M6 I7 a* L* o
ID                                       : 31' R. K9 v$ u/ @! a" @( Z
Format                                   : PGS: l9 H- n0 Q- x' F0 q5 a
Muxing mode                              : zlib
# `+ r1 F4 S; o6 kCodec ID                                 : S_HDMV/PGS6 f+ @5 J# I* y3 @1 s$ \% a4 U
Codec ID/Info                            : Picture based subtitle format used on BDs/HD-DVDs
1 z$ l3 q& t+ f3 q1 K: D+ JDuration                                 : 2 h 21 min
6 H" c' q1 m2 O- lBit rate                                 : 34.3 kb/s% q# B8 A* U/ `1 r9 G' Y
Count of elements                        : 3952
! U2 O9 S. l; Z4 TStream size                              : 34.6 MiB (0%)
6 @0 {: ?/ i+ h$ ZTitle                                    : Spanish-PGS- u% [: D/ R: G- u
Language                                 : Spanish+ r, B4 S& A) z& W/ p
Default                                  : No
0 x; k0 ?( Q- Y3 h2 L, g  ]* hForced                                   : No
" p9 R# a$ a3 Y" z8 u7 |0 C; _( B4 _% m! q
Text #28
. |" x' P9 z) S* w$ g! ~ID                                       : 32
9 M2 j; K/ T( g' V/ H" XFormat                                   : PGS
7 A9 j- B+ G0 C" {2 a6 RMuxing mode                              : zlib
) Z  Y' m' r" [4 i3 `! aCodec ID                                 : S_HDMV/PGS& x' o* r! G" H$ F, m
Codec ID/Info                            : Picture based subtitle format used on BDs/HD-DVDs3 M. A$ ?6 G) S/ k1 f# a6 T% n$ v
Duration                                 : 2 h 21 min5 A% z$ t; C/ `( O
Bit rate                                 : 37.3 kb/s
2 ^* g  _: @' Y* YCount of elements                        : 3904/ ~! }6 R* T/ g9 m7 w) A4 H$ e' n
Stream size                              : 37.6 MiB (0%)! x5 }& V# B) k  _) x
Title                                    : Spanish-PGS
" e" Z- B  m: xLanguage                                 : Spanish
3 q8 B3 J; ]2 X* y2 _Default                                  : No7 N5 g4 L# ~- r/ f- }* a. D$ d! n( o
Forced                                   : No
2 r+ m' m; A2 Z' k9 J4 \# s) l" Q) |( c3 Q: v/ }
Text #295 f$ @: g' M- y& W) q
ID                                       : 33
3 H, k# }0 R! GFormat                                   : PGS
; r+ l8 S' k1 c8 Q0 u  V. eMuxing mode                              : zlib
  V4 W. n! N! a0 H9 S* W8 [3 GCodec ID                                 : S_HDMV/PGS" b. i& T; u2 k; H3 x$ \- `
Codec ID/Info                            : Picture based subtitle format used on BDs/HD-DVDs
( m* E& `! f! G( o) x9 b. \Duration                                 : 2 h 25 min5 f7 J/ ]9 l( R  P* C
Bit rate                                 : 29.1 kb/s
: z: m* B0 z4 p  Q+ x1 OCount of elements                        : 33911 b; J* G0 j" D3 l1 }; |' u9 f& R
Stream size                              : 30.3 MiB (0%)
8 x5 L. R- X+ V9 nTitle                                    : Swedish-PGS% H9 D- N8 b: y
Language                                 : Swedish- x' |- m6 f  _  }& l, N
Default                                  : No
' l' R/ Y8 g- M* U: Y2 C' \Forced                                   : No: S8 z5 j: f( J7 B
# D7 H( A5 L/ J4 H: ~
Text #30
( |( h; i6 c/ j. t& ~% \" T: Q- vID                                       : 34
- |5 {+ D7 g/ X5 e9 B1 tFormat                                   : PGS
9 n: A) Y7 H0 u! ^Muxing mode                              : zlib) n) Q; b  {. a# o0 c5 ]& m+ {
Codec ID                                 : S_HDMV/PGS
8 I, H' h6 J2 q) H5 A: W4 JCodec ID/Info                            : Picture based subtitle format used on BDs/HD-DVDs2 R) M# K: Q. c/ J) @. S* `
Duration                                 : 2 h 21 min
2 R9 ?5 H) P$ O) g1 Z  WBit rate                                 : 34.0 kb/s7 J+ }) @/ h9 C9 {6 k
Count of elements                        : 3874$ r, W* e) d  ^/ z6 v* Q
Stream size                              : 34.3 MiB (0%)
, l0 K, s* g& L$ z% DTitle                                    : Thai-PGS
8 d: H7 [$ ~5 ~1 CLanguage                                 : Thai7 b# l/ s. R$ _
Default                                  : No
3 u% G7 D0 e5 Q3 DForced                                   : No
  X( |& h2 O9 p
( m- B* l, W+ h& c6 BText #31$ n/ B% s0 i  t) o" t( A; @
ID                                       : 35& h. l% A- u2 [) c5 L0 z/ D
Format                                   : PGS+ r) B4 ]% K7 M1 l$ E
Muxing mode                              : zlib
/ ?: ~/ z" f0 C' aCodec ID                                 : S_HDMV/PGS* v! s. X4 k+ Q: s% ^# O
Codec ID/Info                            : Picture based subtitle format used on BDs/HD-DVDs
  t3 Y* ^4 N5 x; ~5 l6 CDuration                                 : 2 h 21 min: Z" G4 W" [& `* V7 n6 E/ M
Bit rate                                 : 38.0 kb/s. z  M- i+ e2 i. E# I* q1 n0 ?
Count of elements                        : 3868
1 N2 |0 b& s4 b: I# CStream size                              : 38.4 MiB (0%): C8 p2 v' _3 s6 `! c2 R
Title                                    : Turkish-PGS9 [( Z& E% F. m
Language                                 : Turkish* m. ~  D9 L/ k" _
Default                                  : No7 z* P, t5 y/ ?* t+ @
Forced                                   : No
) I, y: }0 D( ^# M/ `' f' h  x% A* N
Text #32
& L, w) \' z+ E8 p- n8 CID                                       : 36
( N. k9 v$ [! c4 \Format                                   : PGS
0 s5 F  o$ X7 M" T8 aMuxing mode                              : zlib9 h5 E1 m- R+ [
Codec ID                                 : S_HDMV/PGS9 _& {3 e/ }: U# T' s
Codec ID/Info                            : Picture based subtitle format used on BDs/HD-DVDs2 r- P0 K# ?% T
Duration                                 : 57 min 30 s3 B' n9 E9 n! G1 ]
Bit rate                                 : 239 b/s1 G3 F/ M5 p& Q0 N& k5 @
Count of elements                        : 14
' j; K' {8 m2 A# c" e9 m* UStream size                              : 101 KiB (0%)4 Q+ n4 O; _9 o" L4 |, t7 a9 f
Title                                    : French-FORCED-PGS
2 @2 t5 y  J: l9 ~1 C7 Z! GLanguage                                 : French8 c# d+ L; g" X3 H- L1 q
Default                                  : No
+ j& t- e9 x$ [( FForced                                   : No
" _+ ]/ b; N- T# {7 n" i( h' S2 f, N$ M) O) O' `
Text #33
/ W( A+ V- F! v& UID                                       : 37) w1 c1 b& W$ ?
Format                                   : PGS* U3 d, t6 _8 O6 }
Muxing mode                              : zlib
7 G; ~0 w+ C0 uCodec ID                                 : S_HDMV/PGS
5 T6 ]* }( Q" f7 y! [3 d& FCodec ID/Info                            : Picture based subtitle format used on BDs/HD-DVDs
7 f% {& P- B7 v) MDuration                                 : 1 h 34 min0 R& z3 G( o6 P; A" C, i! e* H2 ^
Bit rate                                 : 288 b/s5 d. C4 M5 C  m3 t
Count of elements                        : 26# f. y# k; f3 x) f, m1 C/ R  w
Stream size                              : 200 KiB (0%)
6 k& M6 S9 Y; r2 h; c* F5 ATitle                                    : Japanese-FORCED-PGS
* o3 m0 }3 ?$ p5 mLanguage                                 : Japanese+ R. l3 y: g6 @1 |8 A- N
Default                                  : No- q/ z) S1 G3 I8 {# s6 h9 d
Forced                                   : No* q( P2 v+ k- j8 z3 n; ~9 |
0 V3 V. }! e( Z3 P
Menu
4 P6 c" l- f$ G00:00:00.000                             : :Chapter 1- F% E0 W1 U0 f. }& V2 O
00:11:05.498                             : :Chapter 2) d& C" @: s( B' Q# V" a& G( i
00:21:55.397                             : :Chapter 33 O" O) O. ?6 P7 w
00:39:55.768                             : :Chapter 4: }4 R8 \$ \, |% }; v9 Q4 A) N
00:45:28.684                             : :Chapter 5
, i6 l' Z. S6 ?$ u: U1 {00:53:28.788                             : :Chapter 6. B4 O7 Y7 H! @' w& O  {  H
00:59:02.247                             : :Chapter 7; \. A7 W# t. y& x
01:06:27.066                             : :Chapter 8
4 V; u; }5 Y/ R/ x+ D1 Q- z/ N01:11:29.618                             : :Chapter 9+ C0 B* m- }/ ^7 l& c# R9 e* ?
01:17:54.169                             : :Chapter 10
/ O2 f7 F( S' \01:30:28.131                             : :Chapter 119 C8 S$ A- S" _
01:37:39.228                             : :Chapter 12
0 n2 |# H! t1 N% x$ T01:45:54.765                             : :Chapter 13
. D6 F2 E/ ]- r01:56:47.625                             : :Chapter 148 M  n  ~# ^% u# S/ M3 s4 x$ b
02:05:08.584                             : :Chapter 15
3 k1 e0 w2 a  @  w( P02:16:07.701                             : :Chapter 16

! s2 c7 j: y6 M+ }' s( q4 ]0 f
游客,查看本帖隐藏内容请回复 | 加入VIP贵宾可免积分免回复 了解详情 | 还不是会员:点击获取邀请码 Invitation Code

0

主题

74

帖子

430

积分

Sponsor

金币
103 枚
体力
172 点
QQ
fangfang789 发表于 2021-9-17 16:12:09 | 显示全部楼层
沙发是抢的而不是占的!
7 D3 X: l* y+ n: ^4 FAfter reading the posts have nothing to do I Amoy posts!/ v1 p8 z- D9 `! n

本版积分规则

小黑屋|Archiver|蓝光电影资源网

GMT+8, 2021-9-25 23:34

Copyright © 2001-2022, Tencent Cloud.

快速回复 返回顶部 返回列表