BluRayCD Forum

 找回密码
 立即注册【分享大片】
查看: 50|回复: 0
收起左侧

[蓝光原盘] 科学怪人的恐怖 [REMUX无损盘] The Horror of Frankenstein 1970 1080p BluRaycd REMUX AVC DTS-HD MA 2.0-FGT 22.80GB

[复制链接]
论坛网友
论坛网友  发表于 2018-12-16 15:29:39 |阅读模式
01.jpg 4 y/ X1 e. h0 m1 p3 H% R& W
$ i1 ~9 @  g% E2 ~  i0 E9 ^& K  B
◎译  名 科学怪人的恐怖/恐怖的弗兰肯斯坦' |7 D( x# s, n# g4 u$ ?6 k' W
◎片  名 The Horror of Frankenstein) v  y9 d+ D5 n* g0 R. @
◎年  代 19702 t6 T: @) e4 Y& Z. {* H- l5 H
◎产  地 英国* p4 Z. g/ L' d& Y2 c3 V$ \
◎类  别 科幻/恐怖. ~  W5 x8 I! W7 z. p( \. Z# i
◎语  言 英语, C% ]1 ~7 r6 Z3 I
◎上映日期 1970-11-08
# J" U7 i- F& a◎IMDb评分  5.8/10 from 1,826 users
+ L0 r; i) ?! N  `- \$ g0 q7 L◎IMDb链接  https://www.imdb.com/title/tt0065851/$ h0 J  s6 S) P
◎豆瓣评分 0/10 from 0 users
! y* |5 Z' x1 _+ H; v◎豆瓣链接 https://movie.douban.com/subject/2058972/( C1 r9 Z6 Z. R
◎片  长 1 h 35 min
: t5 |( p" V. ~  |( ?/ }◎导  演 吉米·桑斯特 Jimmy Sangster
) d( u* @& e' R# q. m9 L" \% y◎编  剧 吉米·桑斯特 Jimmy Sangster/ h% \. _6 m- s+ d
◎主  演 拉尔夫·贝茨 Ralph Bates$ g5 C2 s' u3 N6 Y
       Kate O'Mara
5 e2 E1 F5 u/ K2 C6 {& L# W       维罗妮卡·卡尔森 Veronica Carlson  ^/ H, ~% D, e' p
       丹尼斯·普莱斯 Dennis Price
( O& o* I$ T6 N5 Q, \       乔·芬奇 Jon Finch
! @2 {. j6 N4 a6 U4 k
9 k. T* I' D& X+ D' P' j◎简  介   
* k  O5 C6 P: ~, T( x% H
: i: @0 v" C4 [5 z; H6 O' b8 Q  The brilliant but misunderstood scientist Frankenstein builds a man made up of a collection of spare body parts. The monster becomes alive but he has mentalcapabilities much below par. The monster is aggressive and wreaks havoc outside the laboratory.* U) W5 z, @: R& @" D
( y* g# K1 T5 P( n9 o9 p3 G7 N: K
1 ~; E& H# o& ^6 q2 B

' ]; Q; Y* M, q7 M" z
2 o8 ]# T# t+ k: W4 E
Video
6 q: p7 U! l- L& M5 hID : 1
- e* r, E3 V# E* z4 ?  O" {$ sFormat : AVC! {% W/ i) G! d: `% s  J
Format/Info : Advanced Video Codec
$ d& `' ]  D0 V  g! VFormat profile : High@L4.1% y% n! R5 E4 u$ Y$ x' G; ^4 B
Format settings : CABAC / 3 Ref Frames
0 \9 S. t# Z( dFormat settings, CABAC : Yes+ E- _+ m0 B2 b# h2 n5 h: W
Format settings, ReFrames : 3 frames0 \4 y; X0 Q% }7 _' }! @* ]
Codec ID : V_MPEG4/ISO/AVC
( s9 Y5 ^- I4 N' s  S. p6 LDuration : 1 h 35 min4 J. J5 b' \! }2 C$ O4 D& Z
Bit rate mode : Variable
( @! R6 X; ]; K1 G$ l, L( A; I9 bBit rate : 32.0 Mb/s, D5 S$ p" N* h! Y0 e' D
Maximum bit rate : 40.0 Mb/s
: l* L6 n! H$ Q3 m0 P) K& NWidth : 1 920 pixels# [/ i( {# C6 U% \$ }! A
Height : 1 080 pixels5 h. b7 @; @" k4 X1 `- {; h/ _( L! o
Display aspect ratio : 16:94 V; ~" ?% M9 z8 n' q
Frame rate mode : Constant+ r7 `% j0 `5 X5 H
Frame rate : 23.976 (24000/1001) FPS+ M1 j: u' }( r- }+ u$ D6 C' B
Color space : YUV) J0 u* o' @& Z8 z* v/ e8 K
Chroma subsampling : 4:2:0
% \8 Q- @, j2 ~( RBit depth : 8 bits/ ]/ q% O$ {- x+ C% Q
Scan type : Progressive# i. j) X; Z& p# F' o! E6 }+ p
Bits/(Pixel*Frame) : 0.644
7 G( V  c! T: ?0 f* |/ _Stream size : 21.4 GiB (94%)
3 f/ W# g7 X" n3 W, T, jTitle : The.Horror.of.Frankenstein.1970.1080p.BluRayCD.REMUX.AVC.DTS-HD.MA.2.0-FGT- r( w/ A' z  x9 ^
Writing library : x264 core 148 r2705 3f5ed56% t+ L; ]# R2 ?9 C  H2 s
Encoding settings : cabac=1 / ref=4 / deblock=0:-1:-1 / analyse=0x3:0x133 / me=umh / subme=10 / psy=1 / psy_rd=1.00:0.15 / mixed_ref=1 / me_range=24 / chroma_me=1 / trellis=2 / 8x8dct=1 / cqm=0 / deadzone=21,11 / fast_pskip=1 / chroma_qp_offset=-3 / threads=12 / lookahead_threads=1 / sliced_threads=0 / slices=4 / nr=0 / decimate=1 / interlaced=0 / bluray_compat=1 / constrained_intra=0 / bframes=3 / b_pyramid=1 / b_adapt=2 / b_bias=0 / direct=3 / weightb=1 / open_gop=1 / weightp=1 / keyint=24 / keyint_min=1 / scenecut=40 / intra_refresh=0 / rc_lookahead=24 / rc=abr / mbtree=0 / bitrate=32000 / ratetol=1.0 / qcomp=0.30 / qpmin=0 / qpmax=69 / qpstep=4 / vbv_maxrate=40000 / vbv_bufsize=30000 / nal_hrd=vbr / filler=0 / ip_ratio=1.40 / pb_ratio=1.30 / aq=1:0.50
# @& K) \. }& v: ?Language : English
' D6 |3 M) R: G8 M! ODefault : No
4 o2 t. i3 [2 m7 k  ~& [, b" k; ?* XForced : No- w) i# j4 ~3 t: C
Color range : Limited5 o8 O& ?. T/ k" q2 W* z+ s4 R
Color primaries : BT.709
$ E+ N6 ?+ ]0 kTransfer characteristics : BT.709
0 O& R' Q( O# R; lMatrix coefficients : BT.709- f6 l5 X  k  [  Z" g# U

. m  m2 u# O4 u$ z0 xAudio #1
$ y) ]8 f1 S6 d; ~/ e% d. QID : 2% E1 i" X8 }9 Z
Format : DTS
% Q6 Y/ v5 Y8 Q- |2 q0 O. a: [8 uFormat/Info : Digital Theater Systems% _. z( w, D! t
Format profile : MA / Core
# U& K( A( w0 ?. F: cCodec ID : A_DTS
: M. V9 d; K3 I& z- FDuration : 1 h 35 min
% G6 N- I# e* ~4 }( j$ jBit rate mode : Variable / Constant' i  r5 u9 o7 [, E$ l) Z+ M* v
Bit rate : 1 411.2 kb/s / 768 kb/s# _; ^' u' u( o9 J- E
Channel(s) : 2 channels
0 O; X% }! {4 RChannel positions : Front: L R
2 {0 W1 J9 |8 _6 X6 `5 i7 g+ YSampling rate : 48.0 kHz( }1 }+ W5 K9 }9 t
Frame rate : 93.750 FPS (512 SPF)
# Z. z2 Y3 Y  R) E% Y% Z- pBit depth : 24 bits+ u( Q$ x" p& I
Compression mode : Lossless / Lossy
# u/ J& ]6 A1 [Stream size : 978 MiB (4%)0 Z0 x* R: s/ b
Title : The.Horror.of.Frankenstein.1970.1080p.BluRaycd.REMUX.AVC.DTS-HD.MA.2.0-FGT; b% j' |. U4 h) r
Language : English
  P( A% y. x5 ?: [: q- q, L& v" ODefault : Yes
) W: o6 m) k4 t5 e$ uForced : No
4 W6 B7 r: k6 n1 J/ d& P2 v% g* |5 I0 Z7 u1 l" b3 V
Audio #2& `% B' N4 c& a  q0 h0 L+ x5 W
ID : 3
* L; @7 N7 ?3 l" K! t# jFormat : DTS
8 o( a2 D( |# \Format/Info : Digital Theater Systems
8 S/ p' {9 L( Q/ i& Z, [2 ~5 ICodec ID : A_DTS
9 B" ]1 B0 V# X  c% f( WDuration : 1 h 35 min
2 Y# ?4 ?0 \: G* DBit rate mode : Constant" Q- {! W2 T+ k9 V
Bit rate : 768 kb/s
8 @/ f) m( T2 g& Z/ yChannel(s) : 2 channels
: Z5 ?/ `7 G6 H0 L+ w% L: C: g9 OChannel positions : Front: L R
! F1 R2 Z3 v* }' F1 @3 ~1 T% xSampling rate : 48.0 kHz7 E- e( g% [: F& W7 U7 P+ z! q, K
Frame rate : 93.750 FPS (512 SPF)
. P" h2 W4 W: d# X5 P8 eBit depth : 24 bits
7 l) Q& R8 |+ E  N# W' ACompression mode : Lossy
0 G: H3 @8 s" YStream size : 525 MiB (2%)
" i! y4 Z" y) f' W$ P2 uTitle : The.Horror.of.Frankenstein.1970.1080p.BluRaycd.REMUX.AVC.DTS-HD.MA.2.0-FGT8 X, [! f" R# b7 t3 ~
Language : English8 k8 m. z7 r6 J/ t8 k
Default : No' U0 }1 p9 A' W7 M
Forced : No
3 |- W2 x9 H. Q, h& u0 q2 Z3 F: z1 }8 D  c% T! |/ d
Text  H! j) p/ c  g' K; ~/ T- a
ID : 4
7 A* |7 q( T$ X" Y) lFormat : PGS
0 Z( s2 j' Q3 l* XMuxing mode : zlib3 R9 ?: E( k. w1 e* m4 C
Codec ID : S_HDMV/PGS
; Z$ `% S+ B3 OCodec ID/Info : Picture based subtitle format used on BDs/HD-DVDs. O0 ^8 h  y9 e6 ~' L. u' C( v8 x6 @
Duration : 1 h 32 min. r/ y. W! C$ S3 l* L; T4 q
Bit rate : 37.1 kb/s+ a7 C6 m. F7 s+ n. }
Count of elements : 2292
2 [, h6 j! R# u8 GStream size : 24.6 MiB (0%)
  I' z- v7 d% ]2 Y' LTitle : English-PGS2 F9 h- u) N  ~9 `1 h/ ?, v
Language : English
' ~' V1 j; q# a& h- D1 @7 XDefault : Yes
  c  v/ \3 O, a! ?# h$ LForced : No
4 b- B/ b4 ^* N- H0 ]- n3 J
  v9 u7 i7 }: }& g9 D: e- KMenu; ?% X9 A7 z5 v
00:00:00.000 : en:Chapter 01# `9 c9 R7 w+ @/ s
00:07:53.639 : en:Chapter 02. s+ r& ^9 N) \( `( d
00:15:49.573 : en:Chapter 039 |/ ?9 g* {9 N5 \
00:23:54.766 : en:Chapter 041 G  o8 {6 f9 m6 w
00:32:23.733 : en:Chapter 05) |7 z+ d5 e1 a& n& E
00:40:08.823 : en:Chapter 06
! a/ X3 k* ]0 X2 G! @1 d00:49:03.899 : en:Chapter 07$ m7 G7 [/ Q  M
00:57:35.452 : en:Chapter 08
! `8 }: w6 x6 J& O: S9 v: J* D$ B01:04:47.633 : en:Chapter 09: U' T, J, J. }  V. O- \
01:09:36.714 : en:Chapter 10
3 }0 W( @% ~- F% w  ]$ h01:20:18.688 : en:Chapter 119 y- P& o* g; \0 [
01:27:53.643 : en:Chapter 12

- a8 {) E. y! u6 `3 Y1 B5 O, d4 w( M- l2 g% M4 V

; ~% f/ B( m! |, {
游客,查看本帖隐藏内容请回复 | 加入VIP贵宾可免积分免回复 了解详情 | 还不是会员:点击获取邀请码 Invitation Code

相关帖子

本版积分规则

小黑屋|Archiver|蓝光电影资源网

GMT+8, 2021-12-2 23:41

Copyright © 2001-2022, Tencent Cloud.

快速回复 返回顶部 返回列表