BluRayCD Forum

 找回密码
 立即注册【分享大片】
查看: 187|回复: 5
收起左侧

[动作战争] 无双/無雙 [国语中字/次世代+杜比全景音效] Project Gutenberg 2018 CHINESE 1080p BluRaycd x264 DTS-HD MA 7.1 & TrueHD 7.1 Atmos-FGT 20.59GB & 21.21GB

[复制链接]

9221

主题

194

回帖

6万

积分

Post Share

金币
516 枚
体力
13188 点

卓越贡献勋章

24小时 发表于 2019-2-4 02:56:58 | 显示全部楼层 |阅读模式
01.jpg
8 k7 X; t) N$ s/ K' Y; g. [5 [* T( i( f1 i% l2 @9 P4 z
◎译  名 无双  V% L3 M, q$ j, v
◎片  名 無雙 / Project Gutenberg / Mo seung) B4 q2 H2 J; k3 A: k# N
◎年  代 2018
1 D& p' Y, p. V9 R+ A5 E; Q◎产  地 中国大陆/香港
5 B: n' ?: g6 A  S◎类  别 剧情/动作/犯罪0 w; k& l3 _  D6 e4 y. ]7 b0 f
◎语  言 汉语普通话/粤语/英语/泰语/波兰语
& p! I+ P- b- o( Z# ]◎上映日期 2018-09-30(中国大陆)/2018-10-04(香港)
+ T6 A  m# S! s. @& {◎IMDb评分  7.2/10 from 1,290 users
2 C8 {, z" F- L8 o  d5 q◎IMDb链接  https://www.imdb.com/title/tt7183578/
6 j! O$ A. g& e8 `% R◎豆瓣评分 8.1/10 from 468,554 users
  `  b1 W) H. w( `◎豆瓣链接 https://movie.douban.com/subject/26425063/: K) L: z- h/ s/ e# K4 T
◎片  长 2 h 10 min% w5 K; W3 y' {- H$ x5 C' R
◎导  演 庄文强 Felix Chong
  k$ w5 y2 _/ S) u◎编  剧 庄文强 Felix Chong! U* A3 Y6 l( z  }7 v
◎主  演 周润发 Yun-Fat Chow9 T. \6 d+ D9 J9 J* {
       郭富城 Aaron Kwok* B3 ?+ B4 X9 e9 W7 v
       张静初 Jingchu Zhang
+ y& {; M3 \% x4 |       冯文娟 Wenjuan Feng
8 q: v2 z* U4 B7 z, W$ r7 B       廖启智 Kai Chi Liu
% Y, n3 x9 \9 E6 l; u7 H8 x       周家怡 Catherine Chau
7 E# J  @8 X& N- x! F       王耀庆 David Wang
  W; s/ u: F2 t% y: B8 N       方中信 Alex Fong' O# Q! {7 H' Y; l0 z2 \1 `; W" x
       高捷 Jack Kao
) g4 M( x# l7 t9 F       邢佳栋 Jiadong Xing' @; d& k' Y; m  R. g' N
       张松枝 Deno Cheung, L, [2 W2 f# N6 g
       张建声 Justin Cheung
, n- [" ?5 L( o5 |. g4 \, x2 a+ C5 w       吴嘉龙 Carl Wu. i5 d3 R; ~5 l  F* {7 B" T2 ^
       孙佳君 Paulyn Sun
. u5 x9 p, x! G- s( j9 |
  X! o2 r9 P: A) W◎简  介       " S: U( x$ f9 ^& [% y
# I/ @$ D$ p8 W, p' |
  《无双》讲述了以代号“画家”(周润发 饰)为首的犯罪团伙,掌握了制造伪钞技术,难辨真伪,并在全球进行交易获取利益,引起警方高度重视。然而“画家”和其他成员的身份一直成谜,警方的破案进度遭受到了前所未有的挑战。在关键时刻,擅长绘画的李问(郭富城 饰)打开了破案的突破口,而“画家”的真实身份却让众人意想不到…… 2 x2 e# T% P' }' O& v4 o3 {

2 K4 Q" B$ Y: O6 M  c   The Hong Kong police are hunting a counterfeiting gang led by a mastermind code-named "Painter". In order to crack the true identity of him, the police recruits gang member Lee Man to unmask "Painter's" secret identity.
: J; A. N" Z4 L
. T. W: L/ P& N7 v% J◎获奖情况  8 n$ w( Q9 @9 ~" |

3 l9 \6 Q4 I, m; y& P  第13届亚洲电影大奖(2019)
% z  D8 k. T* \  最佳男主角(提名) 郭富城: i' r2 y) M9 n6 |6 q+ j
  最佳编剧(提名)" @4 w) _( H  r( ?
  最佳剪接(提名)
' j: P0 L6 A7 b$ \5 e8 `2 d  最佳造型设计(提名)
1 h3 ^+ J! U( c: `  最佳视觉效果(提名)
8 ?7 Z0 V% ^1 Y4 \1 \5 N/ }& v* s  H4 U2 o! w5 N
  第5届豆瓣电影年度榜单(2018)5 h* U; r2 K. u* A5 R- P
  评分最高的华语电影(提名)+ A4 l. C1 t: L) k2 b+ `% H; H/ c
3 ^/ u5 n$ }, X

6 b$ E+ p% p% ]1 l9 J
Video% X: U/ J+ ^0 O
ID : 1
. J$ `- Z% l/ ]Format : AVC
9 f& n/ a. S! Q2 S6 r# j$ G2 fFormat/Info : Advanced Video Codec
7 ?3 v" j4 W$ e0 vFormat profile : High@L4.1
8 j& F0 T3 Z& M6 rFormat settings : CABAC / 5 Ref Frames
3 E4 l, g  N* A& s$ s# qFormat settings, CABAC : Yes
; z: m, j4 T! g% Q, ^Format settings, ReFrames : 5 frames7 Y' K0 x9 i- D" ?$ i
Codec ID : V_MPEG4/ISO/AVC
$ _. @8 M( \5 j  b3 f- C( ~Duration : 2 h 10 min
# B0 l0 d# E; H' i( d  TBit rate : 18.5 Mb/s. h# U- x  b2 e- E& @! c
Width : 1 920 pixels- t; J) S0 F( U* I' @
Height : 804 pixels9 s; k& R& l9 y
Display aspect ratio : 2.40:1# A& M' ^  D6 e( X/ `" O1 M+ v+ M, Q
Frame rate mode : Constant* r+ H5 a) t* o& e5 h4 _
Frame rate : 24.000 FPS
1 [! ^5 r+ G5 {, r# DColor space : YUV
1 Z8 K5 z8 I+ n3 y: H2 yChroma subsampling : 4:2:0  H* I, W$ n) O+ [6 z( r% l/ e) W
Bit depth : 8 bits& a0 S3 _) _& ^3 F. M  D
Scan type : Progressive3 T; r9 q9 X) e1 z
Bits/(Pixel*Frame) : 0.499
: F% |8 y' J( N. YStream size : 16.8 GiB (82%)
% u  S! x$ Z4 d' Q. HTitle : Project.Gutenberg.2018.CHINESE.1080p.BluRayCD.x264.DTS-HD.MA.7.1-FGT# J  V) T& y- y: v8 y
Writing library : x264 core 155 r2867+82 a249126 t_mod_Custom_2 [8-bit@all X86_64]* x6 E7 q: L+ s: o) t! Y: Q
Encoding settings : cabac=1 / ref=5 / deblock=1:-3:-3 / analyse=0x3:0x133 / me=umh / subme=10 / psy=1 / fade_compensate=0.00 / psy_rd=1.05:0.00 / mixed_ref=1 / me_range=32 / chroma_me=1 / trellis=2 / 8x8dct=1 / cqm=0 / deadzone=21,11 / fast_pskip=0 / chroma_qp_offset=-2 / threads=24 / lookahead_threads=4 / sliced_threads=0 / nr=0 / decimate=0 / interlaced=0 / bluray_compat=0 / constrained_intra=0 / fgo=0 / bframes=7 / b_pyramid=2 / b_adapt=2 / b_bias=0 / direct=3 / weightb=1 / open_gop=0 / weightp=2 / keyint=250 / keyint_min=24 / scenecut=40 / intra_refresh=0 / rc_lookahead=60 / rc=2pass / mbtree=0 / bitrate=18500 / ratetol=1.0 / qcomp=0.60 / qpmin=0:0:0 / qpmax=69:69:69 / qpstep=4 / cplxblur=20.0 / qblur=0.5 / vbv_maxrate=62500 / vbv_bufsize=78125 / nal_hrd=none / filler=0 / ip_ratio=1.20 / pb_ratio=1.15 / aq=1:0.80 / aq-sensitivity=10.00 / aq-factor=1.00:1.00:1.00 / aq2=0 / aq3=0 / zones=2077,2408,b=2/86353,88927,b=26 l8 W7 c6 _( E8 G7 ~+ [( {- _
Language : English- p6 F2 h6 }* L" Q& M, `
Default : Yes  `5 D8 _3 ?$ w" s$ d- C% |
Forced : No
+ _) L( j6 l% }8 o/ ^, o- g" l
# O$ n' |& F, v$ jAudio
1 R' ?' d8 A  x+ H5 Q7 n/ LID : 2
1 {" x7 q& U) q. }! L9 fFormat : DTS XLL, o4 r: M. {6 H, p) _& G
Format/Info : Digital Theater Systems
0 X; y  z0 @# d! kCommercial name : DTS-HD Master Audio
2 O/ I1 S8 R2 U. m: z. B/ ?2 pCodec ID : A_DTS; c0 D# M/ W* I3 K$ ]' }: r
Duration : 2 h 10 min
  N% A- x- o6 P; ~  S( _Bit rate mode : Variable+ t# V- @  t, E; ~' ]6 D
Bit rate : 4 080 kb/s
1 |; c6 W: N. VChannel(s) : 8 channels6 \* R' P0 J1 P" M
Channel layout : C L R LFE Lb Rb Lss Rss( K" a) z7 v0 h' C' [
Sampling rate : 48.0 kHz* E+ _8 I! N" r* P
Frame rate : 93.750 FPS (512 SPF)
, K8 D& F0 f, nBit depth : 24 bits/ h" R* d8 O9 ~
Compression mode : Lossless
7 t+ e/ H& z. R. ^7 ]: x8 I% PStream size : 3.72 GiB (18%)' j+ l2 q* }+ B
Title : Project.Gutenberg.2018.CHINESE.1080p.BluRaycd.x264.DTS-HD.MA.7.1-FGT
- k5 j# z6 j$ @/ `5 w6 [9 iLanguage : Chinese
8 a* K! f: I  ~5 A* g) rDefault : Yes
7 f7 N8 J; u( R8 nForced : No' S1 i" D  Q2 X/ v

3 V4 X) P; \, e% YText #1
" u  l  e" J1 G0 O: qID : 3: d5 @0 R) H( H( d, d" Y1 F
Format : UTF-89 q2 }6 ?# C0 ?9 h6 r
Codec ID : S_TEXT/UTF82 K' S: A) N( _; k! c& E6 j7 l8 c& v
Codec ID/Info : UTF-8 Plain Text
( e4 q5 w2 c  L# n* Y/ W" r/ y  tDuration : 2 h 3 min0 \7 a: \. t/ Q5 q0 d" B! o% g
Bit rate : 38 b/s
# P4 \( T# I0 d/ L( N! p$ cCount of elements : 1417
/ M8 z- C4 |% G; T* w; s3 nStream size : 35.0 KiB (0%)
# Z9 ]3 @! T, w( t) V; H7 ?! MTitle : English-SRT
; d5 x5 h! U' Y, H  |- _Language : English
4 `9 t7 H8 L2 [* nDefault : Yes
4 ~9 t5 p+ i/ b: wForced : Yes
) N$ g2 v8 g6 I  j# Q' _/ ~5 S0 q+ e  r+ ?  {" S$ w% h* ~
Text #2+ e# S' F- |8 h. t8 }/ @- J
ID : 4+ u4 b& P/ K# d3 `, J4 ]; g# @
Format : PGS
; p/ N% v3 z' p% [Muxing mode : zlib; P& P+ `, d  G3 O
Codec ID : S_HDMV/PGS
0 y6 N' J6 B  x. p; K' TCodec ID/Info : Picture based subtitle format used on BDs/HD-DVDs7 R. C3 b, r2 ?- }
Duration : 2 h 3 min- L9 ?8 u) _% n9 f7 Z' G" a9 _
Bit rate : 25.2 kb/s$ a1 A7 L0 A1 f  _5 r5 w
Count of elements : 2545
) H. |, k5 l5 p9 S" b( y( @/ w# ~Stream size : 22.3 MiB (0%)
% K; U. F# c0 \2 \. V& b6 LTitle : English-PGS
# B4 @5 r4 G' a: J9 GLanguage : English6 {* t& v" B. j& r
Default : No9 j5 n, f: @" `0 A3 `, O
Forced : No7 g; Z- [6 X, w0 B+ l6 ~9 ^
4 }; H6 k" w& u, @3 R
Text #3. o7 [4 j( @# v- t" C1 T' V+ @7 |
ID : 5! {/ k. H( R9 j; i  W% r+ x9 }
Format : PGS
( O8 c2 l2 @3 b& a: \$ O  t1 g- J6 eMuxing mode : zlib. t) E# F) @: s% J; s
Codec ID : S_HDMV/PGS
1 ^  v. D7 M* I7 `Codec ID/Info : Picture based subtitle format used on BDs/HD-DVDs
' \4 z7 ^: S  \' n  X$ Q3 ODuration : 2 h 3 min: B" R- a+ ~# M, g
Bit rate : 21.9 kb/s0 M( |0 f( n% i
Count of elements : 2544
$ M$ d" C" J9 [Stream size : 19.3 MiB (0%)
# p9 H2 j7 ^: e! V" p# STitle : Chinese-PGS* {6 W! _) y& v
Language : Chinese% m: F; B- ?8 P5 \# z6 M" [  n' k
Default : No& @% g/ w7 c) {( K; o; G3 Y
Forced : No
4 ^6 w$ G* b6 Z# y# [! X  h7 ^0 P2 I2 |/ w+ l8 L+ V8 G1 O# @8 J
Menu, ~, Q  y. ~. k% r% ^
00:00:00.000 : en:Chapter 010 j4 i# f+ A5 j5 ^- c" Z
00:05:30.750 : en:Chapter 02
; m) C9 I) t& q3 g/ P00:10:19.541 : en:Chapter 03
& I4 a' o2 {( c00:15:23.958 : en:Chapter 045 B/ a: ^/ C9 G% W. l+ C3 w
00:21:28.375 : en:Chapter 054 Y: G: l" R0 \" ~& v2 A
00:29:21.083 : en:Chapter 06; V( Y& w* w' ]- z# u' r3 N
00:34:57.291 : en:Chapter 078 d: |$ ~5 X! e2 G3 e4 x
00:44:10.833 : en:Chapter 08
. V& d: P$ `8 g" c4 o00:55:46.541 : en:Chapter 09. |2 T; K* p; `7 N( g. k' J5 L
01:03:40.625 : en:Chapter 10
2 [0 U( d5 B3 ]1 `. ~' D& o% P01:11:23.708 : en:Chapter 11, x" K5 @. J% w: _9 N/ @& U
01:20:25.791 : en:Chapter 12
- {5 ~& }! T3 Y4 w0 r) {01:25:26.000 : en:Chapter 13
4 B! {0 r4 p4 Q2 Y01:30:21.125 : en:Chapter 14& {5 V( f1 f; ~# l( w7 K- b' a
01:34:57.208 : en:Chapter 15
7 `$ d% v. r( X& N01:43:10.750 : en:Chapter 16
$ J. c2 ]2 o: g, j8 }7 H01:49:39.083 : en:Chapter 17
; U$ D5 ]' e% n& [- L* X8 Y3 X0 ?01:55:43.166 : en:Chapter 18- i8 T/ c, U% `# L$ q
01:58:50.875 : en:Chapter 19
' H' d, V: v5 v+ t% F7 {02:06:48.750 : en:Chapter 20

# z% g6 G0 G' B* V- u  p! `
Video
  l! r. q" U6 }4 gID : 1+ R1 R8 p# c0 ~, S, W- z- Q- N* V
Format : AVC
4 ~! z% p2 j" n0 r9 d- NFormat/Info : Advanced Video Codec
  J8 v5 m8 q2 E) J3 CFormat profile : High@L4.1
. ^+ f, Z* Y! ]. v8 Z$ t2 U3 cFormat settings : CABAC / 5 Ref Frames
7 i3 ]. f) }! i; k( g- Z! q) J; pFormat settings, CABAC : Yes& u* v+ c+ k* H: j3 r
Format settings, ReFrames : 5 frames
) F* g; `# k& O% |4 E8 cCodec ID : V_MPEG4/ISO/AVC
) F2 f$ K- ]( E- `' uDuration : 2 h 10 min8 [9 i) ~. _% ]6 x  u6 f7 k
Bit rate : 18.5 Mb/s1 W& A. H' J0 _) U& k  h2 T
Width : 1 920 pixels
* j& c/ `6 ?; d6 Y( ]! sHeight : 804 pixels* N2 N- K. ]- S' M- V
Display aspect ratio : 2.40:1
: U2 G3 ~. C# j0 @0 xFrame rate mode : Constant
2 |& L, I3 b$ Z' j9 u/ Z' hFrame rate : 24.000 FPS
) z# \9 K* g% [. H3 B5 kColor space : YUV
' o% ]! J# f7 |5 r0 HChroma subsampling : 4:2:0
" h% t% p6 r6 }, QBit depth : 8 bits
% p0 ~% Q9 n2 i* X+ u* PScan type : Progressive
1 Y# j9 K( q- {+ ]Bits/(Pixel*Frame) : 0.499% C' j) l; t% T* P1 U
Stream size : 16.8 GiB (79%)0 J/ h6 }* b% x" p( Q. h$ S+ R
Title : Project.Gutenberg.2018.CHINESE.1080p.BluRaycd.x264.TrueHD.7.1.Atmos-FGT
6 M! E( Z9 x' C/ w2 B/ {4 aWriting library : x264 core 155 r2867+82 a249126 t_mod_Custom_2 [8-bit@all X86_64]$ ]3 k2 \9 r7 V6 R4 C* c
Encoding settings : cabac=1 / ref=5 / deblock=1:-3:-3 / analyse=0x3:0x133 / me=umh / subme=10 / psy=1 / fade_compensate=0.00 / psy_rd=1.05:0.00 / mixed_ref=1 / me_range=32 / chroma_me=1 / trellis=2 / 8x8dct=1 / cqm=0 / deadzone=21,11 / fast_pskip=0 / chroma_qp_offset=-2 / threads=24 / lookahead_threads=4 / sliced_threads=0 / nr=0 / decimate=0 / interlaced=0 / bluray_compat=0 / constrained_intra=0 / fgo=0 / bframes=7 / b_pyramid=2 / b_adapt=2 / b_bias=0 / direct=3 / weightb=1 / open_gop=0 / weightp=2 / keyint=250 / keyint_min=24 / scenecut=40 / intra_refresh=0 / rc_lookahead=60 / rc=2pass / mbtree=0 / bitrate=18500 / ratetol=1.0 / qcomp=0.60 / qpmin=0:0:0 / qpmax=69:69:69 / qpstep=4 / cplxblur=20.0 / qblur=0.5 / vbv_maxrate=62500 / vbv_bufsize=78125 / nal_hrd=none / filler=0 / ip_ratio=1.20 / pb_ratio=1.15 / aq=1:0.80 / aq-sensitivity=10.00 / aq-factor=1.00:1.00:1.00 / aq2=0 / aq3=0 / zones=2077,2408,b=2/86353,88927,b=2, v7 `( E: W) E$ \, }( m
Language : English) ~; _- L. Y9 T* ~5 R
Default : Yes; r- E- {0 z  {5 D
Forced : No4 g; }7 t& Y3 R0 ^$ P7 L

2 P8 m' |. F1 a+ RAudio #1' f3 J( H+ e" O. N
ID : 2
- X3 }. a: M$ VFormat : MLP FBA 16-ch
- \- p  K  B; E9 qFormat/Info : Meridian Lossless Packing FBA with 16-channel presentation
0 \( {' L  \7 f5 f# B: oCommercial name : Dolby TrueHD with Dolby Atmos% [$ k5 @" o* c# Y3 ]
Codec ID : A_TRUEHD. \, w  \) s6 u  k6 ^( h
Duration : 2 h 10 min; L! q; y2 _, ?. A5 A. |$ T! @$ f7 W& p
Bit rate mode : Variable
9 f% J7 ]9 w2 @! e3 [% X, vBit rate : 4 052 kb/s$ d, C; `6 @$ p; a, E
Maximum bit rate : 8 907 kb/s
! ~" Z3 I0 c" d' kChannel(s) : 8 channels
% c+ _% e) O* b6 SChannel layout : L R C LFE Ls Rs Lb Rb
; I) c/ c0 D6 }1 f: MSampling rate : 48.0 kHz
: d5 n% s+ l9 p+ [& ]Frame rate : 1 200.000 FPS (40 SPF)3 h1 w. h7 i% c# N5 n
Compression mode : Lossless( l& N  D- \0 w3 _8 B% p
Stream size : 3.70 GiB (17%)8 A% a- ~& A  O$ v2 o* r1 e
Title : Project.Gutenberg.2018.CHINESE.1080p.BluRaycd.x264.TrueHD.7.1.Atmos-FGT
9 [6 e. Z. J3 \9 h0 ZLanguage : Chinese
. K) H" U+ b# X( o6 i$ yDefault : Yes# N8 v( \* o' q4 v' X+ y4 X
Forced : No
; D3 f5 _' \6 _  ^' J) YNumber of dynamic objects : 11( J: c* T7 p/ t% j9 w8 C9 i
Bed channel count : 1 channel
2 @- Q' t  l5 _" D/ a9 e% {Bed channel configuration : LFE
7 d$ E* J( m. Q  k1 S7 S
0 D, G" h+ _8 Z* y6 d3 LAudio #2: k5 u8 Z8 q+ L0 d* ~
ID : 3, G. A+ H  r% n
Format : AC-3! @6 ^4 ~. c" s: S- J# ^1 |4 j7 K
Format/Info : Audio Coding 3
( e; m5 K4 e8 n6 l+ KCommercial name : Dolby Digital3 z. K- u% W$ _: {. ^* \
Codec ID : A_AC3
: Y  K1 |$ A( P7 h; VDuration : 2 h 10 min
4 I" ~7 H/ g( ]" KBit rate mode : Constant4 T. T  Y  ]0 x$ Y- V
Bit rate : 640 kb/s
' K- H2 J$ l, }6 z! fChannel(s) : 6 channels4 I9 G4 F, l7 c: J7 ~6 H( ]
Channel layout : L R C LFE Ls Rs
' m- Q+ q7 q& y" uSampling rate : 48.0 kHz
  t6 b* v$ Y2 A9 c; }' t$ UFrame rate : 31.250 FPS (1536 SPF)
0 Y1 e0 Q3 p+ g* l- OBit depth : 16 bits
2 M4 {( Z6 z  Z5 [: bCompression mode : Lossy6 O: O* l- n4 A
Stream size : 598 MiB (3%)2 }4 b1 s2 M( k4 |7 Z
Title : Project.Gutenberg.2018.CHINESE.1080p.BluRaycd.x264.TrueHD.7.1.Atmos-FGT
1 k: A. w0 h1 Z5 S1 l& t+ GLanguage : Chinese* \3 ^8 K) z3 u6 D# T& I
Service kind : Complete Main
& w% {& t2 b7 nDefault : No; ~2 |; R6 B8 J6 k9 [  @
Forced : No6 x  E/ ~7 @3 q, N* b

, a1 J# O8 K1 C8 m5 s/ x5 {. {Text #14 U' u( s; s3 [* L5 b* Y" R9 b
ID : 4  ^4 q- d  t6 W
Format : UTF-83 X* R& }5 T+ a- L
Codec ID : S_TEXT/UTF8
: l6 k! e6 z/ }+ G1 dCodec ID/Info : UTF-8 Plain Text. ~6 B4 T4 T2 j9 G9 A
Duration : 2 h 3 min
9 {. r+ }+ m% b, u; qBit rate : 38 b/s
, M2 S- p. a& I/ |! v7 yCount of elements : 1417/ d0 }% B1 V9 ^9 z2 v8 ^/ s8 ~
Stream size : 35.0 KiB (0%), e: w( h: W4 J* H  Z; c
Title : English-SRT
6 f2 @5 ~4 L) f" uLanguage : English( o! l" W# W" c
Default : Yes
* h0 t1 ]3 ^! l; ~Forced : Yes; \$ V; }2 I/ T; I* a

8 @% l% H7 `, P" m8 H% nText #2; i) p. S1 i5 y6 L. S; }: Z
ID : 54 ]2 L- j  v. [8 w5 c$ k( H
Format : PGS7 X$ @4 q, p  t" Q. }5 M$ F
Muxing mode : zlib
: [4 G- n9 W6 y$ ~Codec ID : S_HDMV/PGS
9 o4 ]4 ~( s( W& @3 I0 E' H& D* h  a3 ICodec ID/Info : Picture based subtitle format used on BDs/HD-DVDs" @4 V+ P  ^0 x2 c, o9 I- f) c
Duration : 2 h 3 min
& f! M1 R, X3 I) O% N4 nBit rate : 25.2 kb/s3 L- m4 U3 _, N# A" ~( T% _' c. g
Count of elements : 2545
) n& Z$ i8 ?$ L7 M( fStream size : 22.3 MiB (0%)
4 s5 q( d. A7 t2 gTitle : English-PGS
2 M; C4 J# [/ G0 nLanguage : English8 L. O' c3 P4 J1 v( Z( I
Default : No
/ ^# T/ Z9 B4 f9 @Forced : No# f  V+ g* P% b+ }
* q$ ^5 A. x- c0 u8 V0 b1 X
Text #3: B! e$ v  ?& ~" P0 W: }: e( H' a3 E
ID : 6
7 y: H+ ^2 V. LFormat : PGS
8 `0 e9 l" A$ t- ^6 q  rMuxing mode : zlib9 {$ s6 m- _' ~& ?  y9 E% M& U
Codec ID : S_HDMV/PGS2 M1 O) C1 D; ]+ o) N
Codec ID/Info : Picture based subtitle format used on BDs/HD-DVDs
; I/ l6 `. G9 A4 J" {* }' MDuration : 2 h 3 min& j. D: T  e. r3 d! s+ ~$ ?& ^
Bit rate : 21.9 kb/s1 T4 F/ }$ L1 e2 L
Count of elements : 25440 c$ Y# W! h  n2 F
Stream size : 19.3 MiB (0%)* h& A" [' R3 l& G, [
Title : Chinese-PGS; P- V( U; ?+ Y* M, t( C3 }
Language : Chinese
% w! K! V$ q! A( N! i; ]0 X! C5 \; Z. ADefault : No
, E  a1 K8 d6 {6 H+ aForced : No6 m% t) a- Q% u0 x( b

0 I, _- ]7 w! @2 {Menu
, n! H0 q4 N: Q3 V00:00:00.000 : en:Chapter 01
8 L$ f3 P% A2 p' h, z9 ?00:05:30.750 : en:Chapter 02" o8 X# W! L; S
00:10:19.541 : en:Chapter 03
5 i4 I% f+ ~& M- `' p8 O/ G00:15:23.958 : en:Chapter 04; ~4 P7 g. ^: p, _
00:21:28.375 : en:Chapter 055 h3 J" Q& p- l- E& H3 o. {0 B* u
00:29:21.083 : en:Chapter 06
- k; r* J. U1 {4 C; ]/ J00:34:57.291 : en:Chapter 07
; G7 t" h! q" J  T00:44:10.833 : en:Chapter 080 w7 K% ^7 q- C( i; o
00:55:46.541 : en:Chapter 092 }( H& x, u. g( W  W
01:03:40.625 : en:Chapter 10
$ _3 T, a$ K1 w; A1 ^3 a01:11:23.708 : en:Chapter 11
% k% P2 T" d1 P1 R01:20:25.791 : en:Chapter 12
( Q" r; k; y+ v, I+ K7 |01:25:26.000 : en:Chapter 13- D0 C$ M" y5 C+ F
01:30:21.125 : en:Chapter 14" i( R5 g+ J* o0 u" ^# u0 s
01:34:57.208 : en:Chapter 15/ s# p/ e+ c, N" b+ S; m( d+ ?
01:43:10.750 : en:Chapter 16
' C" Q3 J$ |/ Y+ n3 X! P) \01:49:39.083 : en:Chapter 17( I( c+ c7 @( Z" ~) [5 @) M0 x
01:55:43.166 : en:Chapter 18/ x+ J, \; Q  }0 m" f" o* T
01:58:50.875 : en:Chapter 19
* |( F  y% E3 a# T5 O, I; V" f* x$ D' H02:06:48.750 : en:Chapter 20
  G- n1 E; J( p4 N7 l: L3 E
游客,查看本帖隐藏内容请回复 | 加入VIP可免积分免回复 了解详情 | 还不是会员:点击获取邀请码 Invitation Code

31

主题

4102

回帖

2万

积分

Sponsor

金币
3077 枚
体力
9887 点
QQ
shiji1973 发表于 2019-2-4 16:47:21 | 显示全部楼层
感谢分享精彩电影

10

主题

823

回帖

6704

积分

VIP Primary

金币
1252 枚
体力
3242 点
我喜欢你快乐 发表于 2019-2-9 09:49:12 | 显示全部楼层
感谢楼主分享。

0

主题

778

回帖

3540

积分

Sponsor

金币
37 枚
体力
2009 点
QQ
sunday_119 发表于 2019-3-26 18:41:26 | 显示全部楼层
啥也不说了,楼主就是给力!' _  |0 t# A. p' d  n- G, L. P1 v
Thank you for sharing such a good resource polite reply, very sorry for myself!
% p% f8 H! D# b/ @" d

3

主题

179

回帖

1334

积分

Sponsor

金币
9 枚
体力
989 点
知懒而长乐 发表于 2020-1-31 13:11:29 | 显示全部楼层
蓝光盘就是无双的帅气

0

主题

86

回帖

321

积分

Sponsor

金币
2 枚
体力
142 点
qiusefengye 发表于 2021-6-2 17:46:54 | 显示全部楼层
感谢分享精彩电影

本版积分规则

小黑屋|手机版|Archiver|4K蓝光论坛

GMT+8, 2024-4-15 12:54

Copyright © 2001-2021, Gadaddy Cloud.

快速回复 返回顶部 返回列表