BluRayCD Forum

 找回密码
 立即注册【分享大片】

QQ登录

只需一步,快速开始

查看: 46|回复: 5
收起左侧

[科幻恐怖] 四十七浪人/浪人四十七/浪魂47 [基努·李维斯奇幻动作] 47 Ronin 2013 1080p BluRaycd x264 DTS-X 7.1-FGT 12.93GB & 15.35GB & 8.74GB

[复制链接]
  • TA的每日心情

    2020-5-19 13:38
  • 签到天数: 192 天

    [LV.7]以坛为家

    3506

    主题

    3858

    帖子

    3万

    积分

    Post Share

    金币
    6177 枚
    体力
    5618 点

    卓越贡献勋章

    mvods 发表于 2020-5-3 20:35:34 | 显示全部楼层 |阅读模式
    01.jpg
    6 ~. [& ?6 C. f6 M% o# |( P$ {$ {! e
    ◎译  名 四十七浪人/浪人四十七/浪魂47(港)1 T3 i$ `+ ~4 x; E% |
    ◎片  名 47 Ronin
    0 r! t- z+ [3 r3 O◎年  代 20139 [0 B* v2 }- J" Q
    ◎产  地 美国" i9 O& |% {) l
    ◎类  别 剧情/动作/奇幻6 o4 Q+ y* G3 l# F2 V* f
    ◎语  言 英语/日语, L3 z2 J8 `& X% U; |9 G6 B
    ◎上映日期 2013-12-06(日本) / 2013-12-25(美国)
    . s: l5 ?3 u5 W◎IMDb评分 6.3/10 from 141,661 users
    5 A5 ~: R0 E& {& K8 w◎IMDb链接 https://www.imdb.com/title/tt1335975/
    1 w0 A3 F6 i/ X& T0 x◎豆瓣评分 5.7/10 from 14,577 users
    & c7 Q( E0 B- m8 S& N$ w' I◎豆瓣链接 https://movie.douban.com/subject/3326730/
    % B/ K% S( V$ Z◎片  长 1 h 58 min3 Z5 ?# |' A: R9 q
    ◎导  演 卡尔·瑞奇 Carl Rinsch
    + _  X5 r! i6 g1 c* C◎编  剧 卡尔·瑞奇 Carl Rinsch5 ^' k6 O6 i/ h: B) `; B
          霍辛·阿米尼 Hossein Amini
    ( N3 Y8 U) o. O! i+ Y. j◎主  演 基努·李维斯 Keanu Reeves
    # Z' M4 U0 Z1 i      真田广之 Hiroyuki Sanada! y; }5 L- g' ?& v, R' ?/ N
          浅野忠信 Tadanobu Asano8 f0 m: m0 T1 j/ g  W
          菊地凛子 Rinko Kikuchi/ U5 a, O, T" \9 |$ Z
          柴崎幸 Kou Shibasaki1 J- l, h) b: s3 L% P5 v+ ]
          赤西仁 Jin Akanishi
    ) k% q  h9 g- s4 C7 z& x9 `0 R  f5 o9 f1 [& D
    ◎标  签 日本 | 美国 | 武士 | 动作 | KeanuReeves | 浪人四十七 | 美国电影 | 赤西仁
    & o6 a: a) l5 p9 \  H* G' N( A# X
    ◎简  介
    % e6 s5 X- I& _! v% M) e' h) U) v2 R0 z: D) h/ Q6 B. {2 V5 o8 V
      古老的日本进入江户时代,德川幕府闭关锁国,维持着与世隔绝的和平和将军家的绝对统治。五代将军纲吉(田川洋行 饰)在吉良上野介(浅野忠信 饰)的陪同下造访浅野内匠头(田中泯 饰)所领导的播州赤穗藩。吉良阴险狭隘,野心勃勃,他利用妖女美月(菊地凛子 饰)迷惑浅野藩主,令其对吉良挥刀相向。震怒的将军责令浅野切腹,并严禁赤穗藩的家老大石内藏助(真田广之 饰)挟私报复。高傲的武士们一瞬间沦为浪人,而藩主自由收养的混血儿魁(基努·李维斯 Keanu Reeves 饰)更遭到不公的对待。经过一段时间的忍辱负重,大石将四十六位忠勇的赤穗藩武士集结麾下,暗中展开针对吉良的复仇。他辗转找到了魁,自幼爱慕藩主女儿美伽(柴崎幸 饰)的魁,为了防止心上人被吉良玷污,选择加入了复仇集团。" ]/ E; }. v# t2 [8 T
    ; D) O$ f2 `7 N( [  l
      四十七浪人的经典故事,以别样的形式呈现出来……2 ]$ p/ w: _4 Z! u9 i. b9 r* S
    $ E& ^/ j; G( u
      A band of samurai set out to avenge the death and dishonor of their master at the hands of a ruthless shogun. - e0 l& ^/ \; F8 F, `1 V4 @5 @

    * ^) I8 z9 W2 R0 w& Y0 p◎获奖情况
    . f0 V. l  A4 n: `! ?3 y" B+ \
    1 h- H, X1 l1 H! t  第61届美国音效剪辑协会奖(2014)! x/ p: w2 H/ m8 m" H3 v
      金卷轴奖 最佳配乐剪辑(提名) Andrew Silver / Peter Oso Snell / Julie Pearce / Kenneth Karman- d. L& `1 }' G* v/ y9 N' ?
    Video
    $ J% E+ V) I' ]* m+ ^ID : 1
    4 E$ z! p7 o2 \: n1 ^' {Format : AVC4 Z) c5 G. K; D( N) n. Q: ~5 `
    Format/Info : Advanced Video Codec2 Q/ s' k" ^  F# `. i; J1 l
    Format profile : High@L4.1" ~; J+ `7 L- n+ W2 ?9 X- b$ q* s
    Format settings : CABAC / 5 Ref Frames
    ' e& h8 C& M  @# `9 e: `" rFormat settings, CABAC : Yes5 Y% D* M# U: U* ]( x" C
    Format settings, Reference frames : 5 frames
    4 @. e, b6 u. vCodec ID : V_MPEG4/ISO/AVC$ [/ E) `  T1 q! b7 d
    Duration : 1 h 58 min
    , a' c$ @; l7 P. d: ABit rate : 9 032 kb/s
    4 r: B" T8 V8 ]% `3 _. ]Width : 1 920 pixels
    0 B+ K/ z1 T8 ]: `+ U) i8 QHeight : 800 pixels( ]+ u3 m- M2 V6 G: v7 f1 i3 E
    Display aspect ratio : 2.40:1; u. t6 T: T9 Y9 `
    Frame rate mode : Constant
    ) b, K* I$ S# C- uFrame rate : 23.976 FPS# ~; x" K# F' H; [7 }0 i
    Color space : YUV# p) _' o5 L* R
    Chroma subsampling : 4:2:0
    1 ]3 s0 s0 `6 l0 xBit depth : 8 bits
    $ J8 I$ x. ?2 ~! {* YScan type : Progressive
    6 {' h: t! C2 }! V- E+ qBits/(Pixel*Frame) : 0.245
    5 G+ D3 n/ p  M' }Stream size : 7.49 GiB (58%)* q* Z7 L# g2 A4 u' e1 C
    Title : 47.Ronin.2013.1080p.BluRayCD.x264.DTS-X.7.1-FGT
    : o( ?. D5 q3 }$ ~8 L+ hWriting library : x264 core 140 r2377 1ca7bb9
    & ~. L& \9 ^! a8 ]+ wEncoding settings : cabac=1 / ref=5 / deblock=1:0:0 / analyse=0x3:0x133 / me=umh / subme=7 / psy=1 / psy_rd=1.00:0.00 / mixed_ref=1 / me_range=16 / chroma_me=1 / trellis=1 / 8x8dct=1 / cqm=0 / deadzone=21,11 / fast_pskip=0 / chroma_qp_offset=-2 / threads=18 / lookahead_threads=3 / sliced_threads=0 / nr=0 / decimate=1 / interlaced=0 / bluray_compat=0 / constrained_intra=0 / bframes=3 / b_pyramid=2 / b_adapt=1 / b_bias=0 / direct=1 / weightb=1 / open_gop=0 / weightp=2 / keyint=250 / keyint_min=23 / scenecut=40 / intra_refresh=0 / rc_lookahead=40 / rc=2pass / mbtree=1 / bitrate=9032 / ratetol=1.0 / qcomp=0.60 / qpmin=0 / qpmax=69 / qpstep=4 / cplxblur=20.0 / qblur=0.5 / ip_ratio=1.40 / aq=1:1.00* Z2 C4 I& j) \8 E
    Language : English. g( y/ ?( H0 o: h% a
    Default : Yes& Z& }( V: R% e8 X7 R+ R) B0 [
    Forced : No  x- ?- G* Z; l5 X' o( m8 W

    - F: c' P2 T/ ^0 o/ qAudio3 R9 o5 D9 s1 @2 X: |. S
    ID : 20 Q- \$ y; Y4 v
    Format : DTS XLL X
    3 _# E# |& Y; ]6 N) IFormat/Info : Digital Theater Systems
    # J  c% g- H* _# uCommercial name : DTS-HD Master Audio
    ; j- D! T" b/ N' q7 f7 tCodec ID : A_DTS
    3 n& J  F, q- jDuration : 1 h 58 min
      o% u/ W9 O0 c7 @8 V' M2 |Bit rate mode : Variable
      y! ~+ E; o5 F/ `. N) [2 eBit rate : 6 543 kb/s- c; ~4 [- x" [) J8 O1 \4 |, J  a  Y, ]
    Channel(s) : 8 channels
    + h$ k7 w9 Y! v, c7 \( jChannel(s)_Original : Object Based4 Z- ]7 F* g+ A4 b$ Z/ J2 m9 z
    Channel layout : Object Based
    . `( u; x% G  S2 z; `1 h. TSampling rate : 48.0 kHz
    ' u$ D* Q& E  QFrame rate : 93.750 FPS (512 SPF)2 r! I. B9 C2 J% x( v" v* D
    Bit depth : 24 bits' G5 a/ q( K9 y2 Y" z( k8 r
    Stream size : 5.42 GiB (42%)
    . w/ ]: k0 S9 GTitle : 47.Ronin.2013.1080p.BluRaycd.x264.DTS-X.7.1-FGT
    8 O/ k: X/ L% U1 N3 k. r) ?Language : English
    3 y3 N2 `2 `( k; N9 LDefault : Yes7 q! D( u+ v" }3 b: P
    Forced : No! O. c2 j: S1 H1 o$ {1 h/ ^
    $ j; s& D: f& X8 V$ ~* f
    Text #1
      D, y% F7 z+ oID : 3) A& n3 J/ C% q$ Y7 u
    Format : UTF-8
    % Q7 ]" Q6 O# H2 u6 kCodec ID : S_TEXT/UTF88 b$ z) k* }7 a0 ]8 p0 Y
    Codec ID/Info : UTF-8 Plain Text& Z6 l0 J/ T% h& }% r+ L7 s
    Duration : 1 h 47 min
    & Z  O: D/ o: z8 n  N1 ZBit rate : 24 b/s
    8 J* f. R% [$ `8 ?( p3 `* S2 F& b6 DCount of elements : 621
    # }& T9 M; t0 v7 Y0 qStream size : 19.3 KiB (0%)
    2 P# n, e+ D; o  HTitle : English-SRT
    * s; s  L' c" _Language : English* p' K% h  @8 d2 G0 I% u1 b" S: ?
    Default : Yes0 |( q+ j4 A* ]6 _2 i
    Forced : No
    - c# P/ W. M+ a9 R' X* J; L% }( }6 H6 Z+ X, n, Y: [& H% _7 q
    Text #2# t% ^8 f# {$ J' q. H4 a1 q( R
    ID : 4
    % A$ {2 @3 f' l6 zFormat : PGS
    % a# @- K1 S' h! c4 \7 r9 _- NMuxing mode : zlib' v0 l0 D) A2 R
    Codec ID : S_HDMV/PGS, p! y0 {" b) a& Q! t6 Z
    Codec ID/Info : Picture based subtitle format used on BDs/HD-DVDs
    1 A5 P' Y& _  D8 H5 E% I- EDuration : 1 h 47 min% i( a) k+ J% t3 Z1 F- i
    Bit rate : 16.8 kb/s
    ! |: z5 ^$ b" uCount of elements : 1484! S+ p4 Q: s/ Y8 b9 m' o
    Stream size : 13.0 MiB (0%)
    # ~1 G) ~; J( k/ b- C6 }Title : English-PGS
    * o. l, N; `) U. }. b  z) ^Language : English
    ) u- R% j% Q; }$ nDefault : No5 J  ^- D3 _! @: x
    Forced : No
    . d: ]6 g* A; j. ^' i( i9 e$ A0 j) U5 U- J; U( I2 m5 [
    Text #31 J* F3 P6 X, z5 X
    ID : 5! M: }9 t/ A  f8 ?2 p7 I
    Format : PGS9 K" a6 S4 n0 G8 x, Y
    Muxing mode : zlib
    + b+ A" L# J: ]  w  m3 T" z" yCodec ID : S_HDMV/PGS- z. A4 Y1 D* z. B5 ^
    Codec ID/Info : Picture based subtitle format used on BDs/HD-DVDs
    4 Z5 ^/ K" l3 b' j+ cDuration : 1 h 47 min
    . \) G3 Y* `, e$ nBit rate : 16.5 kb/s; S: u8 U5 f" h7 z& c
    Count of elements : 1336: o1 D; Z4 D! a
    Stream size : 12.8 MiB (0%)& }' o1 \0 R# P2 B3 b' ^
    Title : French-PGS& I0 w2 _3 N$ [3 X9 k( [
    Language : French
    ; V/ ~* C7 p; |, vDefault : No2 T5 Z6 @! O. R1 E/ o' t3 g
    Forced : No
    , e* P1 [0 y  Q5 L6 e# N
    ' s4 o; C& N0 G/ a. L. p+ [3 a% ?) pText #42 R: @6 t% D9 i# l& o
    ID : 6
    & X' l. T! P8 d& E  B2 Q/ F+ zFormat : PGS8 j' v" F& ?3 ~% a) Y* D
    Muxing mode : zlib
    - Q$ O3 |- J6 O3 i( N$ o! eCodec ID : S_HDMV/PGS
    6 }7 n' I+ Q$ y" D! LCodec ID/Info : Picture based subtitle format used on BDs/HD-DVDs! \% T6 ~" N( L
    Duration : 1 h 47 min; `  X* t2 b  A& R4 _3 h
    Bit rate : 15.5 kb/s
    6 @- r4 ~# T# v- L+ a3 fCount of elements : 1384  E* l# n8 H4 N) s; ~7 w6 {# y
    Stream size : 12.0 MiB (0%)6 Q  m. P1 m5 j" t& v3 s5 f- a
    Title : Spanish-PGS1 N8 E/ o: ?, P- X6 o; N
    Language : Spanish
    + l8 a6 C$ v; R/ b$ M2 IDefault : No6 ^* ?2 i2 P1 m+ W
    Forced : No& T$ {8 n$ E, c
    ( u: E% }) c& D  j9 ^% E
    Text #5; D5 p: A- f! f: l
    ID : 74 Y# Y3 }+ A' U
    Format : PGS* B* w' V" J& _. T; B  f( a- U
    Muxing mode : zlib+ H+ _# `& \( Y
    Codec ID : S_HDMV/PGS
    4 f% K. Y( ^! f$ L9 |Codec ID/Info : Picture based subtitle format used on BDs/HD-DVDs0 O) W6 H- ]% ^, @0 {: m* O
    Duration : 1 h 57 min
    ' v: r/ _' @$ }, g0 o! r6 Z) gBit rate : 13.9 kb/s7 Z9 W+ @" Y6 V7 I) L$ o
    Count of elements : 1390$ _  r* Z! k% l
    Stream size : 11.7 MiB (0%)2 b1 B& B. a& F+ ]
    Title : Portuguese-PGS( @2 |1 _- N+ d- m' J
    Language : Portuguese0 U. O7 q# L" {2 D" @4 k
    Default : No
    ; s0 @* h! k( ~6 M0 iForced : No1 d! w( D8 j& u+ ?/ p  q% k: G) r

    5 f; s: o3 a% R9 p* b: o/ f6 EMenu! k: L. E. F% e% P9 r
    00:00:00.000 : en:Chapter 01& M( l& c+ u1 k! ]( @8 |' ?
    00:04:27.559 : en:Chapter 02
    / e3 x/ b6 s) y00:11:12.088 : en:Chapter 03
    ; W  D6 U; \4 z  S9 @: D00:16:27.820 : en:Chapter 04' r. A2 S/ w" }& s! ]8 c$ i6 Y' ~9 y
    00:20:11.836 : en:Chapter 056 t3 ^$ i! p, p
    00:26:52.319 : en:Chapter 06( \, O7 w5 O% Q9 t; x! ?
    00:31:02.944 : en:Chapter 07
    ! L9 G) W% _9 I, M: k9 h" ]' b# W00:36:10.627 : en:Chapter 08
      R; C( i) ~" @3 K00:43:36.614 : en:Chapter 09
    : h& @3 U; T8 \# J: r4 x8 x00:50:14.511 : en:Chapter 10
    1 D3 o; ~# |1 e. I* y! g0 D% T00:54:59.421 : en:Chapter 116 X3 [+ F) Z: ~8 C9 T. ^2 ]. _
    00:59:54.049 : en:Chapter 12
    % M: h& S2 i$ c" L2 Z( h4 P8 O8 q# C: S01:09:57.735 : en:Chapter 13; U6 _: a8 V, i$ S2 n5 u$ k
    01:13:59.018 : en:Chapter 14
    8 q. q! I/ U1 p% m! X01:19:12.247 : en:Chapter 152 P) S9 R4 A8 m! U5 \$ I9 s
    01:24:17.386 : en:Chapter 16
    . w1 y3 }+ x) ^01:33:00.825 : en:Chapter 17
    2 g2 w+ x& o3 @  S1 G2 Q. o2 W8 L01:38:55.555 : en:Chapter 185 e  T, }0 J% Y" [. m% {
    01:44:41.609 : en:Chapter 19
    6 w; K' V' ]2 m. k$ ?01:48:38.303 : en:Chapter 20
    47.Ronin.2013.Bluraycd.1080p.DTS-HD.x264-Grym* F1 `9 E' @3 x$ v# s7 q4 |
    ) n& @2 C/ ~# t
    A band of samurai set out to avenge the death and dishonor of their master at the hands of a ruthless shogun.8 U) \) i; Z: H: M2 f" ?2 j; K& Q
    / f: `% R+ w0 b
    Director..........:  Carl Rinsch
    # c. Q3 O+ Z! ^* x- W; Q% @+ v3 w9 rWriters...........:  Hossein Amini & Chris Morgan (Screenplay)6 m( Y+ q0 K" r7 U$ p* V2 h
    Starring..........:  Keanu Reeves, Hiroyuki Sanada, Ko Shibasaki         
    7 J' E# \) J/ J  w, U: ~* o, yiMDB URL..........:  http://www.imdb.com/title/tt1335975  _6 H) g. o$ s6 v
    SOURCE TYPE.......:  Retail Blu-ray 33,5 GB Movie @ 32988 kbps / 42,0 GB Full/ i9 }2 w% s8 I. d5 U( l7 r
    ViDEO SPECS.......:  x264 2PASS @ 14000+ Kbps (High@L4.1) - 23.976 fps; b% S4 ^: w7 G% ~$ p
    AUDiO SPECS.......:  English DTS-HD Master 5.1 3513 kbps 48 kHz 24 bit
    ) `0 C0 q4 s, [$ yRUNTiME...........:  1h 58 min
    & s% z/ \; [' Z& y: ^8 lMOViE CROPPED.....:  No
    # L+ z  w; H6 e, N6 `FiLM ASPECT RATiO.:  2.35:1 Anamorphic Scope / Letterbox& j* a% M( @* |" D
    RESOLUTiON........:  1920 X 1080
    1 r; j1 j9 Y7 v! }8 C8 I6 Z. r6 o5 QEXTRAS............:  Yes8 N% ^" ]! u1 g2 {4 e
    SUBTiTLES.........:  English, French, Spanish& d% x7 D) b" Q% O
    SUBTiTLES EXTRAS..:  English, French, Spanish
    1 V% d+ N4 ~$ ^. ]
    游客,查看本帖隐藏内容请回复 | 加入VIP贵宾组可免积分免回复下载 立即了解 | 还不是会员:点击获取邀请码 Invitation Code
  • TA的每日心情
    擦汗
    5 天前
  • 签到天数: 102 天

    [LV.6]常住蓝盘

    552

    主题

    1640

    帖子

    1万

    积分

    VIP advanced

    金币
    1230 枚
    体力
    3844 点

    公主勋章卓越贡献勋章

    21cn 发表于 2020-5-3 21:16:16 | 显示全部楼层
    膜拜神人,后来者请保持队列……!
    ; L: h' ]8 c( i+ ]. D! [3 UNot see, I am a novice, the inadequacies of the first Please bear with me!8 t! E7 p6 t. h0 \# T
  • TA的每日心情
    奋斗
    半小时前
  • 签到天数: 73 天

    [LV.6]常住蓝盘

    6

    主题

    1131

    帖子

    6075

    积分

    Sponsor

    金币
    760 枚
    体力
    3049 点
    QQ
    shiji1973 发表于 2020-5-4 11:27:24 | 显示全部楼层
    感谢分享精彩电影
  • TA的每日心情
    开心
    5 天前
  • 签到天数: 33 天

    [LV.5]暂住蓝盘

    35

    主题

    850

    帖子

    3252

    积分

    Sponsor

    金币
    364 枚
    体力
    1134 点
    lanpanshuma 发表于 2020-5-4 13:47:18 | 显示全部楼层
    Bluraycd又有新电影发布了,激动中……!
    - c, W7 y0 F. o4 A" W3 Y2 c4 l6 dBluraycd.com movie updates really fast, also did not release issued, whether you believe it or not, anyway, I believed!
    该会员没有 ...
  • TA的每日心情
    开心
    4 天前
  • 签到天数: 56 天

    [LV.5]暂住蓝盘

    2

    主题

    558

    帖子

    2339

    积分

    Sponsor

    金币
    537 枚
    体力
    756 点
    tto138 发表于 2020-5-4 20:10:28 | 显示全部楼层
    楼主发贴辛苦了,I*老*虎*U!  q  J: ?9 h1 T) W5 @$ Y! w
    The decisive Replies sink is I get the sinking feeling great sense of accomplishment!3 c8 r9 Z0 P& e6 k% {9 _; m

    该用户从未签到

    0

    主题

    77

    帖子

    482

    积分

    Sponsor

    金币
    4 枚
    体力
    318 点
    zuiqingfeng 发表于 2020-5-4 21:12:10 | 显示全部楼层
    感谢楼主分享好电影

    本版积分规则

    小黑屋|Archiver|蓝光电影资源网

    GMT+8, 2020-6-2 12:41

    快速回复 返回顶部 返回列表