BluRayCD Forum

 找回密码
 立即注册【分享大片】

QQ登录

只需一步,快速开始

查看: 12|回复: 0
收起左侧

[2160P极清] 闪灵1/幻觉 [4K HDR导剪版 自带中字] The Shining 1980 US DC 2160p UHD BluRaycd X265 10bit HDR10Plus DTS-HD MA 5.1-IAMABLE 46.84GB & 42.28GB

[复制链接]

4322

主题

4481

帖子

5万

积分

Post Share

金币
8018 枚
体力
16188 点

卓越贡献勋章

黄金嫖客 发表于 2020-5-14 19:40:05 | 显示全部楼层 |阅读模式

$ K* d; b) o8 d7 @* `! a) i. V2 }% E0 \3 U; \- L! G+ x5 e; h* v
◎片  名 The Shining2 }  ^# n3 p% I& F7 a) `
◎译  名 闪灵/幻觉/幽光/鬼店(台)' F9 y& }0 Y4 p4 @7 ?9 c
◎年  代 19800 a  {7 _( R, c2 t
◎产  地 英国/美国: E8 L5 u3 [2 d! s
◎类  别 剧情/悬疑/恐怖
# m3 ?0 E2 F  @8 z◎语  言 英语
% Y6 b0 j: y1 f3 n4 m% n◎上映日期 1980-05-23(美国)4 I# S7 v/ R/ N9 b! D  g, \
◎IMDb评分 8.4/10 from 798,884 users& l$ E( z( X9 j4 b3 E
◎IMDb链接 http://www.imdb.com/title/tt0081505/
3 n8 D! ]0 o7 `0 c◎豆瓣评分 8.1/10 from 250,508 users2 H2 V8 N8 W; m* ~9 k
◎豆瓣链接 https://movie.douban.com/subject/1292225/
* H8 |7 _" V; f& K+ s% W- e◎片  长 2 h 23 min
' r  Z6 j/ b: p0 Z8 q◎导  演 斯坦利·库布里克 Stanley Kubrick) S. }5 _! Q2 j  e7 F7 s
◎编  剧 斯坦利·库布里克 Stanley Kubrick
( o* y. H+ e# v) p" D       黛安·约翰逊 Diane Johnson ( o$ [/ a, ^+ H$ y7 N. O
       斯蒂芬·金 Stephen King
9 ^# m& ~7 f6 K6 S6 [/ N! t* P◎主  演 杰克·尼科尔森 Jack Nicholson
: l1 m, E0 u9 ]  _5 a9 e       谢莉·杜瓦尔 Shelley Duvall0 Q5 h& h1 Z6 B1 |" _- E$ A
       丹尼·劳埃德 Danny Lloyd/ }# H- y; w: ]0 j' o4 W8 y7 @
       斯加特克罗索斯 Scatman Crothers
- }/ N1 a! B3 T       巴瑞·尼尔森 Barry Nelson
6 u+ h# j3 G% h: x  C       菲利普·斯通 Philip Stone
: A" c( Z4 y- J' k* g       乔·托克尔 Joe Turkel
- `2 w: p; \, Z' _' |* d( G       安妮·杰克逊 Anne Jackson
; P) E9 W3 `8 ?3 I. M) L' a       托尼·伯顿 Tony Burton0 q1 G* O1 ^& y' e  A
! @) ~( e5 N4 o
◎标  签 惊悚 | 恐怖 | 美国 | 悬疑 | 库布里克 | 斯坦利·库布里克 | 恐怖片 | 美国电影! `2 j7 K5 C% Z9 B2 O

5 R0 S: [" J- x◎简  介  
. V* K' Q' Z/ `: a; N& j0 B
: @1 V# J+ \& a4 U  杰克(杰克·尼科尔森 Jack Nicholson 饰)是一个作家。一个冬天,他得到了一个看管山顶酒店的差事。这正合杰克的意思,他正好可以有一个幽静的地方写作。于是杰克带着妻儿搬进了酒店。2 F5 B. P, S# M

5 g9 I) O$ R5 t/ W% |  冬天大雪封路,山顶酒店只有杰克一家三口。从他们一搬进来,杰克的妻子温蒂(谢莉·杜瓦尔 Shelley Duvall 饰)就发现这里气氛诡异,杰克的儿子丹尼(丹尼·劳埃德 Danny Lloyd 饰)经常看到一些他不认识的人,但这里除了他们一家别无他人。而杰克除了一整天闷头写作外,脾气亦变得越来越古怪。
  x: }; t0 g' s4 s6 D7 N, `4 t! Q% q% D
2 Q* {# R. t: R1 k& v  直到有一天,温蒂发现丈夫这些天来一直写就只有一句话:杰克发疯了!
: D& c! J4 P6 Z  M/ K# D; q" C" A2 s2 P5 e- p+ F- Z
  A caretaker of an isolated resort, has a complete mental breakdown, terrorizing his young son and wife.
6 m( O0 J& _4 p! I& T) F2 _. r9 F2 M5 `
The.Shining.1980.INTERNAL.HDR10Plus.2160p.UHD.BluRayCD.X265-IAMABLE0 C7 `. ~+ C0 F% @6 Q
( g# I: V2 z+ g+ O
Date .....: 09/20199 K. W1 a# O8 q- J
Runtime ..: 02:23:45# l2 W& }; ?, U" `! h
Video ....: 3840x2160 (23.976fps @ CRF 15.0)) X& `8 J1 d1 R, N) ~" l) s2 S
Audio ....: DTS-HD MA 5.1 / AC-3 2.0 (Commentary with steadicam operator, Garrett Brown and Kubrick biographer John Baxter)+ u: @: ]- X+ x, Y  j
Lang .....: English4 T, s% Z  j5 W. x; E5 M  l5 R0 X0 k9 k
Subs .....: English, French, Spanish, Italian, German, Dutch, Swedish, Norwegian, Danish, Finnish, Russian, Czech, Polish, Hungarian, Romanian, Arabic, Japanese, Chinese, Korean, Thai" J% R/ F) Y1 k+ o8 [7 B5 D2 e
sweetest downfall..            & s" T/ o  r0 h1 Z
IMDB .....: https://www.imdb.com/title/tt0081505/
; m2 e5 L0 Z% F$ D) yGenre ....: Drama, Horror6 L: i/ i$ x8 o; [; j2 D3 |

8 N3 S5 a4 _# L  z% o; ]Notes ....: This UHD disc has also HDR10+ (Dynamic HDR).
2 a" X0 F$ C  ]& L
/ D, t' }# W% p& `( c/ o! S3 |9 RVideo
4 r/ m* Q; I& @5 C* T; G' ^& FID                                       : 1$ F9 E* S! e+ Q. i$ _  {$ h
Format                                   : HEVC7 ~4 f2 |* A. }
Format/Info                              : High Efficiency Video Coding& J" G0 |" U: l- ?  i
Format profile                           : Main 10@L5.1@High# w8 ?9 C$ ]3 K
HDR format                               : SMPTE ST 2094 App 4, Version 1, HDR10+ Profile B compatible
5 @9 d- i5 n8 R/ N; oCodec ID                                 : V_MPEGH/ISO/HEVC; L- W. s6 E) @: E
Duration                                 : 2 h 23 min/ n5 d5 M- b1 ?- B5 o; ^7 b1 O
Width                                    : 3 840 pixels
3 P: w4 r+ V: i  i" Q3 RHeight                                   : 2 160 pixels
% t' a/ X- c! L8 J: {Display aspect ratio                     : 16:9+ Q7 U0 ]# y- Z) g1 j# J
Frame rate mode                          : Constant
) E! u8 V; V! T4 {Frame rate                               : 23.976 (24000/1001/37687) FPS
6 e8 g; M) q; _% y+ J3 P6 q& l( pColor space                              : YUV
+ [3 h( V7 u8 i8 O1 IChroma subsampling                       : 4:2:0 (Type 2)
; B# ]+ v; ]' j: g. @9 jBit depth                                : 10 bits, s! ]2 s  t4 A8 S4 y
Writing library                          : x265 3.1+11-de920e0a3183:[Windows][MSVC 1900][64 bit] 10bit
8 J% o( O  d, e% N6 r0 |4 U  I' lEncoding settings                        : cpuid=1176575 / frame-threads=6 / numa-pools=36 / wpp / no-pmode / no-pme / no-psnr / no-ssim / log-level=2 / input-csp=1 / input-res=3840x2160 / interlace=0 / total-frames=206811 / level-idc=51 / high-tier=1 / uhd-bd=0 / ref=4 / no-allow-non-conformance / repeat-headers / annexb / aud / hrd / info / hash=0 / no-temporal-layers / no-open-gop / min-keyint=24 / keyint=240 / gop-lookahead=0 / bframes=4 / b-adapt=2 / b-pyramid / bframe-bias=0 / rc-lookahead=25 / lookahead-slices=4 / scenecut=40 / radl=0 / no-splice / no-intra-refresh / ctu=64 / min-cu-size=8 / rect / no-amp / max-tu-size=32 / tu-inter-depth=1 / tu-intra-depth=1 / limit-tu=0 / rdoq-level=2 / dynamic-rd=0.00 / no-ssim-rd / signhide / no-tskip / nr-intra=0 / nr-inter=0 / no-constrained-intra / no-strong-intra-smoothing / max-merge=3 / limit-refs=3 / limit-modes / me=3 / subme=3 / merange=57 / temporal-mvp / hme / Level / weightp / no-weightb / no-analyze-src-pics / deblock=-3:-3 / no-sao / no-sao-non-deblock / rd=4 / no-early-skip / rskip / no-fast-intra / no-tskip-fast / no-cu-lossless / no-b-intra / no-splitrd-skip / rdpenalty=0 / psy-rd=2.00 / psy-rdoq=1.00 / no-rd-refine / no-lossless / cbqpoffs=0 / crqpoffs=0 / rc=crf / crf=15.0 / qcomp=0.60 / qpstep=4 / stats-write=0 / stats-read=0 / vbv-maxrate=160000 / vbv-bufsize=160000 / vbv-init=0.9 / crf-max=0.0 / crf-min=0.0 / ipratio=1.40 / pbratio=1.30 / aq-mode=2 / aq-strength=1.00 / cutree / zone-count=0 / no-strict-cbr / qg-size=32 / no-rc-grain / qpmax=69 / qpmin=0 / no-const-vbv / sar=1 / overscan=0 / videoformat=5 / range=0 / colorprim=9 / transfer=16 / colormatrix=9 / chromaloc=1 / chromaloc-top=2 / chromaloc-bottom=2 / display-window=0 / master-display=G(13250,34500)B(7500,3000)R(34000,16000)WP(15635,16450)L(40000000,50)cll=1633,114 / min-luma=0 / max-luma=1023 / log2-max-poc-lsb=8 / vui-timing-info / vui-hrd-info / slices=1 / no-opt-qp-pps / no-opt-ref-list-length-pps / no-multi-pass-opt-rps / scenecut-bias=0.05 / no-opt-cu-delta-qp / no-aq-motion / hdr / hdr-opt / dhdr10-opt / no-idr-recovery-sei / analysis-reuse-level=5 / scale-factor=0 / refine-intra=0 / refine-inter=0 / refine-mv=0 / refine-ctu-distortion=0 / no-limit-sao / ctu-info=0 / no-lowpass-dct / refine-analysis-type=0 / copy-pic=1 / max-ausize-factor=1.0 / no-dynamic-refine / no-single-sei / no-hevc-aq / no-svt / no-field / qp-adaptation-range=1.00. ]+ w. @. S( ~1 `8 ]4 K
Default                                  : Yes
  k$ i( z# K& r! Z9 ~) V( @Forced                                   : No
9 m1 T- {  v" M! ]% P. h" {Color range                              : Limited
) a& u! o. J0 {/ oColor primaries                          : BT.2020
2 B' ]( b0 I# u7 q1 [Transfer characteristics                 : PQ4 A3 H0 E, U8 H- L* E$ u- G
Matrix coefficients                      : BT.2020 non-constant
/ t8 v. K- T) yMastering display color primaries        : Display P38 l( z5 u/ Q$ G2 @& I* M5 ^# E
Mastering display luminance              : min: 0.0050 cd/m2, max: 4000 cd/m2
7 I& Y+ a. o* A' w. r0 zMaximum Content Light Level              : 1633 cd/m2
; c' u$ R0 R' i0 qMaximum Frame-Average Light Level        : 114 cd/m23 l8 r- k. d2 C  @! @
Statistics Tags Issue                    : no_variable_data 1970-01-01 00:00:00 / no_variable_data 2010-02-22 21:41:293 r$ k3 u2 q9 t: `0 c) \1 u
FromStats_BitRate                        : 41892031
  I% b6 `! }9 A+ {; a+ uFromStats_Duration                       : 02:23:45.7420000001 Y/ O; q1 R2 |, W
FromStats_FrameCount                     : 206811
3 L9 T  @9 _( i; ~3 qFromStats_StreamSize                     : 45168732138$ `5 {) j7 P' D3 k- m/ [+ t7 o

3 `6 H  A4 g8 k' _5 @  BAudio #1
" u, G! x, D1 }. @9 ~# ]ID                                       : 2  [% g6 w/ m' p1 \( h, t1 I
Format                                   : DTS XLL
; t3 S& r8 H# e3 P2 o* M$ lFormat/Info                              : Digital Theater Systems
& e) K2 d7 l" cCommercial name                          : DTS-HD Master Audio  T$ w6 i' G# `6 Q- {8 O
Codec ID                                 : A_DTS
4 D! f. u$ h: c* R: G/ eDuration                                 : 2 h 23 min
3 d( O- H( L8 o7 ~6 F8 ~4 s5 m  L- \Bit rate mode                            : Variable
  R# T' v) b4 I% R- SChannel(s)                               : 6 channels
: j5 p4 }/ U, AChannel layout                           : C L R Ls Rs LFE
4 T! d. d( I3 c# V7 [0 rSampling rate                            : 48.0 kHz6 [& i/ b5 Y7 w' O1 s& |: Y2 ^2 @
Frame rate                               : 93.750 FPS (512 SPF)
9 v6 |! w5 i7 x, A% GBit depth                                : 24 bits7 b; |2 p) N2 L6 E& g3 W/ f
Compression mode                         : Lossless
, L! U" @0 n# ^$ K) VTitle                                    : DTS-HD MA 5.1
9 [* g4 m. g2 \+ u# s& x. GLanguage                                 : English
4 ~  Y( D* r! o4 s7 H. a/ B2 W; ODefault                                  : Yes
9 d4 ?: x4 {8 X8 a, ZForced                                   : No
8 _  O3 n6 b1 T% [8 YStatistics Tags Issue                    : no_variable_data 1970-01-01 00:00:00 / no_variable_data 2010-02-22 21:41:29
7 G  A' `- B1 `& K+ @- |FromStats_BitRate                        : 4097991  M' c3 T' p( N; k
FromStats_Duration                       : 02:23:45.760000000
! H7 K# v7 t% N$ `, Q3 [FromStats_FrameCount                     : 808665
( g/ w. g  l% {* e# EFromStats_StreamSize                     : 4418536524, c* Z/ ^; R; B/ U
1 J3 L$ R; I4 m, W; g9 l) `* }
Audio #2
4 D/ |+ r8 O  q7 ?ID                                       : 3
6 ~  E( ?1 q& @: y4 U. `1 H2 @$ mFormat                                   : AC-3* B, y9 F* }) V, |
Format/Info                              : Audio Coding 3
8 v3 I% o5 v0 T: T$ hCommercial name                          : Dolby Digital, M$ z. k- `& n
Codec ID                                 : A_AC37 u0 q0 m2 @) p' L8 K" u6 w
Duration                                 : 2 h 23 min2 {1 s/ Y% w% [$ I" e& \4 _# h) S
Bit rate mode                            : Constant
: F9 D! E/ I" }! p: B% z* VBit rate                                 : 192 kb/s
' ?/ n; m, U' ~0 j% u* v9 MChannel(s)                               : 2 channels
+ v7 b; l. t2 P* u$ `; [, C7 B- W' dChannel layout                           : L R
' ^9 a6 s5 Y, {' ?. ISampling rate                            : 48.0 kHz* R6 ]8 O- _) e/ _) Z
Frame rate                               : 31.250 FPS (1536 SPF)
3 U: ~2 E% a9 l( y' M8 l- FBit depth                                : 16 bits
0 T3 n: |: z/ w: l# KCompression mode                         : Lossy# m  X* s: m" o& V5 M8 l0 h
Stream size                              : 197 MiB (0%)
% @0 J0 O2 U- c( d; ATitle                                    : Commentary with steadicam operator, Garrett Brown and Kubrick biographer John Baxter6 z% R6 Q( Z% j) L
Language                                 : English
+ ?8 j! I5 f1 NService kind                             : Complete Main+ |( E# g/ `9 d& r5 }0 m
Default                                  : No
1 L6 v0 t  U2 Z% W% H3 SForced                                   : No6 q( G6 `* m; f7 z" y
Statistics Tags Issue                    : no_variable_data 1970-01-01 00:00:00 / no_variable_data 2010-02-22 21:41:292 d# h3 Q) s& s. d; F8 q
FromStats_BitRate                        : 192000% p. i$ w7 G. Z& n" |' k: s
FromStats_Duration                       : 02:23:45.7600000006 G+ y; m" S4 A+ [" \( h1 H7 C
FromStats_FrameCount                     : 269555" N1 O* d2 A' p* j" _( Y# F
FromStats_StreamSize                     : 207018240
  h, e7 c9 o- s9 c0 D& ]9 \1 T+ M- N7 l! k  K% c4 l- r  |' W
Text #1
. V9 N6 x1 j% q2 R8 M3 }% nID                                       : 4
9 g/ g9 |' o5 N) q, G. w1 i( U! YFormat                                   : UTF-8
1 [: O: G/ ~# {% f* B# UCodec ID                                 : S_TEXT/UTF8% q1 C+ B/ V- y; j4 Q
Codec ID/Info                            : UTF-8 Plain Text4 h5 \/ o, k% C
Title                                    : Stripped SRT
' U2 C. [( r" s* X+ V2 S; p, KLanguage                                 : English; }+ {# X8 Z0 T* A
Default                                  : No6 l/ \. x4 q. h" D9 A. ?; L  }. p
Forced                                   : No
/ v# L* K4 Q6 l* L8 L- GStatistics Tags Issue                    : no_variable_data 1970-01-01 00:00:00 / no_variable_data 2010-02-22 21:41:299 B( U0 _- n0 v5 \. x; R
FromStats_BitRate                        : 428 O8 Z) v7 {1 v+ M1 E
FromStats_Duration                       : 02:14:29.562000000
% f, S, z6 a; Y6 o- m3 u$ IFromStats_FrameCount                     : 1463
5 U4 v9 v* G! `# pFromStats_StreamSize                     : 433285 L) l% U/ a2 _* \$ \

0 k9 t" e7 ^5 j4 b+ tText #2& X6 p" b2 L$ H! n: q! S$ R. L
ID                                       : 5
: C8 G6 ~* h5 f# R/ B- vFormat                                   : UTF-8
! d+ P1 t- ~2 J; z7 zCodec ID                                 : S_TEXT/UTF8( N! i5 M5 {" U! p9 u: Z
Codec ID/Info                            : UTF-8 Plain Text
! g9 p/ \! f& |" ?  O; K- WTitle                                    : SDH SRT2 }! g; \. R. Q
Language                                 : English
, b1 z: }$ h" q, z. P7 N4 yDefault                                  : No
' t( B& J# T$ A: G; QForced                                   : No. }! I: o7 e* V! m
Statistics Tags Issue                    : no_variable_data 1970-01-01 00:00:00 / no_variable_data 2010-02-22 21:41:29) s2 L; E/ k- W' D& |
FromStats_BitRate                        : 43
: e* ^& R& i! n5 c& ~( N# EFromStats_Duration                       : 02:16:35.229000000* s, T" y8 `( L+ I4 n5 L
FromStats_FrameCount                     : 1521
, g' Y4 y& _1 y  u) GFromStats_StreamSize                     : 44856
0 x4 h* B% k# G6 g; r  d1 P8 s  K  s# |: g! U% _1 [7 @- u- g
Text #3, Z- h  j' f) `( R
ID                                       : 6" |$ v) t% S9 K
Format                                   : PGS% l) c4 Y7 `! u
Muxing mode                              : zlib8 Q( k( w# m+ c
Codec ID                                 : S_HDMV/PGS4 \1 [, K+ L' @0 }$ p8 ]0 y
Codec ID/Info                            : Picture based subtitle format used on BDs/HD-DVDs4 |9 l4 F& {* u; o' U: Q
Title                                    : SDH
2 e8 H, [. b$ G; ^Language                                 : English
" W. {& n/ |2 FDefault                                  : No5 ^1 F) l9 d8 b4 y: ]( ~" a$ M
Forced                                   : No! `4 ^5 F# g% @5 ~0 b$ `9 i
Statistics Tags Issue                    : no_variable_data 1970-01-01 00:00:00 / no_variable_data 2010-02-22 21:41:297 c8 x& A/ r. G3 Q3 m
FromStats_BitRate                        : 23385
; N7 L) H$ [( W& w. V6 eFromStats_Duration                       : 02:16:35.2290000001 O) ~0 L# J) n5 ^
FromStats_FrameCount                     : 3042
4 q$ ~7 u" H. s) w: X. p+ a4 JFromStats_StreamSize                     : 23955883
) P" k3 r* L3 V/ z# m" T" e! m3 _& Q( C. C
Text #4
% x2 k5 B# D1 d+ k, KID                                       : 7
& x, ~+ }; f: V# x, QFormat                                   : PGS: R& P! v+ g7 S# L6 Y
Muxing mode                              : zlib
- R3 S9 m  v" CCodec ID                                 : S_HDMV/PGS8 s3 K9 E; `; D  P  K, v5 ~/ C
Codec ID/Info                            : Picture based subtitle format used on BDs/HD-DVDs
7 M5 L: Q6 L& ^% \& `Language                                 : French
& n' _4 t+ T6 a$ _  UDefault                                  : No4 T. _( `# \6 a9 f# t# r
Forced                                   : No. v9 q  @* k- e( ^# n' l0 H
Statistics Tags Issue                    : no_variable_data 1970-01-01 00:00:00 / no_variable_data 2010-02-22 21:41:29# z9 x' B; s5 R8 a
FromStats_BitRate                        : 18396
8 |- y0 V: b/ J8 n& d1 X7 dFromStats_Duration                       : 02:20:43.936000000& W  z- D7 p0 p5 Q2 G& I
FromStats_FrameCount                     : 2378! f" c  H* |( T3 U' K3 A9 c
FromStats_StreamSize                     : 19416847
; Z3 \# S& k) V+ P7 O6 g: B6 g" @. K$ j2 {" S0 g' Z
Text #5
1 C2 s2 ~! J9 }* y/ j" @9 nID                                       : 8
- \6 N% K  S; UFormat                                   : PGS( o8 x( Y  j1 Q5 O0 r
Muxing mode                              : zlib' s$ a- ^1 {7 \/ r0 h- |& r
Codec ID                                 : S_HDMV/PGS
, ]" {2 I  Z# B+ N2 Y5 ~( w  ~Codec ID/Info                            : Picture based subtitle format used on BDs/HD-DVDs: a0 N, a" R5 _% m7 b+ e
Language                                 : Spanish/ i# A" i5 I$ U( ^% J- z
Default                                  : No
, v* s9 c5 o) K4 s& ~( D) uForced                                   : No
: B* Q: r& M0 y, z0 PStatistics Tags Issue                    : no_variable_data 1970-01-01 00:00:00 / no_variable_data 2010-02-22 21:41:295 C/ E! `4 w; ^5 o7 v6 y2 P
FromStats_BitRate                        : 182953 ~+ q8 U6 g; r. J
FromStats_Duration                       : 02:18:12.201000000
9 R& A: _& P4 m3 w2 QFromStats_FrameCount                     : 2628
% O& |. w/ T5 W9 wFromStats_StreamSize                     : 18963817
6 D2 z) H- S" a- c1 y) h* ~5 X' n7 l3 V  d
Text #6  U, f7 a* G4 }  s. @0 @" w) d
ID                                       : 9
- j# [/ d6 b3 m1 k2 n6 G* nFormat                                   : PGS
- k9 P+ s- Q- a: A+ f1 QMuxing mode                              : zlib
1 Z) }5 V7 U2 y% H! \Codec ID                                 : S_HDMV/PGS4 Y' ^; n# J' o4 [
Codec ID/Info                            : Picture based subtitle format used on BDs/HD-DVDs5 ^. }3 ?5 S3 f: \: a# z% z
Language                                 : Italian
: `* L# O: u/ N4 ?4 WDefault                                  : No# g7 s9 o( M- B' l2 x6 Q) o# p$ j
Forced                                   : No6 Z/ Z8 z# Q4 }
Statistics Tags Issue                    : no_variable_data 1970-01-01 00:00:00 / no_variable_data 2010-02-22 21:41:29
- ]. R1 o; l6 A+ |FromStats_BitRate                        : 239570 _# y9 T! v# j( L2 R2 ^
FromStats_Duration                       : 02:18:12.201000000, _$ e# ~! X7 x$ ^2 j
FromStats_FrameCount                     : 3050
- T- g& i8 ]( ?2 `0 ^# P$ e: _FromStats_StreamSize                     : 24832905
+ m# r  ~; \( W: H  L/ _
" }' C% x( |2 y' H! [6 {. f. nText #7) C5 n, y% I* _  w7 }
ID                                       : 10
) z" y: A% j: VFormat                                   : PGS
. C. k' F# T/ s7 F9 n; l* eMuxing mode                              : zlib% o; [1 k5 _; ~. P3 r. W* {) O0 R
Codec ID                                 : S_HDMV/PGS
: n( o( S$ u2 V- `0 {  ^Codec ID/Info                            : Picture based subtitle format used on BDs/HD-DVDs& J2 Y6 w  p4 a! ~" K
Language                                 : German# |( s, U4 n3 {1 }5 y& ]8 @" h) ~
Default                                  : No: t' \. O0 s! S1 m! g
Forced                                   : No' ?- H9 v; k6 i7 C1 H$ h
Statistics Tags Issue                    : no_variable_data 1970-01-01 00:00:00 / no_variable_data 2010-02-22 21:41:29& F: f  ~4 o6 q% f7 L) e% b' {
FromStats_BitRate                        : 24453
: c' m0 v, ~- u3 o, X3 m$ A5 l, n9 EFromStats_Duration                       : 02:18:13.619000000
9 s5 B0 R! O; G2 l0 \FromStats_FrameCount                     : 3062
  b8 I0 C: ^$ u# p- b; F% pFromStats_StreamSize                     : 25350832
9 W5 ?- M* _' J9 D$ V, `! y0 p! b  V1 I! T  t. |, f2 E
Text #8, B1 s8 D6 g6 M; A
ID                                       : 11  \( ~/ \% j, d0 N+ X' _0 X
Format                                   : PGS
1 r: w' U7 P0 e  @Muxing mode                              : zlib
) l4 p% b' ]$ X$ p' X5 A  gCodec ID                                 : S_HDMV/PGS
# r& j% [7 Y  }9 I& _, [8 e& rCodec ID/Info                            : Picture based subtitle format used on BDs/HD-DVDs1 m9 U4 ^  [! _. z0 E. u& Z# k' D( D' w. n
Language                                 : Dutch
. q" z8 F( m0 [4 a3 B- Q6 XDefault                                  : No. W. {  v9 {3 f, r8 b. D2 i
Forced                                   : No! v% `( P) ?5 l8 b. n# T
Statistics Tags Issue                    : no_variable_data 1970-01-01 00:00:00 / no_variable_data 2010-02-22 21:41:296 O% c6 G1 N7 D4 n  j" t+ }+ ~) ]
FromStats_BitRate                        : 18003
$ ?0 M7 }4 h/ W& G0 C; iFromStats_Duration                       : 02:18:12.243000000# i! [8 t4 R& {7 w
FromStats_FrameCount                     : 2420
. x* Q( T- K1 z6 P5 }& NFromStats_StreamSize                     : 18660770
6 G9 a( l* E8 i' I* q; d" [+ v4 y! _. u' I6 S4 G" d- n+ R9 G
Text #9
6 {# L5 H  k3 |; }  |ID                                       : 12
3 N: Z' r/ f7 I! ~Format                                   : PGS
. {' N/ P: N1 G. w- a0 v; R$ ~Muxing mode                              : zlib
+ v. D' Y7 q( dCodec ID                                 : S_HDMV/PGS
2 q6 |& e  U+ @, u: [% j# k" ^; `: rCodec ID/Info                            : Picture based subtitle format used on BDs/HD-DVDs5 x6 L" {% O6 @$ v' X
Language                                 : Swedish, _8 ]8 {& r# @! d; r; k
Default                                  : No4 u5 q  b( G1 e+ Z( R
Forced                                   : No
2 i- q/ a* ~. d$ aStatistics Tags Issue                    : no_variable_data 1970-01-01 00:00:00 / no_variable_data 2010-02-22 21:41:29$ P, H( c( M) \; t
FromStats_BitRate                        : 16967( Q( j0 [6 r% e; t
FromStats_Duration                       : 02:18:12.201000000) @+ s# |' {! q. T3 ]
FromStats_FrameCount                     : 2338
7 |2 ]& H  f/ h( l/ m6 pFromStats_StreamSize                     : 17586939$ z3 G- t% t6 S8 ~
" B/ a7 _, u# r) K/ m; |
Text #109 H# A6 y& _1 E7 D- R" ~% ]
ID                                       : 13
. P% K  b4 y( jFormat                                   : PGS
  \& Q- S1 d6 G) uMuxing mode                              : zlib3 C' l2 M* Q; c1 m
Codec ID                                 : S_HDMV/PGS
, S6 A2 g# L8 j1 ?: ]Codec ID/Info                            : Picture based subtitle format used on BDs/HD-DVDs
& Q1 P5 x0 W- j, hLanguage                                 : Norwegian/ p1 `; r/ D7 z% ?  A
Default                                  : No( q' c/ V$ ^! [+ I" c
Forced                                   : No
% k! ]. c6 _$ @  Z: mStatistics Tags Issue                    : no_variable_data 1970-01-01 00:00:00 / no_variable_data 2010-02-22 21:41:295 s& A: K" h* t6 y
FromStats_BitRate                        : 17482) O* U5 P$ y+ W0 K! i
FromStats_Duration                       : 02:19:37.161000000
/ D; H, T# t, L- ]- aFromStats_FrameCount                     : 2252
( y1 z; Y0 x$ _9 nFromStats_StreamSize                     : 18306203
* V6 z# n. {$ }2 h$ `( {& k0 s, i0 k5 i# ^! `3 d
Text #11- p! P5 B- n$ C5 L9 {2 J
ID                                       : 14
! ~0 O* J/ v6 `( W% L! BFormat                                   : PGS
( H/ }* M8 K  t4 o3 E6 `Muxing mode                              : zlib4 @' W9 n& t6 \4 H( f  ]
Codec ID                                 : S_HDMV/PGS
* i7 F9 i/ Q, k7 w0 B( }7 T7 x2 T9 OCodec ID/Info                            : Picture based subtitle format used on BDs/HD-DVDs
, ?1 z) R5 y4 m3 s+ \; [0 rLanguage                                 : Danish7 ]1 M& S- [. a& E# [( k: D% }
Default                                  : No
, D( \6 w2 \- ]* nForced                                   : No3 y# o% d( j6 k/ h) `' @
Statistics Tags Issue                    : no_variable_data 1970-01-01 00:00:00 / no_variable_data 2010-02-22 21:41:29' s  _+ {. i$ c2 f+ x; U; [
FromStats_BitRate                        : 19554$ g! Y! Y' d" j5 E& L5 E3 J' K
FromStats_Duration                       : 02:20:43.9780000004 T2 c! c3 b; P
FromStats_FrameCount                     : 2494
# B# }* a6 @" v& JFromStats_StreamSize                     : 20640114/ j5 h7 T2 U! L3 ~; U
4 v( l$ Q" g2 o- w8 M! W
Text #12! G" S( {" K# D7 p" H
ID                                       : 152 E& U% `+ k5 B3 h" ]0 b; c* P
Format                                   : PGS; A: h+ I8 F. z) `( }& t+ m+ e
Muxing mode                              : zlib
- `+ A* l, U$ k  iCodec ID                                 : S_HDMV/PGS+ F8 h/ p' b  [$ C) C: Z0 {6 ^
Codec ID/Info                            : Picture based subtitle format used on BDs/HD-DVDs- d0 e0 }& v( D/ q
Language                                 : Finnish
# J5 \1 R, ^# I. r; d/ h) sDefault                                  : No& r$ i. g( `7 r# X- f* w* U
Forced                                   : No! K  p/ z6 R: q2 x. y
Statistics Tags Issue                    : no_variable_data 1970-01-01 00:00:00 / no_variable_data 2010-02-22 21:41:29& e- W$ d  T8 A! W+ s
FromStats_BitRate                        : 15643
# j$ a0 W1 x+ D8 h( j( }; h. e3 bFromStats_Duration                       : 02:19:38.621000000# C4 S9 ?6 L6 Y! R/ y
FromStats_FrameCount                     : 1978. L. W4 Q  t! j; k
FromStats_StreamSize                     : 16383901
6 C: T1 \  V) @3 Q3 o: u2 g$ G, h, {) u- P# m3 F0 O
Text #13
/ _  y, }3 b, U5 g; i0 D6 c. IID                                       : 16
& H) e$ }# D/ I! R1 r& L& b& @Format                                   : PGS
4 N9 g5 n9 }, m! C6 A& ]: K3 jMuxing mode                              : zlib) P, m! |$ a# `$ H7 J
Codec ID                                 : S_HDMV/PGS
6 u2 v& q; u. tCodec ID/Info                            : Picture based subtitle format used on BDs/HD-DVDs
+ k; E' Z6 m5 [6 f& K; V, U3 B; s' W2 kLanguage                                 : Russian/ G& L& _' D2 b# j1 D
Default                                  : No
0 }9 V+ w7 o4 `8 |2 zForced                                   : No7 h. g' h0 w$ {4 [! t5 p
Statistics Tags Issue                    : no_variable_data 1970-01-01 00:00:00 / no_variable_data 2010-02-22 21:41:29$ e0 r2 A( T+ O
FromStats_BitRate                        : 205542 z- d; F" l& U6 m/ Q7 ]1 t8 M
FromStats_Duration                       : 02:19:36.619000000# a. s' t4 T$ O0 H5 T2 W
FromStats_FrameCount                     : 2634$ X. T0 Z: q: ?8 _7 E, N% ^
FromStats_StreamSize                     : 21522167
6 c7 S& \- E  t: `! W" c
' I) T8 f2 x0 g% x: jText #14
( b5 B3 v; Z5 W! WID                                       : 17* S0 ^! P. ~7 Z2 i" E# U6 T! y
Format                                   : PGS
5 ?- @7 ?9 v( m$ C- mMuxing mode                              : zlib
# o  ~& V6 d: z( F' p2 c# [Codec ID                                 : S_HDMV/PGS
( w2 u- b4 @3 f( d$ mCodec ID/Info                            : Picture based subtitle format used on BDs/HD-DVDs
  i/ l6 C7 ?1 G; U# M" MLanguage                                 : Czech
* O0 B& A, e3 K$ E5 y5 xDefault                                  : No* Y9 q# r" K, s; t7 o
Forced                                   : No1 c7 B& v! }/ D4 }, I( U% D/ U) [
Statistics Tags Issue                    : no_variable_data 1970-01-01 00:00:00 / no_variable_data 2010-02-22 21:41:29. f6 a+ V" U9 Q
FromStats_BitRate                        : 18004
8 S. m# w* _$ `2 M- x8 b: E% ZFromStats_Duration                       : 02:19:37.1610000008 N% f% \* A  C+ f; D7 w5 p5 \
FromStats_FrameCount                     : 2708: A( N) ]9 Q% \& [4 k
FromStats_StreamSize                     : 188530437 `4 y8 i2 a2 z; F* n; S
( O" O# _. L4 N. l5 N6 R# @
Text #15% }6 i+ n2 g- K7 m3 H( X  W% M
ID                                       : 183 }7 o2 ~7 A# H/ X- k
Format                                   : PGS- M+ e. p3 Q, O2 ?% K
Muxing mode                              : zlib3 k0 Q4 t. {6 F" J/ R' G
Codec ID                                 : S_HDMV/PGS( Q+ R# r3 ~" _: i9 u6 g
Codec ID/Info                            : Picture based subtitle format used on BDs/HD-DVDs
0 Q$ u5 l3 x5 M7 X) S4 sLanguage                                 : Polish
! F" Q& ]& T. B$ eDefault                                  : No, y3 t8 v; n+ v4 e) Q( D0 J* ^* H$ r
Forced                                   : No0 L- o8 M* \! W: n8 M3 ^, U  T
Statistics Tags Issue                    : no_variable_data 1970-01-01 00:00:00 / no_variable_data 2010-02-22 21:41:29
5 l; y, `! Y/ F/ P. S( V% EFromStats_BitRate                        : 172548 E. j# i. ^9 E
FromStats_Duration                       : 02:19:37.118000000) W% U) k4 ]- f% W9 z) G1 J
FromStats_FrameCount                     : 2562
1 y' Y* n- I7 g( d  iFromStats_StreamSize                     : 18067803
, X: f" Z+ r: v9 s% K9 W
8 u9 ?( n5 Q8 U' |Text #16
2 [) |1 e, W2 b6 s0 U: V5 `4 UID                                       : 19. Y' K, Q( b+ l! A. i, [, x
Format                                   : PGS
/ `5 W/ o( M* x' g. DMuxing mode                              : zlib
# t; }# H1 ]- eCodec ID                                 : S_HDMV/PGS
) f/ l6 ~7 W& h' U/ n% Y) eCodec ID/Info                            : Picture based subtitle format used on BDs/HD-DVDs7 \/ ~7 T, e) ?
Language                                 : Hungarian) q* e3 `+ Z7 I. B7 i7 x- l/ D
Default                                  : No
' ]* v! G9 u) c' ~9 c; OForced                                   : No
$ [0 t3 u7 J: m* _Statistics Tags Issue                    : no_variable_data 1970-01-01 00:00:00 / no_variable_data 2010-02-22 21:41:29
- G6 e; I5 s9 b7 L/ l  F9 B* I% bFromStats_BitRate                        : 19824
9 H( {0 K& Z( \3 _FromStats_Duration                       : 02:19:37.161000000
, F  Y- I6 m! [( HFromStats_FrameCount                     : 2702' q. ~/ ~, X4 i
FromStats_StreamSize                     : 207591125 G4 \/ V+ f& F5 I2 O
7 L$ C0 T' W# L" `) E) V
Text #17
2 _# r* ~: _' O: o+ e( G$ ~ID                                       : 20
; o! a2 H+ c6 H1 A: z2 ~' n/ P% ]2 pFormat                                   : PGS
9 M2 `! d! }' |Muxing mode                              : zlib% P1 A  E* r, Q+ B+ h
Codec ID                                 : S_HDMV/PGS# U  P3 l# u5 T4 D) ~3 `
Codec ID/Info                            : Picture based subtitle format used on BDs/HD-DVDs
) Q" y* p% l  A1 I$ J2 E8 c' a. |Language                                 : Romanian9 y) d' v8 W! E4 M
Default                                  : No4 P: l: O5 s8 J( u/ m* m1 m
Forced                                   : No* a9 q  e1 ~3 H8 _0 u' u2 C/ Q+ L
Statistics Tags Issue                    : no_variable_data 1970-01-01 00:00:00 / no_variable_data 2010-02-22 21:41:29
3 M* G' W/ G& Q$ oFromStats_BitRate                        : 19850- B4 w( ~+ k/ I/ r" i% A% F
FromStats_Duration                       : 02:18:12.201000000# T$ z1 z6 q! d9 b& L/ r; c4 V
FromStats_FrameCount                     : 2710
5 g. q% `+ z6 G" [5 A0 r& B- AFromStats_StreamSize                     : 20575976
+ j1 s4 _$ C. }2 y) D; Y
3 d5 X( ~( W5 C, \! \( wText #18
! y2 N0 h; Z. Z4 Q( g2 D: bID                                       : 210 d; j, @% l7 h( Q' m
Format                                   : PGS
8 ~% Q$ q( V  \Muxing mode                              : zlib5 S3 r1 x: ^8 w* `7 r1 i
Codec ID                                 : S_HDMV/PGS
- y( R4 d, }+ h' X% ]Codec ID/Info                            : Picture based subtitle format used on BDs/HD-DVDs
0 K% v( V9 h$ J/ W) bLanguage                                 : Arabic
9 r& ?: O( f# ^' g9 uDefault                                  : No% [- R- F0 W. A9 U
Forced                                   : No
  E5 K" ?4 c) b* s  }/ IStatistics Tags Issue                    : no_variable_data 1970-01-01 00:00:00 / no_variable_data 2010-02-22 21:41:29( }# M# ], O8 V/ C
FromStats_BitRate                        : 10667; E0 i& x% k( ~, b  ?
FromStats_Duration                       : 02:19:36.577000000: C  o  T3 d. u! ]  r' z5 `
FromStats_FrameCount                     : 2624
( ?  k: H  o. [/ m# Y2 ?FromStats_StreamSize                     : 111692515 s" P4 q' Q4 y! a2 v4 k

: [7 i  ]6 M" lText #19
% Q9 `: x- v, I  @9 d- uID                                       : 22( r! ?$ }0 M( ~% u
Format                                   : PGS
# x3 I4 i1 ?8 ?8 V' HMuxing mode                              : zlib
; Q7 f4 Y  U* KCodec ID                                 : S_HDMV/PGS1 O/ W; F) c0 o* I% B( s6 w
Codec ID/Info                            : Picture based subtitle format used on BDs/HD-DVDs
6 _4 }+ o* i- NLanguage                                 : Japanese
- w8 @- }3 r- e3 a1 N: xDefault                                  : No
3 G0 U% H, x% e6 N$ Y$ qForced                                   : No
5 k( h, O+ J2 Y9 p7 ?3 pStatistics Tags Issue                    : no_variable_data 1970-01-01 00:00:00 / no_variable_data 2010-02-22 21:41:29; v1 t6 D* l7 U/ _
FromStats_BitRate                        : 14272$ J  {- j7 v' l* V8 u
FromStats_Duration                       : 02:18:31.7620000002 R7 M5 x8 F' Z$ x% s0 _
FromStats_FrameCount                     : 1978; X( N& ]& {; z3 V3 s. s3 h, T
FromStats_StreamSize                     : 14828811$ n7 @9 U6 i/ ~5 W; a% J6 ~

7 [  c& K  y7 N8 v& NText #20) R7 L$ Y/ d3 h& @) D
ID                                       : 23
" x! y5 Z" U' i! q: O/ ^  ]Format                                   : PGS
0 `$ g! Z0 G& XMuxing mode                              : zlib$ m2 \- Z; X6 x- t3 K
Codec ID                                 : S_HDMV/PGS& I. B, ^  V1 X3 H! K
Codec ID/Info                            : Picture based subtitle format used on BDs/HD-DVDs4 R" U) v/ J" r! F
Language                                 : Chinese
" ?; R$ }7 E! O8 R. S1 F- C* QDefault                                  : No) q- c3 o3 u# y7 K
Forced                                   : No
3 Y0 @2 _; {7 p. e( x6 U9 I. yStatistics Tags Issue                    : no_variable_data 1970-01-01 00:00:00 / no_variable_data 2010-02-22 21:41:29
" Q9 [! s# ]3 e! KFromStats_BitRate                        : 193967 I/ G+ w0 x! T. }
FromStats_Duration                       : 02:19:46.920000000
& m7 ?+ A1 T4 B6 f* ?& JFromStats_FrameCount                     : 2698
; W3 L3 Q- `( x. n8 ]: BFromStats_StreamSize                     : 20334361: T8 s1 W5 q  M& o, F
, C, f6 Z3 C% P/ Z- a6 ~# q
Text #210 S0 ]0 z, l. Y6 }: r& @( J0 N
ID                                       : 24
- u8 o* e" |2 p- }8 [$ l5 v+ w) SFormat                                   : PGS: W1 j/ B; z2 I  o1 e& U
Muxing mode                              : zlib
% y9 o4 O7 _; F  }# D- QCodec ID                                 : S_HDMV/PGS0 v) ?0 l7 d8 S- l4 F7 Q
Codec ID/Info                            : Picture based subtitle format used on BDs/HD-DVDs$ m7 V5 l+ L3 O
Language                                 : Korean
8 R, x% K1 y0 P1 |7 u/ pDefault                                  : No
* q: {7 N: n6 ]  f) c1 W/ K7 [Forced                                   : No, }$ W  z) ~; h/ p6 B
Statistics Tags Issue                    : no_variable_data 1970-01-01 00:00:00 / no_variable_data 2010-02-22 21:41:29# i5 c; J% a4 U: J
FromStats_BitRate                        : 14978, l2 Q7 Q; p2 R
FromStats_Duration                       : 02:19:37.536000000
8 r; Z! N, ~: Z4 y. pFromStats_FrameCount                     : 2638
- f  w6 g) `+ b2 p7 t. g" a) Q6 @FromStats_StreamSize                     : 15685621% [/ R  W. T% f+ v: M5 d
% y* n2 O; w0 j7 f& i
Text #22
) C% p2 C' d+ P) G) J, w/ yID                                       : 25
) [- c; J- D) r. J  `# b  {1 CFormat                                   : PGS2 |* W6 z  I$ C3 y
Muxing mode                              : zlib
6 ?- S1 [2 x$ E) C7 A4 O! ^Codec ID                                 : S_HDMV/PGS# s( i5 H& k+ Y& l% X  I
Codec ID/Info                            : Picture based subtitle format used on BDs/HD-DVDs
% i1 E4 M, `. Z) T8 |4 f4 T, aLanguage                                 : Thai
1 a3 K0 d9 M1 F4 `: \3 Y0 rDefault                                  : No
: w7 `' h) w  D* A! YForced                                   : No
8 |& k% y8 ?* g: I  P. I: IStatistics Tags Issue                    : no_variable_data 1970-01-01 00:00:00 / no_variable_data 2010-02-22 21:41:29
  E& q5 Q' _6 b0 ]# A0 DFromStats_BitRate                        : 19295% A; o6 L. t+ z1 F/ B; ~. n
FromStats_Duration                       : 02:18:12.201000000
" W5 T7 p1 e3 m9 I( e2 d7 t) f8 `2 OFromStats_FrameCount                     : 2716  v1 i0 a9 b% o. B
FromStats_StreamSize                     : 199998604 m$ y; R& W6 U. u4 I5 L
! y2 p: X% g6 o- C
Menu; M2 i6 \; P% Z5 b3 r
00:00:00.000                             : en:Chapter 01, K4 T8 s4 c- P3 ~3 o) i, b
00:03:00.430                             : en:Chapter 027 P/ l7 k) [/ b- _! F
00:05:05.138                             : en:Chapter 03  ?4 R* o. M% J
00:10:33.800                             : en:Chapter 04. Y" {" k4 T& t2 A  z
00:12:08.394                             : en:Chapter 05
: V+ ]& B3 ~# S' y; \: f00:14:24.280                             : en:Chapter 06
1 X: m% g7 S1 V2 ?$ f00:17:37.932                             : en:Chapter 07
4 K9 X1 ^$ x7 ]9 `7 i! U00:20:30.896                             : en:Chapter 08
9 K7 M* V4 f& v( g+ i% a: ]5 t00:24:58.622                             : en:Chapter 09
9 D8 L  m. o) b2 u: ?& }6 y00:28:51.688                             : en:Chapter 107 z2 W/ q9 F9 r- O+ U$ h/ G  F
00:34:10.215                             : en:Chapter 115 v9 U/ \+ {# [5 C
00:40:28.843                             : en:Chapter 12( f6 c, }# |% J. y
00:46:00.925                             : en:Chapter 13
/ P1 E- ~) I# ]00:46:52.226                             : en:Chapter 14
# ]) u5 G' Y' l- m00:49:17.329                             : en:Chapter 15
# K& f% I) t( B/ @0 U4 Y00:51:16.240                             : en:Chapter 166 s( \& Y/ ?" D* m6 h( a9 l2 |
00:57:01.918                             : en:Chapter 173 T% E3 m% q( M& b  B# E
00:58:36.847                             : en:Chapter 18
7 p. c- V4 Y2 |3 g# K01:02:37.170                             : en:Chapter 19
! H; e) l7 U' ]# x0 m01:06:05.795                             : en:Chapter 20
7 b, l# L& T; @, ?& N01:09:00.762                             : en:Chapter 21
& C8 d4 L2 w7 u% f4 T& H7 p9 r  l" N01:16:52.316                             : en:Chapter 22
+ ?5 G' A% j+ h01:22:18.642                             : en:Chapter 23  c; C4 J. B& W; `4 M  H) C
01:25:29.916                             : en:Chapter 24$ ?2 t4 z4 u! b1 y9 M) \$ w! u
01:31:41.162                             : en:Chapter 25
  t! h, v4 s9 Z6 T01:34:03.805                             : en:Chapter 26. i0 O8 n$ G  R% K6 v" }4 E
01:35:48.618                             : en:Chapter 27  d% @' D' t' w/ ]8 s
01:39:30.590                             : en:Chapter 28
3 d# A( ^! p) ~2 c3 z% M, G2 ~01:43:49.932                             : en:Chapter 29; L+ M- X, i* Z: n, a# e3 q  F% p8 a
01:49:26.393                             : en:Chapter 308 m% `2 r* Z. X2 X3 e* [/ y
01:54:24.441                             : en:Chapter 31
# A1 p2 T7 D( l5 Y) u01:58:44.617                             : en:Chapter 32
1 x6 v' A$ O* V# j. ~7 T# B02:01:09.554                             : en:Chapter 334 ^) O( i4 ?( N  w' \+ {- `
02:05:30.064                             : en:Chapter 34
0 n0 v+ N" L- g# G( y  W* j; N% E02:07:32.687                             : en:Chapter 353 W6 v) G% Y2 ?: G
02:10:23.566                             : en:Chapter 36
$ {& ?% Z! w; n1 m  \( D2 @1 `02:12:10.089                             : en:Chapter 37
( E2 Q) J% \4 [6 m8 Z  E/ J3 Y- o02:15:03.387                             : en:Chapter 381 l: u" }" O; Z8 h
02:18:57.037                             : en:Chapter 39
! D& O# d( R: G/ R) u8 I. d2 L( S02:21:16.343                             : en:Chapter 40
Video) E4 V3 L) B; j; ?" D8 Q2 t
ID                                       : 18 _# n2 u# P) c( s6 x) {) u4 h
Format                                   : HEVC* _% r! I4 R! s6 I& |% v* \
Format/Info                              : High Efficiency Video Coding
" I5 F1 Y" p" HFormat profile                           : Main 10@L5.1@High+ U8 T" ]5 x  v8 @3 q
HDR format                               : SMPTE ST 2086, HDR10 compatible: W1 }% _5 a4 q7 X
Codec ID                                 : V_MPEGH/ISO/HEVC
4 }+ O$ X. W( j+ P. c" u/ }1 c* ]* ~Duration                                 : 2 h 23 min
) P6 k9 [! p5 \! T" PBit rate                                 : 37.6 Mb/s* a  o# |% L4 d4 _- @+ a6 u% B
Width                                    : 3 840 pixels/ X, a& j: D% A' d) @) }3 g
Height                                   : 2 160 pixels
+ R; L8 c0 L( J. R3 ]/ K4 tDisplay aspect ratio                     : 16:93 M, z4 @, Y) }- M. o
Frame rate mode                          : Constant3 Z( W- T) s. {: t! Y
Frame rate                               : 23.976 (24000/1001/37687) FPS6 p) c- {6 J9 E3 y, m
Color space                              : YUV
5 S, K* k0 I1 E: q$ l- pChroma subsampling                       : 4:2:0 (Type 2)0 e  `- I: A+ b2 T- c1 U- ]
Bit depth                                : 10 bits% d! A6 u  W$ K  ?5 N  a: z- ?. x& x
Bits/(Pixel*Frame)                       : 0.189
5 e+ w3 O7 A) O2 SStream size                              : 37.7 GiB (89%)
( z' f# V) l$ g$ XWriting library                          : x265 3.1+11-de920e0a3183:[Windows][GCC 6.3.0][64 bit] 10bit5 L' h( ?8 F# w$ W+ Y7 ~! u
Encoding settings                        : cpuid=1111039 / frame-threads=4 / numa-pools=20 / wpp / no-pmode / no-pme / no-psnr / no-ssim / log-level=2 / input-csp=1 / input-res=3840x2160 / interlace=0 / total-frames=206811 / level-idc=51 / high-tier=1 / uhd-bd=1 / ref=4 / no-allow-non-conformance / repeat-headers / annexb / aud / hrd / info / hash=0 / no-temporal-layers / no-open-gop / min-keyint=1 / keyint=24 / gop-lookahead=0 / bframes=4 / b-adapt=2 / b-pyramid / bframe-bias=0 / rc-lookahead=25 / lookahead-slices=4 / scenecut=40 / radl=0 / no-splice /  no-intra-refresh / ctu=64 / min-cu-size=8 / rect / no-amp / max-tu-size=32 / tu-inter-depth=1 / tu-intra-depth=1 / limit-tu=0 / rdoq-level=2 / dynamic-rd=0.00 / no-ssim-rd / signhide / no-tskip / nr-intra=0 / nr-inter=0 / no-constrained-intra / no-strong-intra-smoothing / max-merge=3 / limit-refs=3 / limit-modes / me=3 / subme=3 / merange=57 / temporal-mvp / no-hme / weightp / no-weightb / no-analyze-src-pics / deblock=-3:-3 / no-sao / no-sao-non-deblock / rd=4 / no-early-skip / rskip / no-fast-intra / no-tskip-fast / no-cu-lossless / no-b-intra / no-splitrd-skip / rdpenalty=0 / psy-rd=2.00 / psy-rdoq=1.00 / no-rd-refine / no-lossless / cbqpoffs=0 / crqpoffs=0 / rc=crf / crf=17.0 / qcomp=0.60 / qpstep=4 / stats-write=0 / stats-read=0 / vbv-maxrate=160000 / vbv-bufsize=160000 / vbv-init=0.9 / crf-max=0.0 / crf-min=0.0 / ipratio=1.40 / pbratio=1.30 / aq-mode=1 / aq-strength=1.00 / cutree / zone-count=0 / no-strict-cbr / qg-size=32 / no-rc-grain / qpmax=69 / qpmin=0 / no-const-vbv / sar=1 / overscan=0 / videoformat=5 / range=0 / colorprim=9 / transfer=16 / colormatrix=9 / chromaloc=1 / chromaloc-top=2 / chromaloc-bottom=2 / display-window=0 / master-display=G(13250,34500)B(7500,3000)R(34000,16000)WP(15635,16450)L(40000000,50)cll=1633,114 / min-luma=0 / max-luma=1023 / log2-max-poc-lsb=8 / vui-timing-info / vui-hrd-info / slices=1 / no-opt-qp-pps / no-opt-ref-list-length-pps / no-multi-pass-opt-rps / scenecut-bias=0.05 / no-opt-cu-delta-qp / no-aq-motion / hdr / hdr-opt / no-dhdr10-opt / no-idr-recovery-sei / analysis-reuse-level=5 / scale-factor=0 / refine-intra=0 / refine-inter=0 / refine-mv=0 / refine-ctu-distortion=0 / no-limit-sao / ctu-info=0 / no-lowpass-dct / refine-analysis-type=0 / copy-pic=1 / max-ausize-factor=1.0 / no-dynamic-refine / no-single-sei / no-hevc-aq / no-svt / no-field / qp-adaptation-range=1.00; O0 Z( P" ~$ z
Default                                  : Yes- r3 Z( i1 e: x! S" {' d7 c6 Z0 ~" D" f
Forced                                   : No
7 I: v8 ]  K, Y4 Q# o( t  vColor range                              : Limited% n$ a: G  c1 ~2 u, C
Color primaries                          : BT.2020
& y+ I* w- A0 `& \$ y+ g- vTransfer characteristics                 : PQ
+ d3 T- i2 ]$ {) E& yMatrix coefficients                      : BT.2020 non-constant$ O: g# B; J" [( O! p+ T
Mastering display color primaries        : Display P3, R1 j6 k" B1 R: v/ U
Mastering display luminance              : min: 0.0050 cd/m2, max: 4000 cd/m2
1 @8 B! B) H) z; x, fMaximum Content Light Level              : 1633 cd/m2) z3 L$ ^" ^. S1 Z
Maximum Frame-Average Light Level        : 114 cd/m2# k, P9 o9 T$ r, M3 E

; x& K" A$ R+ @6 PAudio #1. D& l6 F; S  R% M1 @* N0 O+ w' {
ID                                       : 2
* M& P  W2 ^' ]Format                                   : DTS XLL- A/ N: |! S  t$ U: |' E! k
Format/Info                              : Digital Theater Systems0 b0 o+ `# X1 P% @. |' u( w' Z  A  k( I
Commercial name                          : DTS-HD Master Audio
6 S% A/ [% M3 v' D# `Codec ID                                 : A_DTS! \" ]2 ^' @) y- i
Duration                                 : 2 h 23 min  D& ^' |+ E  M2 g! Q1 P9 ^, U
Bit rate mode                            : Variable
, o  o# e8 O3 U9 b5 I2 A* OBit rate                                 : 4 098 kb/s
0 r- |2 f7 H' t' H" yChannel(s)                               : 6 channels: b  V9 R4 V3 V/ t' c3 K
Channel layout                           : C L R Ls Rs LFE
" m3 x. y: B* l1 M0 C: PSampling rate                            : 48.0 kHz
8 M* F8 i1 c, d# H( AFrame rate                               : 93.750 FPS (512 SPF)
3 H: [4 T. |- m3 e; [4 \1 VBit depth                                : 24 bits
! s9 U  O; f9 ?' SCompression mode                         : Lossless
% K) ^5 e* ^; |: ?1 HStream size                              : 4.12 GiB (10%)/ `, O, X! ~9 J( W, r0 F. G
Language                                 : English$ a! h* M; i- g4 u# Z& D
Default                                  : Yes6 i- m' X" k5 r$ j2 o8 Q/ a
Forced                                   : No
4 W; S4 c) ~8 y! ?& x1 R1 q
5 p. v, S* x& d  S: OAudio #2* x* y8 {: s; h- [6 {3 m
ID                                       : 3
( n* E8 r4 J4 ], AFormat                                   : AC-3
1 z$ }! ?: m% \' n2 eFormat/Info                              : Audio Coding 3; O: b  u; |  o, K* c$ u1 _& g
Commercial name                          : Dolby Digital
) }2 a$ o; L3 p! D  bCodec ID                                 : A_AC3
5 ^, l9 w5 {. u/ j$ ?# z5 jDuration                                 : 2 h 23 min8 E6 k, f8 m- p5 O5 \
Bit rate mode                            : Constant3 @% g1 Z5 T" B7 V
Bit rate                                 : 192 kb/s! \% b0 M2 l1 X7 _, ?* k
Channel(s)                               : 2 channels
* R/ }: w: e' M/ |6 C' g7 dChannel layout                           : L R
" f7 d7 d* N: I) R  Y/ Q1 rSampling rate                            : 48.0 kHz/ h% L& R6 z" D6 o" X( [; _
Frame rate                               : 31.250 FPS (1536 SPF)5 R- s( m+ c( a& ?' ], b+ Q6 F5 d
Bit depth                                : 16 bits+ |4 O+ S% I) ^1 Q4 O* ~
Compression mode                         : Lossy% s7 ^( c& @3 p1 q% z5 ^6 g4 K9 O/ F
Stream size                              : 197 MiB (0%)
- ^# }* O8 C, P/ T  C$ qTitle                                    : Commentary
  |! ^  v* X$ j0 N4 @Language                                 : English1 [3 U% B: X  w6 @0 j% S. a
Service kind                             : Complete Main; K! ?/ S3 _* ?7 p& x
Default                                  : No6 m0 u$ h2 e! e3 F# L! s+ P/ x/ C
Forced                                   : No
" [$ L7 O$ ~6 T+ [2 `' o7 g0 e
! f6 C5 D! H' t( m5 i$ U& jText #1( o8 \1 ~4 w5 c  U& P
ID                                       : 4
2 i0 U5 F' {6 \5 X4 iFormat                                   : PGS3 R. p, f& y9 U
Muxing mode                              : zlib! D$ g( \7 o% |& Q. i* N
Codec ID                                 : S_HDMV/PGS4 T) v3 ~" |- X9 R& z+ o' E
Codec ID/Info                            : Picture based subtitle format used on BDs/HD-DVDs
  a: ]7 ?/ d. KDuration                                 : 2 h 16 min
2 G# K( x, V  {Bit rate                                 : 23.4 kb/s$ A# p! U4 S2 T0 d/ X
Count of elements                        : 3042( b! \* p+ f* s: v
Stream size                              : 22.8 MiB (0%)
) W8 i4 T; y  e! |) f& p6 yLanguage                                 : English
$ V! F8 V* L: uDefault                                  : No& w+ n& r+ @- b
Forced                                   : No
% [/ d  P' W8 D9 u
, M: Q  v4 n/ ^4 D0 ?. W, _8 IText #26 E9 |: O6 E3 z6 R" s
ID                                       : 51 b% V0 |5 u% I+ h+ D! f# g
Format                                   : PGS5 B2 T0 s& c* L- \0 u
Muxing mode                              : zlib
, M1 y- J3 {/ N6 X5 ZCodec ID                                 : S_HDMV/PGS& [' o. q, e7 C0 Y, B
Codec ID/Info                            : Picture based subtitle format used on BDs/HD-DVDs
- |2 U* i) y% [7 [Duration                                 : 2 h 18 min% x& [# o! N4 x8 o- a& L8 ^
Bit rate                                 : 14.3 kb/s
- {. }! }/ N1 l/ gCount of elements                        : 1978
$ M6 ~; Q9 l9 O0 M7 g  wStream size                              : 14.1 MiB (0%). R( @# r8 \! P
Language                                 : Japanese2 G4 x  G0 M# T7 ?+ l" r2 B3 P3 L. P
Default                                  : No
: I# ]! H, I/ qForced                                   : No& W8 c9 j( \, i% h
  `! B. A8 K" d2 q) D
Text #3
5 A, w" X( {0 j9 Y% |  CID                                       : 6
; L( Q: \3 z3 m, _Format                                   : PGS
5 h! F. @7 u7 p' \Muxing mode                              : zlib5 t9 k+ r" m5 {* J! ~' S
Codec ID                                 : S_HDMV/PGS
% C$ n8 J& f4 x6 e' d0 X3 ?Codec ID/Info                            : Picture based subtitle format used on BDs/HD-DVDs9 F1 ~% v5 x1 s# G( k
Duration                                 : 2 h 20 min; x# w/ a3 g( k& J
Bit rate                                 : 18.4 kb/s, @5 M; d* P$ L0 h* ?' ^# b
Count of elements                        : 2378
) E8 x. M7 K. S7 }0 y) pStream size                              : 18.5 MiB (0%)" m2 y' h% W& D- v% p0 f3 X0 C( I
Language                                 : French0 b" q/ g! b( h0 e/ b
Default                                  : No4 E9 `5 d  J  s3 A9 \
Forced                                   : No
9 r/ C# w) K5 I9 ?3 m0 l' a0 N8 S) t2 Q$ ^0 I( f3 _" ^' \+ v
Text #4
8 |. L8 n/ |$ V7 S: o: \ID                                       : 7
6 S- n& ?9 G5 vFormat                                   : PGS
% V; ^0 C1 g5 ]3 |3 }' V/ F; BMuxing mode                              : zlib
# B  j; B5 r8 j% D: d6 }' bCodec ID                                 : S_HDMV/PGS
& V3 P2 L; r& t- o- K  f2 pCodec ID/Info                            : Picture based subtitle format used on BDs/HD-DVDs
2 ~2 u8 P+ t. X! C! WDuration                                 : 2 h 18 min
& u  |+ z  ]9 t" Z9 {Bit rate                                 : 24.5 kb/s
  O# c3 I9 N& d& @% ^Count of elements                        : 3062
9 z" B5 X# f& z+ m& R, D/ qStream size                              : 24.2 MiB (0%)
) h: ?4 h9 g3 U* |: NLanguage                                 : German
, _2 w( j- G9 m5 sDefault                                  : No
; {1 ^, ^1 W% E/ ?Forced                                   : No# t" M$ N* @( y, N
2 y0 k& X+ J, k, t) @4 O' C
Text #5
% P- P3 J: t5 H- ~4 y7 WID                                       : 8
' h# x3 a! }, [6 uFormat                                   : PGS( F' G+ b4 x- M
Muxing mode                              : zlib3 A. y5 f: ]. c% U
Codec ID                                 : S_HDMV/PGS
& p) i4 k( Z# ~( MCodec ID/Info                            : Picture based subtitle format used on BDs/HD-DVDs% k6 }( V: t3 q+ o5 @) }
Duration                                 : 2 h 18 min
; J, J1 S( i1 n! k4 z' \; S  u& cBit rate                                 : 24.0 kb/s. H2 Z* \7 C) j6 \6 b0 v% i% a
Count of elements                        : 3050
* U) k% w4 W2 F& VStream size                              : 23.7 MiB (0%)
3 k# _' g  P" F. Z6 cLanguage                                 : Italian* K6 {6 N4 N' X( H3 _
Default                                  : No+ c4 z1 y0 a# j' b/ n( \1 i& u7 `
Forced                                   : No
6 d; c* O5 r3 @7 B- l1 c9 g1 t, m+ J' M' q
Text #6
+ Y* s1 d' ~9 i5 O" LID                                       : 9
7 Q7 ]7 y" k/ N- gFormat                                   : PGS
; b$ J" t" q7 y6 wMuxing mode                              : zlib3 K* U4 w" K6 z) K" Y* Y
Codec ID                                 : S_HDMV/PGS
1 H5 ~* c) P8 o9 M+ xCodec ID/Info                            : Picture based subtitle format used on BDs/HD-DVDs# v& P1 o! n/ a, T
Duration                                 : 2 h 18 min
0 M4 l' I$ w; X- OBit rate                                 : 18.0 kb/s% h1 ]* p& J, {/ J' O8 n0 `
Count of elements                        : 2420
) t- g- w; `$ U2 mStream size                              : 17.8 MiB (0%)9 |1 U. G( Q; P' v4 I  u
Language                                 : Dutch( H: P2 _* v! r- C9 g* Z) U/ [8 [
Default                                  : No
; w! H9 m; B: k1 w" T% X: k. J1 AForced                                   : No
# f4 j3 [9 W8 o+ `( q5 c1 R, \2 F  @: K5 @' A" j
Text #7
1 S9 a8 B2 g& R1 KID                                       : 10, @4 L. E4 e8 q; G! s: e! s
Format                                   : PGS0 s# W3 n8 P0 v3 N: g
Muxing mode                              : zlib9 N/ s0 s; L* W% c
Codec ID                                 : S_HDMV/PGS
0 }( a3 z- g* G( q, yCodec ID/Info                            : Picture based subtitle format used on BDs/HD-DVDs
6 x" L2 K: {$ t- b5 zDuration                                 : 2 h 19 min9 Y- `, P5 e$ @# }
Bit rate                                 : 19.4 kb/s
8 e2 I, P" z4 H5 o: ]& Y5 A$ T# PCount of elements                        : 2698( c2 J' k( R  o& P- ]$ \* i
Stream size                              : 19.4 MiB (0%)
( T# y. w- x6 L' w1 h' FLanguage                                 : Chinese
3 X& C6 ?* Y- ?Default                                  : No- o% F( p" k% {* V
Forced                                   : No+ a1 S  M6 C& X- a) @
& b, O' s3 I( d3 @- u- r  i
Text #82 P7 i, q# ^1 z8 s
ID                                       : 11' q0 ^( w8 W9 T& K/ m: C2 m
Format                                   : PGS
4 v9 Y/ H! M; t$ O$ B3 rMuxing mode                              : zlib
; M2 N$ c# p) f$ Z1 \Codec ID                                 : S_HDMV/PGS
3 v- e: s! Q) e7 l9 SCodec ID/Info                            : Picture based subtitle format used on BDs/HD-DVDs! Y" ?$ h% ]2 E5 t+ {( F
Duration                                 : 2 h 19 min6 t' e. N8 S8 N. h$ W
Bit rate                                 : 15.0 kb/s" [( ?7 d( x, U3 t( b
Count of elements                        : 2638  K* k1 X0 F" i  m, `: R
Stream size                              : 15.0 MiB (0%): E' i$ ~) H# `; m
Language                                 : Korean/ V# w( ~& f' a0 g% y
Default                                  : No; _9 I5 j) P+ \! L, }7 s. y& I
Forced                                   : No
6 r  u  @; R1 x( E& h) J$ q: a9 @( |2 k9 o1 A/ O5 y
Text #9" X" W# ~/ j3 O) z& U# H8 E
ID                                       : 12
; l/ m7 q6 M# u$ SFormat                                   : PGS
( }3 c5 @: S* e1 t9 x8 Q, Y4 NMuxing mode                              : zlib
7 V5 k& o5 ^/ o9 Q0 V8 t, v& S; BCodec ID                                 : S_HDMV/PGS, M/ a0 c! F  }7 t
Codec ID/Info                            : Picture based subtitle format used on BDs/HD-DVDs
$ g- W4 B% [; |* [2 }5 xDuration                                 : 2 h 18 min
" Q! ^0 r9 p( F; ^7 v+ q/ ZBit rate                                 : 18.3 kb/s
7 {- o/ e& z8 H7 v; nCount of elements                        : 2628
1 [# X7 N8 h- r# r& G* V- EStream size                              : 18.1 MiB (0%)
& D/ g; \1 p0 M5 D0 ~( w6 cLanguage                                 : Spanish
5 l( r! L( i/ O2 P% }2 }Default                                  : No/ k0 p7 C, q0 y
Forced                                   : No
* L  F* H( ^; r* F3 J/ y4 W3 Z5 W) \! m' P2 E( d2 K2 N8 @
Text #10; T+ G5 P  {6 D
ID                                       : 13
9 |& L+ B, C* k, `# ^Format                                   : PGS
, k0 q4 H$ J6 Y: v6 E7 fMuxing mode                              : zlib# a# W' E$ H% ?" C# |& ]4 p+ H
Codec ID                                 : S_HDMV/PGS0 u3 }( _% i0 U0 h+ m8 A
Codec ID/Info                            : Picture based subtitle format used on BDs/HD-DVDs
; L; Q3 ~; V$ l- I# JDuration                                 : 2 h 19 min
5 d% C( q' n4 X4 n# A% t" DBit rate                                 : 10.7 kb/s
( r( i- P5 e9 ]+ yCount of elements                        : 2624
6 t- i; H, z/ W, O- O; O1 c; RStream size                              : 10.7 MiB (0%)+ A  g; \* A! f- z( k
Language                                 : Arabic
8 b# E- I# r4 hDefault                                  : No
# B- `/ r) G4 V( oForced                                   : No
1 ^5 f, t9 p% s/ w% y# @1 P
2 q4 b, `& d: }: Y6 ~: rText #11
* D5 V. S  E; c; CID                                       : 14
/ f: M; z/ ^% j9 a6 L+ ?Format                                   : PGS( J0 q! p8 k4 C" P2 ^
Muxing mode                              : zlib, ^, L* A9 g% S$ o' \, T
Codec ID                                 : S_HDMV/PGS& y, @7 ]: E5 R+ d0 Z5 {& y2 j
Codec ID/Info                            : Picture based subtitle format used on BDs/HD-DVDs
4 ~2 @9 B/ c, k# xDuration                                 : 2 h 19 min! ?- m, |; x: P. d0 [
Bit rate                                 : 18.0 kb/s
# K! q1 F& W8 M0 yCount of elements                        : 2708
) F% w3 v  y  p+ Y3 G6 T; qStream size                              : 18.0 MiB (0%)/ C! f( r- p: S& J& t
Language                                 : Czech& N# A# e: m9 D" g& Z- @
Default                                  : No1 y) x* a8 v6 V
Forced                                   : No. A$ O& z9 H1 P# i

9 E5 t( G7 \) ?Text #12$ e9 ~1 k5 w1 R
ID                                       : 152 P8 t; z% \9 f- D
Format                                   : PGS
- ^* m& _6 w% LMuxing mode                              : zlib
; g1 w6 E( v; d6 rCodec ID                                 : S_HDMV/PGS
( H% T' y3 L. XCodec ID/Info                            : Picture based subtitle format used on BDs/HD-DVDs, s2 f" B% c& y2 d; d# K* T
Duration                                 : 2 h 20 min
1 Z5 q  J: B" ]' W7 l: L' NBit rate                                 : 19.6 kb/s
, z+ o$ g( X/ s/ S2 D- r% U9 N% VCount of elements                        : 2494
$ r& `( T9 p1 M- t. p- R2 @Stream size                              : 19.7 MiB (0%)6 v7 H$ _9 z& R, a; P( C) w4 n: ^
Language                                 : Danish
. {7 T8 g6 b3 [' U& k) y% WDefault                                  : No1 O% }: U& P6 z( {' a
Forced                                   : No
+ I3 ]7 b4 A" Y  c3 d: |3 w8 g$ [" O6 ]6 @  D% ]% |; W
Text #13
2 a+ c& `+ t0 T# Z, W% A% lID                                       : 16
, H: [0 M! h, \0 t! nFormat                                   : PGS8 _+ x  ^, V! A5 X, }  u  t
Muxing mode                              : zlib! `6 M+ N- K9 }) @/ ~7 e
Codec ID                                 : S_HDMV/PGS
2 n2 c# \3 G- M5 F& f5 \  j% j, OCodec ID/Info                            : Picture based subtitle format used on BDs/HD-DVDs* L& ~& \$ z3 x
Duration                                 : 2 h 19 min: ?6 a; f4 |( j3 }& e! @
Bit rate                                 : 15.6 kb/s
8 A: \( k. P4 TCount of elements                        : 1978/ N/ A1 V0 g2 z! ?1 h
Stream size                              : 15.6 MiB (0%)
6 J2 M5 S* p* B& Q$ O) |Language                                 : Finnish
$ K. C1 A3 Z3 g0 b- }4 DDefault                                  : No9 `8 [7 c( I! e& L6 V- X
Forced                                   : No6 u% S$ }& ]5 m1 C* G7 S
0 S7 v0 }8 E. E# M+ r
Text #142 `/ B8 [1 s$ v" q7 t; a- H
ID                                       : 17
7 N9 C2 x( ]3 B2 h& V9 Z( CFormat                                   : PGS
! e: g' l. e/ rMuxing mode                              : zlib
7 c1 a- ^/ D0 P0 Z1 a! V, [Codec ID                                 : S_HDMV/PGS
5 t! u1 F" N$ G8 ?Codec ID/Info                            : Picture based subtitle format used on BDs/HD-DVDs3 S( X0 n  t: R9 x" L9 H, o
Duration                                 : 2 h 19 min
" p4 T. j5 f. M0 ~4 lBit rate                                 : 19.8 kb/s
. s9 h+ x5 R1 YCount of elements                        : 2702
9 m/ T& N  J) b2 [! xStream size                              : 19.8 MiB (0%)
, T' y5 K6 w- C- Y* k( ^Language                                 : Hungarian$ f5 T' G1 F) O  S0 G  I9 ^! m
Default                                  : No
5 S& \( a1 v& [9 ]2 P+ Z+ HForced                                   : No# A! i1 R. X4 Z& B1 [6 Y

& z5 }* e" \7 l) B3 D1 zText #15
6 L7 l- F  o$ _$ R. `. _5 \) L9 uID                                       : 187 {% f5 K, d% p' a7 W( x
Format                                   : PGS
( M2 i% _6 j8 `7 f) g# YMuxing mode                              : zlib+ I6 B  ^9 m1 ]5 k4 J
Codec ID                                 : S_HDMV/PGS
4 A' O6 M' [- c8 R. _2 j8 G3 k" WCodec ID/Info                            : Picture based subtitle format used on BDs/HD-DVDs: k. F* B4 D  u: |
Duration                                 : 2 h 19 min5 u8 \4 W% L- G+ v1 D& T' @: t4 o+ W
Bit rate                                 : 17.5 kb/s- |( U' k. a, M1 M9 u
Count of elements                        : 22526 e% h% y  Y0 u) V) `: o$ o
Stream size                              : 17.5 MiB (0%)
# \5 x" S7 ?: iLanguage                                 : Norwegian6 p2 Y7 y/ \3 k
Default                                  : No- Q4 n7 T5 E5 u1 b+ @, s4 W; Z
Forced                                   : No- k- w+ J. p# ~& T
2 e/ _& y- o1 ]: k* F& S. [
Text #16. b6 E' V9 M; C& A5 z
ID                                       : 19
# [6 c8 W/ F2 m7 Q+ CFormat                                   : PGS; [( a$ C( l0 g
Muxing mode                              : zlib
, N! v. t6 O/ Z7 [" @( ]. m2 }3 zCodec ID                                 : S_HDMV/PGS+ o9 x) Z6 o2 G- n7 F9 s
Codec ID/Info                            : Picture based subtitle format used on BDs/HD-DVDs+ ]" h( d8 [5 }) F
Duration                                 : 2 h 19 min$ M+ g$ ^/ Z4 ]6 x2 t4 a
Bit rate                                 : 17.3 kb/s
9 J% Y5 ~2 ~; z& v9 z6 tCount of elements                        : 2562
2 e& n4 w; U- f7 PStream size                              : 17.2 MiB (0%)
% Q  J. w0 G4 ILanguage                                 : Polish4 ~9 S* q- }- Z9 E$ g
Default                                  : No) c7 j4 h- R" j5 i4 S: d2 u/ m
Forced                                   : No: B+ E: y% b$ }! C1 x" G3 m
) a; H  l+ L3 |8 Y: x6 P% R
Text #17) l+ J, N5 e5 Z8 Y
ID                                       : 20
/ V4 Z6 D9 ?7 P+ @Format                                   : PGS
" w  V! A( e  ZMuxing mode                              : zlib
0 Y( |! z- p% E; sCodec ID                                 : S_HDMV/PGS" Y9 {$ F) }2 K6 R, u7 b& r
Codec ID/Info                            : Picture based subtitle format used on BDs/HD-DVDs
* v- h% x. k/ E2 }+ \' _, J5 u* aDuration                                 : 2 h 18 min4 d- ^. U* U( W/ {/ c7 v
Bit rate                                 : 19.9 kb/s6 y5 [5 L! A1 y) a* I9 e2 V7 u/ J
Count of elements                        : 2710
1 _! c; \  s5 |" a5 dStream size                              : 19.6 MiB (0%), |# A, y% w  v+ r
Language                                 : Romanian" ?& @; L+ d! Z% P2 @5 n3 ?# M6 ~
Default                                  : No* ^( U7 v4 K9 B! I7 ^/ E
Forced                                   : No
+ ^- D0 h% H7 q: Z$ B, Q  T8 @! D3 x8 J
Text #18
, L, q( _+ M2 Y+ K9 k: Q6 DID                                       : 21
" p* Y( Q3 \; Y' W' m: qFormat                                   : PGS
5 _4 W; _1 t! u) F3 kMuxing mode                              : zlib
0 T7 O4 ~8 k% N4 Y0 l3 }* @Codec ID                                 : S_HDMV/PGS# _5 }  b- i! S& ], j3 S
Codec ID/Info                            : Picture based subtitle format used on BDs/HD-DVDs2 |3 w, \1 @4 f1 _& I/ A
Duration                                 : 2 h 19 min2 C  H* S" Q6 Z# a1 j
Bit rate                                 : 20.6 kb/s
& M' w3 M: Z( h! w" ?# |# C& A7 }5 dCount of elements                        : 2634# S" e" @. @0 {0 G
Stream size                              : 20.5 MiB (0%)
! k( }/ N3 V$ a5 Y' a; qLanguage                                 : Russian2 X  Z9 y* q- v4 s. _- y, E. O
Default                                  : No
$ d3 z/ V" q5 u9 m0 \Forced                                   : No
8 ~$ I; k: ~6 F8 L2 x$ |5 N& M' p, d9 |3 A, j9 {" a( T% ?
Text #19, @) q3 X' I; T4 N  h
ID                                       : 22
* O4 b" @; R" c) Y/ DFormat                                   : PGS
! ?& Z& n9 p% qMuxing mode                              : zlib
- _3 U6 W$ c& u0 O) UCodec ID                                 : S_HDMV/PGS
- f! D" U0 w# ~Codec ID/Info                            : Picture based subtitle format used on BDs/HD-DVDs( s2 R: z3 K+ b5 M4 P$ z7 t
Duration                                 : 2 h 18 min
4 v2 V! i" w' p/ LBit rate                                 : 17.0 kb/s3 m5 S2 ]+ E1 f
Count of elements                        : 2338! f! c2 V6 K6 W$ L- |
Stream size                              : 16.8 MiB (0%)
* b+ ~+ ]! t" I% TLanguage                                 : Swedish8 d9 v) `0 E% c+ Y9 k
Default                                  : No
+ e0 Q* @. A. \1 T, DForced                                   : No
2 K* j3 D9 L7 _: Z: i  V7 N
9 b* Z7 n: |& EText #20
$ M  _9 }3 h2 C' F2 E4 A8 z- o! GID                                       : 23. H2 t! [' {, E5 n( G. T- B5 C
Format                                   : PGS
1 ?& ^! m3 C/ W  d$ h# RMuxing mode                              : zlib
9 V$ E2 L/ E; @9 {/ w, ^Codec ID                                 : S_HDMV/PGS, ]  @: h" b/ T6 S2 l% T  E
Codec ID/Info                            : Picture based subtitle format used on BDs/HD-DVDs8 q; ?, s! O4 Q6 c( d0 d( L
Duration                                 : 2 h 18 min* [& w- v3 \( o) G( W
Bit rate                                 : 19.3 kb/s
  V; c8 \7 l3 S2 E. q! ?. `Count of elements                        : 27162 j: L$ Q& @. O" o+ M& G7 V! n
Stream size                              : 19.1 MiB (0%)
) S# H6 O; R( ^+ m  yLanguage                                 : Thai/ O* O  w" b2 a0 Y
Default                                  : No
9 E3 ?1 K' ?: r- t1 h; mForced                                   : No
7 f* l" n" V) {; {. k6 R1 |  |+ |9 Z1 V% l& x
Text #21
  F. o6 w7 g! HID                                       : 24, \6 z9 ]6 L* V$ k- q
Format                                   : PGS
* h/ x+ o, Y4 h5 [: m% [' yMuxing mode                              : zlib
) g+ U7 I/ f! _. @+ @& K9 {+ G; ZCodec ID                                 : S_HDMV/PGS; a- J, y9 `8 B/ l
Codec ID/Info                            : Picture based subtitle format used on BDs/HD-DVDs
4 X$ O8 }& t+ h  z$ ^Duration                                 : 2 h 21 min
  B6 h. x) y; TBit rate                                 : 40.2 kb/s
3 C% M9 e8 Q! k! eCount of elements                        : 3936. X+ Z3 u- _. A( Q$ F" ~6 D
Stream size                              : 40.5 MiB (0%)
, S) g; L; u* z# u3 F$ LLanguage                                 : Chinese
/ g5 c" e& Z2 t( u; r, i' ?& e5 `Default                                  : No
0 |% ~8 g' i7 n3 K$ E0 M- D. q9 dForced                                   : No
- U! v! R$ W* v9 ?9 z. A" g* b( V/ D0 m1 H# |4 P+ X4 K
Text #22
# p/ x1 U. M) O1 v% q5 zID                                       : 25- f- K. ^7 n% r( c5 x' G
Format                                   : PGS1 f! H4 M- n4 ]% j
Muxing mode                              : zlib! _0 e0 u! w' i$ ?' f
Codec ID                                 : S_HDMV/PGS9 b; X; }& W6 Q$ i/ w
Codec ID/Info                            : Picture based subtitle format used on BDs/HD-DVDs3 R8 O& M5 ]1 m. a2 K9 e
Duration                                 : 2 h 21 min
  `' e; y; F7 _- `Bit rate                                 : 35.8 kb/s4 \8 U& x0 a/ ]! B
Count of elements                        : 3274
1 A6 J  r, B: f6 M+ uStream size                              : 36.1 MiB (0%)2 [% s& G' s# p# u/ k! B3 _, _' d
Language                                 : Japanese2 B/ P: v! {' E" M/ a
Default                                  : No; `& f  P! J: |+ X  T
Forced                                   : No9 x/ l( ?. M) N. [. o' |* f* f$ H

- f( a8 U+ o2 l  r! CMenu+ V) p9 m% d& B( B( A
00:00:00.000                             : :Chapter 01  }* k8 I# h- \5 v
00:03:00.430                             : :Chapter 027 g- g" s' n% v
00:05:05.138                             : :Chapter 032 |+ ^: `5 ?" {( c7 ?
00:10:33.800                             : :Chapter 045 Q' @$ J7 q  i1 O
00:12:08.394                             : :Chapter 050 n8 ~. S6 r7 z9 S& _6 R
00:14:24.280                             : :Chapter 069 t  O- p" [1 T  ~% e9 C" [
00:17:37.932                             : :Chapter 07
9 ]& _5 c) K8 S' N0 a! W6 {00:20:30.896                             : :Chapter 085 ^$ o- z3 k0 j4 K
00:24:58.622                             : :Chapter 09
2 l3 G  N' S( @- z00:28:51.688                             : :Chapter 10
2 m5 y- U4 Q4 l% i00:34:10.215                             : :Chapter 11
, O' O* {+ E2 V8 T  c8 z$ A00:40:28.843                             : :Chapter 12
; `% m  W2 B' {+ ~( ]1 w" K00:46:00.925                             : :Chapter 134 Z+ e  ?8 S8 t
00:46:52.226                             : :Chapter 140 I7 U; ^6 R0 O& R
00:49:17.329                             : :Chapter 156 f8 K5 m  S# F3 L
00:51:16.240                             : :Chapter 16& }, J. I) h. s, X0 Q  k
00:57:01.918                             : :Chapter 17
$ n# W, w) {; y6 I% F, \3 m+ g7 U00:58:36.847                             : :Chapter 18
" O: w( o& }  y01:02:37.170                             : :Chapter 19
9 r/ u' I- M- \* N& ~01:06:05.795                             : :Chapter 20
1 _8 o) e# h, k0 x01:09:00.762                             : :Chapter 21
( ~) Y' W3 u$ }8 V$ @01:16:52.316                             : :Chapter 22  G, A" t4 ~0 q8 N& X
01:22:18.642                             : :Chapter 23
* _) o' z4 Q# u# [7 @01:25:29.916                             : :Chapter 241 ^; i  Y* ?( @/ y: J0 N' l- C
01:31:41.162                             : :Chapter 25: h" O! b/ {0 q- Q# m% p0 K3 \3 m
01:34:03.805                             : :Chapter 26
7 d7 }1 M2 V- [6 U& L" M+ t6 k# M01:35:48.618                             : :Chapter 27
% ]% s5 ^2 X% \: v7 ?% X: X8 Q% U01:39:30.590                             : :Chapter 285 }) J5 t7 n/ x# r2 R2 m% f2 m
01:43:49.932                             : :Chapter 29# G2 r9 E  ?% A0 D/ r+ `
01:49:26.393                             : :Chapter 30/ F. Q. |5 ]7 l
01:54:24.441                             : :Chapter 31$ n6 a$ S6 P  B1 n
01:58:44.617                             : :Chapter 32
3 X4 s1 P" z+ y; E8 u3 T; F02:01:09.554                             : :Chapter 33
2 r  Q+ b+ ^+ x02:05:30.064                             : :Chapter 34& V# `# o0 M7 y4 M- \9 }
02:07:32.687                             : :Chapter 351 W4 c! c# A6 @6 N# P
02:10:23.566                             : :Chapter 36
; T9 D4 G% Y" t5 M, K9 n02:12:10.089                             : :Chapter 37# ?8 F6 ~3 ?' H! U+ F* n
02:15:03.387                             : :Chapter 380 C. B! W& O; S1 X9 ?3 m3 P5 P0 C
02:18:57.037                             : :Chapter 397 Z- o  i2 d8 b* ]( P
02:21:16.343                             : :Chapter 40

2 p+ h8 y) I# u2 g$ W: P* K
游客,查看本帖隐藏内容请回复 | 加入VIP贵宾组可免积分免回复下载 立即了解 | 还不是会员:点击获取邀请码 Invitation Code

本版积分规则

小黑屋|Archiver|蓝光电影资源网

GMT+8, 2020-7-9 18:35

快速回复 返回顶部 返回列表