BluRayCD Forum

 找回密码
 立即注册【分享大片】

QQ登录

只需一步,快速开始

查看: 9|回复: 2
收起左侧

[经典影片] 闪灵1/鬼店 [4K美版原盘压制 导剪重制版 内封中字] The Shining 1980 US DC REMASTERED 1080p BluRaycd x264 DTS-HD MA 5.1-SWTYBLZ 17.18GB & 14.39GB

[复制链接]
  • TA的每日心情
    奋斗
    2020-4-12 08:11
  • 签到天数: 194 天

    [LV.7]以坛为家

    7613

    主题

    7807

    帖子

    6万

    积分

    Forum Moderator

    金币
    10075 枚
    体力
    9174 点

    卓越贡献勋章

    24小时 发表于 2020-5-20 14:46:05 | 显示全部楼层 |阅读模式

    / w! \7 g8 b5 D3 b) Q" j
    ' @* D% P( O, f8 j4 y* B5 `* k, {◎译  名 闪灵/鬼店(台)/幻觉/幽光. E) }+ H! m$ ^! ?
    ◎片  名 The Shining
    9 V3 p! f! }( j5 J5 }" M! j◎年  代 1980
    5 L# n: ^* n, i3 a) Y% Y◎产  地 英国/美国& l" b' _6 t2 ?( y$ F' a: v' Z  ~! }
    ◎类  别 剧情/悬疑/恐怖
    # X  e2 x; H; K, q9 Q◎语  言 英语/ b3 H9 w$ m' v& Q" ^/ W
    ◎上映日期 1980-05-23(美国)4 D) w2 v1 B  i0 A0 y% |  F
    ◎IMDb评分 8.4/10 from 852,631 users+ J, [# k5 _" g( L2 ^" g) N
    ◎IMDb链接 https://www.imdb.com/title/tt0081505/
    2 e# R+ N7 X% f◎豆瓣评分 8.2/10 from 307,068 users! m& y; M' s. T3 ?3 v0 M
    ◎豆瓣链接 https://movie.douban.com/subject/1292225/
    * [5 G  f/ F; i◎片  长 2 h 23 min
    % o" ]- y! K$ |+ Z# D; @/ X/ ~◎导  演 斯坦利·库布里克 Stanley Kubrick- m5 }' n, n$ z6 K* b" t2 f
    ◎编  剧 斯坦利·库布里克 Stanley Kubrick! y+ F5 @1 z( {- ]/ h) I  v
           黛安·约翰逊 Diane Johnson8 x: B5 j7 W% u* G8 y
           斯蒂芬·金 Stephen King
    ' _$ s. z" U( l% Z2 `◎主  演 杰克·尼科尔森 Jack Nicholson
    : L& e8 ]& Z7 N$ Z       谢莉·杜瓦尔 Shelley Duvall
    4 U/ J7 L$ _" D6 h2 b. Q8 A       丹尼·劳埃德 Danny Lloyd
    $ c  W9 ~5 b* w; _2 n) i       斯加特克罗索斯 Scatman Crothers
    : Y" g3 p  |. i1 Q0 u       巴瑞·尼尔森 Barry Nelson# r: w  O- j/ n! h! S  `
           菲利普·斯通 Philip Stone# s: U8 i: r/ \  a: U" K
           乔·托克尔 Joe Turkel+ d, `5 C- a4 T2 X; R( H. o
           安妮·杰克逊 Anne Jackson
    9 H- }9 |  N. _+ i2 [0 k- W$ \       托尼·伯顿 Tony Burton: v7 p2 l7 y' t
    + s3 l& h% E. U7 x! k  n4 F' }
    ◎简  介   
    0 p0 {5 ]7 C. p+ [7 A2 q2 F
    ; L. P0 V6 w0 o( r  杰克(杰克·尼科尔森 Jack Nicholson 饰)是一个作家。一个冬天,他得到了一个看管山顶酒店的差事。这正合杰克的意思,他正好可以有一个幽静的地方写作。于是杰克带着妻儿搬进了酒店。+ E& T! c0 K- u8 S9 \7 x
    " v; O0 O2 \8 S4 I& ?3 ~
      冬天大雪封路,山顶酒店只有杰克一家三口。从他们一搬进来,杰克的妻子温蒂(谢莉·杜瓦尔 Shelley Duvall 饰)就发现这里气氛诡异,杰克的儿子丹尼(丹尼·劳埃德 Danny Lloyd 饰)经常看到一些他不认识的人,但这里除了他们一家别无他人。而杰克除了一整天闷头写作外,脾气亦变得越来越古怪。
    % A% M  }% X" w1 d) Q
    ) b9 ]+ Z' F# K% T  直到有一天,温蒂发现丈夫这些天来一直写就只有一句话:杰克发疯了!
      ]. n( \& R! v# I) Y; ]& A6 l8 S, K# N$ u4 q: b  _! V
      A caretaker of an isolated resort, has a complete mental breakdown, terrorizing his young son and wife.
    0 [% ^8 J& @, o) {( `, u& \
    Video5 B/ Y) J. Q5 C' k% D
    ID                                       : 17 X# a+ k5 x1 q+ k% R' r# n: A
    Format                                   : AVC; i$ \7 t7 P* B
    Format/Info                              : Advanced Video Codec
    / L" \8 w" x" C. \, ~' UFormat profile                           : High@L4.1- Z* G9 Y% p' i- v4 L4 R6 U6 e4 O
    Format settings                          : CABAC / 4 Ref Frames6 o0 W0 M* r) ^( n) V* G
    Format settings, CABAC                   : Yes
    # P. Y+ v0 G% ?' x, T9 yFormat settings, Reference frames        : 4 frames; n; o, L1 _( m  Z" }6 |
    Codec ID                                 : V_MPEG4/ISO/AVC
    9 ^5 J$ n3 U+ Z: ?0 O3 R' G- UDuration                                 : 2 h 23 min; N& W0 w4 F$ m+ v/ _8 N
    Bit rate                                 : 12.8 Mb/s
    " b$ D! d8 a% c0 n- nWidth                                    : 1 920 pixels; N5 {2 }5 g+ A% N( ]% V3 Y2 T
    Height                                   : 1 080 pixels& k. I1 d. z* U
    Display aspect ratio                     : 16:9' f3 j1 k7 S+ T. C' ?9 |  [
    Frame rate mode                          : Constant' Y- j: r0 N% K6 g
    Frame rate                               : 23.976 (24000/1001/37687) FPS
    . m6 z' H/ K" ?# j1 k8 i. GColor space                              : YUV. D4 l+ S$ g, I
    Chroma subsampling                       : 4:2:0
      l) s2 C8 Y; l9 ^5 ^! yBit depth                                : 8 bits' h. ]' F6 \4 |; ?! v
    Scan type                                : Progressive
    " k1 a" L1 w6 s" _- gBits/(Pixel*Frame)                       : 0.258
    5 E- H  T; B7 ~* ?- U$ {* n9 aStream size                              : 12.9 GiB (75%)* }. h# U# I9 }* D+ \
    Title                                    : The.Shining.1980.US.DC.REMASTERED.1080p.BluRayCD.x264.DTS-HD.MA.5.1-SWTYBLZ
    5 N3 y# S7 S  m! ~/ P, eWriting library                          : x264 core 157 r2935 545de2f
    4 W4 [9 F, D. P* w! cEncoding settings                        : cabac=1 / ref=4 / deblock=1:-1:-1 / analyse=0x3:0x133 / me=umh / subme=10 / psy=1 / psy_rd=1.00:0.15 / mixed_ref=1 / me_range=48 / chroma_me=1 / trellis=2 / 8x8dct=1 / cqm=0 / deadzone=21,11 / fast_pskip=1 / chroma_qp_offset=-3 / threads=34 / lookahead_threads=5 / sliced_threads=0 / nr=0 / decimate=0 / interlaced=0 / bluray_compat=0 / constrained_intra=0 / bframes=8 / b_pyramid=2 / b_adapt=2 / b_bias=0 / direct=3 / weightb=1 / open_gop=0 / weightp=2 / keyint=250 / keyint_min=23 / scenecut=40 / intra_refresh=0 / rc_lookahead=60 / rc=crf / mbtree=1 / crf=19.0 / qcomp=0.60 / qpmin=0 / qpmax=69 / qpstep=4 / ip_ratio=1.40 / aq=1:1.00
    4 t# G2 N- I% GDefault                                  : Yes9 c4 Z% P3 G6 M9 w7 q; X6 Z# X2 s) @
    Forced                                   : No2 Y7 B% D5 a1 w7 Z' O2 M6 o
    3 s, v( c9 I* ]3 |
    Audio' o5 J& Q6 E2 ^* }7 A/ j. J* X+ h, p
    ID                                       : 2
    % N; v' m$ R, x2 y5 A& _- [; YFormat                                   : DTS XLL7 _" U/ ~: [1 u1 ^2 |  ?, f' T2 _! U
    Format/Info                              : Digital Theater Systems. v# J9 m! ?- ~5 s- r( S
    Commercial name                          : DTS-HD Master Audio* Y1 v5 y- y; F7 s1 l
    Codec ID                                 : A_DTS# P- F* S" i! q- K/ G1 k! M
    Duration                                 : 2 h 23 min0 h; |' z$ I4 o8 E1 o. L/ u7 Q/ _
    Bit rate mode                            : Variable& o7 Z9 ~" B) Q, t/ _
    Bit rate                                 : 4 098 kb/s
    . G. C0 o( k) L- C. rChannel(s)                               : 6 channels" ~. g. I( u0 j4 b- R6 g: `3 i
    Channel layout                           : C L R Ls Rs LFE
    8 U5 ^) @/ D9 |. WSampling rate                            : 48.0 kHz
    & P# j# q% ]  U! DFrame rate                               : 93.750 FPS (512 SPF)9 A; l7 Q9 O+ l
    Bit depth                                : 24 bits
    ! W1 E% z" K/ ?! B$ ]6 }& ]Compression mode                         : Lossless4 G3 A, o% J& Y+ q6 B6 |2 r
    Stream size                              : 4.12 GiB (24%); w3 L- A9 o7 k
    Title                                    : The.Shining.1980.US.DC.REMASTERED.1080p.BluRaycd.x264.DTS-HD.MA.5.1-SWTYBLZ; `/ N$ y2 L; s, a: {
    Language                                 : English' m9 A- Q0 k! l, Q1 h
    Default                                  : Yes
    % F( ^1 d  W0 l" uForced                                   : No: {" u2 S, Q; L7 G
    " E$ F( U. l2 o' Z, Z5 q0 l+ e
    Text #1
    9 p; w: l, y5 w1 FID                                       : 39 {3 X0 q. @$ P6 ~9 m
    Format                                   : UTF-8
    ; s! I" c0 {5 p; \) T& u7 @3 @9 JCodec ID                                 : S_TEXT/UTF8% c3 F% D& z3 v1 f
    Codec ID/Info                            : UTF-8 Plain Text8 w4 M. e* Y$ o/ ~: {4 n
    Duration                                 : 2 h 14 min
    % N8 _% ~# }7 X( a; j" pBit rate                                 : 41 b/s
    ; e& U0 R8 ?6 y( {/ \Count of elements                        : 1453, x: W' n+ {9 c: I
    Stream size                              : 40.4 KiB (0%)
    6 x( Q# F2 ?: Y0 l6 j5 f8 CTitle                                    : English-SRT
    ; j# j: D" S8 b6 a- \Language                                 : English- j* B7 T6 x5 U8 ~! Q
    Default                                  : Yes$ z6 ~8 Q6 k9 J( G( p6 O
    Forced                                   : No
    9 n: Z3 Y+ A3 i$ v9 [$ N1 H5 q' t- M- g3 b# G% F
    Text #2$ z  C- t+ a: j/ z2 L
    ID                                       : 4$ n# K2 S2 A2 }! _2 _' S& k
    Format                                   : PGS" B+ E' [, O) u+ J& j) ?  ]
    Muxing mode                              : zlib2 r  ^! l/ X$ W
    Codec ID                                 : S_HDMV/PGS& m4 j  [, f: w! P6 B- w$ N
    Codec ID/Info                            : Picture based subtitle format used on BDs/HD-DVDs
    # y- j4 t0 \6 A; B! ~Duration                                 : 2 h 16 min7 P4 i7 q" N$ D- W1 }# a: ?
    Bit rate                                 : 23.4 kb/s7 s( N' w; ?4 l5 k  E7 {
    Count of elements                        : 3042
    : n% L% X# y/ r" X! u' TStream size                              : 22.8 MiB (0%)
    8 X& O* K* X# XTitle                                    : English-PGS6 i# ?" x' d3 O
    Language                                 : English+ c5 k5 ^# _/ f
    Default                                  : No
    4 R$ l7 t; Q& R& U' NForced                                   : No* Q- j2 G; z1 H/ U/ D, p$ N" G/ C

    + p" J4 J9 l: J4 z9 l+ L1 fText #3
    . ~7 _3 `% S4 Y7 m) J5 p( i2 l8 ^) mID                                       : 54 w4 _7 A& W" t& V6 ^; S0 u8 m
    Format                                   : PGS/ K. n7 O) I* o9 O
    Muxing mode                              : zlib+ k2 Z0 }: }7 f  g, [% c
    Codec ID                                 : S_HDMV/PGS
    0 h, Q& A! w, F5 CCodec ID/Info                            : Picture based subtitle format used on BDs/HD-DVDs0 H+ Q9 I* h; K; I; Q4 s5 A
    Duration                                 : 2 h 20 min
    ! N1 y, D  E' r% K: `7 P/ P' o  UBit rate                                 : 18.4 kb/s
    ! C7 n: W( i4 Z2 Z" f' x+ }Count of elements                        : 2378
    & L2 I+ I1 ^: W2 b" TStream size                              : 18.5 MiB (0%). v1 X( z' g$ j3 A
    Title                                    : French-PGS
    $ i% A4 y7 K$ V8 E* p% `1 E  ?( O- dLanguage                                 : French
    1 U, V' Y- `" S  X" r% h2 ^% ^6 nDefault                                  : No, G( h% l- N: G8 s! r
    Forced                                   : No
    ; g# `( d1 K7 M1 t7 i  |/ d5 }# X* E! ]! _9 z
    Text #41 C+ q- o: c1 M$ h% d
    ID                                       : 6
    0 k6 ^! i) h6 ^9 e7 [Format                                   : PGS
    $ M+ I1 n, x' CMuxing mode                              : zlib
    / o+ _/ n- ^2 ^Codec ID                                 : S_HDMV/PGS
    * s/ k6 L: s" B1 p1 k/ ?Codec ID/Info                            : Picture based subtitle format used on BDs/HD-DVDs
    7 h" c! n. K1 @, V8 m$ eDuration                                 : 2 h 18 min) ~" P) g7 r; k% Z
    Bit rate                                 : 24.5 kb/s
    - b- j5 W  y2 F* S4 z7 ]( x# WCount of elements                        : 3062. W+ G# C8 E: D2 M. R
    Stream size                              : 24.2 MiB (0%)% j: J9 B9 H: J9 @1 @& N6 a+ D
    Title                                    : German-PGS6 _8 c" W; I/ I3 B* L, r( n
    Language                                 : German, F4 X" L' j' s0 Z  \% z
    Default                                  : No
    ) c% q) t* U; ^7 KForced                                   : No
    ) T" b# Z8 Q0 F  C& w  `
    ( q9 G; Y% R! h  qText #5
    % h6 a! d0 S0 y% E9 s4 hID                                       : 77 m2 _' U* I" s0 ^1 n
    Format                                   : PGS
    - E# ]! a: l" A; PMuxing mode                              : zlib
    ; w, C9 C5 o6 @, B- G5 i# jCodec ID                                 : S_HDMV/PGS
    % A) A. }& [7 f9 s* FCodec ID/Info                            : Picture based subtitle format used on BDs/HD-DVDs$ f& e5 _. x: B' ^; c, F+ D
    Duration                                 : 2 h 18 min- ]6 Y) c: L0 {1 w, g
    Bit rate                                 : 24.0 kb/s
    6 C4 W4 l. m5 Y4 \# OCount of elements                        : 3050! l! e) a! b& F7 A! H1 c! _
    Stream size                              : 23.7 MiB (0%)
    ; U" ]) d7 I( L& VTitle                                    : Italian-PGS
    ) q6 i) ~5 G' M$ W3 fLanguage                                 : Italian
    9 E/ _* f/ {: r9 `, p2 p) HDefault                                  : No
    + E6 d" J+ H+ K. aForced                                   : No' ~. N2 N) Y& J+ J2 T

    : Y" D+ r. V' s9 r/ K+ MText #6
    " M/ w2 n# u+ u5 S; H6 ~/ XID                                       : 8
    7 V9 d& Q* [/ q6 L( DFormat                                   : PGS9 W7 D% `1 t% q: b% K! k; i
    Muxing mode                              : zlib
    : @! o' e, D2 \5 I  s' z% R0 QCodec ID                                 : S_HDMV/PGS
    * r% p2 u* E9 c  G6 ~Codec ID/Info                            : Picture based subtitle format used on BDs/HD-DVDs
    : i  p, h6 d, n0 h! DDuration                                 : 2 h 18 min
    7 E' M8 N  M# \- ~- \( qBit rate                                 : 18.0 kb/s
    9 L& k' G9 D6 ]0 Y: A. C0 MCount of elements                        : 24202 j& t/ Y! x! w1 O1 A
    Stream size                              : 17.8 MiB (0%)2 F" S, t* D, l! {1 ~' l5 r; O5 B
    Title                                    : Dutch-PGS8 N+ \* g( N8 o
    Language                                 : Dutch
    1 D* ]( u, z0 h: lDefault                                  : No) }6 w6 S1 J7 S; Y% [4 u" _
    Forced                                   : No
    ) N: f* O$ U8 u& i3 T' S' x, u* Z4 M0 M1 C
    Text #7
    - G2 B2 S9 a4 B. W" |; ?9 y6 IID                                       : 9
    & p$ O' k  \+ w9 {) ZFormat                                   : PGS
    & y; ]* C1 A* |. FMuxing mode                              : zlib( K4 v/ T4 u# h, b% _6 F* X% `
    Codec ID                                 : S_HDMV/PGS
    $ U2 d* s" [+ Q! U6 V% b* ECodec ID/Info                            : Picture based subtitle format used on BDs/HD-DVDs% ~/ c9 o  k/ k% z- T! n6 e
    Duration                                 : 2 h 19 min5 b- P* J' e0 V* ]% \
    Bit rate                                 : 19.4 kb/s
    2 c) R0 _! C. V( c* `7 d7 iCount of elements                        : 2698- Z% L" C$ q* z- P$ j7 C" D3 O
    Stream size                              : 19.4 MiB (0%)
    * c- f8 g; R5 Z! Q: hTitle                                    : Chinese-PGS
    / s+ [8 B  H. RLanguage                                 : Chinese
    % ^" o$ n" ?$ k$ l2 B2 C/ nDefault                                  : No. U: i0 ~0 o; x9 |
    Forced                                   : No  [& l$ R6 F% d$ Z( {% m. y2 {3 ~

    ) [. R; ?4 W$ Y, n+ [1 b/ S6 a8 TText #8
    ' N1 `7 ^' R9 a+ e6 t  l: |+ _$ N5 T. uID                                       : 109 ~9 O% ]6 S5 e& l
    Format                                   : PGS+ l4 o1 @  T, u. R2 T6 P3 |1 n
    Muxing mode                              : zlib( C  V: p, V& f
    Codec ID                                 : S_HDMV/PGS
    & u% Q* i! |. G2 SCodec ID/Info                            : Picture based subtitle format used on BDs/HD-DVDs+ s* r0 a2 P! e6 H
    Duration                                 : 2 h 19 min
    . K) Z8 Z& ?, l9 }Bit rate                                 : 15.0 kb/s7 P7 H2 B8 a5 q) l7 I
    Count of elements                        : 2638
    % M+ {- f2 ~- [2 V. q! JStream size                              : 15.0 MiB (0%)
    8 ~& v; E+ I4 }; W6 q2 I8 XTitle                                    : Korean-PGS: [$ A, G7 [; ~/ B
    Language                                 : Korean* R+ d) s! S  z) G) D- o3 x
    Default                                  : No
    6 F( D" \: Q+ C; b& k  e0 vForced                                   : No
    1 l$ a; X% M  C0 c! p% q6 L7 V! R6 A7 I5 z- ~+ I
    Text #9# f6 c9 X/ e6 e0 W8 I
    ID                                       : 11
    . b0 D' r& ^$ E! B4 I! |5 sFormat                                   : PGS
    6 C* F; p6 T. G6 ~1 L5 E$ N. BMuxing mode                              : zlib
    ' s( g# z* H- F6 [( d+ `1 uCodec ID                                 : S_HDMV/PGS) b  Y6 R* P  k! @
    Codec ID/Info                            : Picture based subtitle format used on BDs/HD-DVDs" {+ G/ `1 d' E
    Duration                                 : 2 h 18 min
    3 Y8 n. w* X. ?Bit rate                                 : 18.3 kb/s
    , \% Q! a$ I1 [Count of elements                        : 2628  @7 V+ I( q! e0 h+ @8 L
    Stream size                              : 18.1 MiB (0%)
    % H7 i; D# l& V! oTitle                                    : Spanish-PGS, x. R% e+ `9 |" v7 H# b
    Language                                 : Spanish
    & l* L# {0 K! p6 L% O% n% F- kDefault                                  : No
    ' P. n7 a& _2 v4 j& G) n# \Forced                                   : No
    # a6 V0 X9 n0 p1 S) m/ p7 @
    7 y3 M6 |+ f1 p7 e$ X% q3 z4 ?Text #10  y+ y! a0 K8 M+ n5 H
    ID                                       : 12
    1 b$ I+ ^/ Z* m2 N3 V" hFormat                                   : PGS
    " B2 s% {- z) aMuxing mode                              : zlib  _, U  G. M1 A- D4 m
    Codec ID                                 : S_HDMV/PGS
    0 t: k" V- B! v6 w- `9 p( e" }7 m0 a2 MCodec ID/Info                            : Picture based subtitle format used on BDs/HD-DVDs: |  z1 u% K% v& H) R  [
    Duration                                 : 2 h 19 min
    0 ]' k) S) S( L6 V& P3 pBit rate                                 : 10.7 kb/s
    7 m/ A" |2 S% y0 Y% H& MCount of elements                        : 2624# ]" a/ w3 q  u0 i" x8 `/ A- ]3 C
    Stream size                              : 10.7 MiB (0%)
    & U1 x% j) d2 `$ S( \( wTitle                                    : Arabic-PGS8 G9 Y: f0 X2 k& O; o3 k
    Language                                 : Arabic: f) R; _$ k9 m1 l/ f& r* F
    Default                                  : No/ Z1 M" c3 \) W3 P4 p9 n( l0 [
    Forced                                   : No
    ' Y) |. R- h+ U1 P
    - H/ |9 p8 {; GText #11
    : R/ ~8 C) m9 z% BID                                       : 13$ M: o. t$ ^. ~3 `
    Format                                   : PGS  g1 n, v# |& f  `+ {/ r" L' L
    Muxing mode                              : zlib
    8 }" }! C% a' w5 f& }+ y4 sCodec ID                                 : S_HDMV/PGS
    : l& g$ c' {; u; D! g0 f2 MCodec ID/Info                            : Picture based subtitle format used on BDs/HD-DVDs
    & U+ u& ^* A6 z6 vDuration                                 : 2 h 19 min* ^- `) j# S+ X) @. a8 y
    Bit rate                                 : 18.0 kb/s
    / a# f/ t" e8 f" v6 W. n/ JCount of elements                        : 2708
    + L. m# q; M- O4 ?Stream size                              : 18.0 MiB (0%)9 @2 ?* _( H: h, ]" l: P
    Title                                    : Czech-PGS
    1 X, ?7 Y+ l9 [$ v7 LLanguage                                 : Czech) O* X0 W8 [) i+ y; g
    Default                                  : No
    " E: E9 u% A% ^3 ^% {2 xForced                                   : No
    9 V1 s) [3 s  u3 z" |3 Q  s3 l
    1 b; d) R5 D/ s: v9 Y- iText #12! N: N. `$ Q" l; n$ S
    ID                                       : 14
    6 f2 y* U$ @! t% y! Z5 cFormat                                   : PGS
    * \2 b  A1 f, @. {9 B( B8 mMuxing mode                              : zlib4 j; f) e0 \% U7 G8 O4 _: h8 |
    Codec ID                                 : S_HDMV/PGS' q0 z/ x. a5 E$ N# Z
    Codec ID/Info                            : Picture based subtitle format used on BDs/HD-DVDs
    ' E' l# I5 V# b" ?Duration                                 : 2 h 20 min# E4 t2 g& b. s$ q" q0 k: h
    Bit rate                                 : 19.6 kb/s
    - A1 G& ?' @# O0 @8 ~: c$ F9 V  a9 [8 yCount of elements                        : 2494- P0 e* _! u0 g) @: B3 v; U
    Stream size                              : 19.7 MiB (0%)
    7 ?" J1 h/ e! U) O' I( l0 kTitle                                    : Danish-PGS
    " j+ u+ j0 M- N# l/ I1 I) U. qLanguage                                 : Danish4 X; L. i  q& X4 S! U* Z% A0 f9 [
    Default                                  : No
    - @4 h% B5 Y) ?6 M8 A! Z; TForced                                   : No
    / g( X- R5 o: [% z) Q3 C& }& [# `
    " J6 {; n8 \0 ?! z5 K4 NText #13
    / Q0 h* d/ t% y+ I1 r, @0 jID                                       : 15- ]7 J: N7 Z0 E/ b! E
    Format                                   : PGS# ~( \1 a& q0 n
    Muxing mode                              : zlib
    / z& i$ V; ?& D0 v+ R6 Z% Z0 e/ @Codec ID                                 : S_HDMV/PGS& ^* [, z9 c- G& h- t/ Q* J1 }: x; t
    Codec ID/Info                            : Picture based subtitle format used on BDs/HD-DVDs: }4 X8 q( n5 D! z* M3 E
    Duration                                 : 2 h 19 min
    ) H4 o7 O; i" b, \0 jBit rate                                 : 15.6 kb/s8 Y+ m! w; V9 `7 S5 e1 q; ~) p
    Count of elements                        : 1978
    % q$ R4 p9 @$ U; k- X9 e9 K3 WStream size                              : 15.6 MiB (0%)
    4 z3 C5 W& I: \' jTitle                                    : Finnish-PGS
    ; R# |, s9 s" j; KLanguage                                 : Finnish5 J7 X: \+ V/ x' S( N
    Default                                  : No7 h7 f. z9 U) X# g6 e
    Forced                                   : No
    5 d  g: ?! Q, c( R1 |( F2 n$ D( V
    5 b- d3 e9 N& O2 fText #14
    ' h! ~- J5 b+ RID                                       : 169 t5 t0 ]" Y' l$ A, H' v1 l
    Format                                   : PGS
    ! k' D3 V& a* w5 ~Muxing mode                              : zlib
    8 Q% l/ {$ l* Y" ECodec ID                                 : S_HDMV/PGS
    2 ~$ c; Q9 o2 _4 S$ [Codec ID/Info                            : Picture based subtitle format used on BDs/HD-DVDs- n8 F- H, C8 A% c
    Duration                                 : 2 h 19 min
    ) h) D( A9 |/ V* N6 K" \Bit rate                                 : 19.8 kb/s# R9 b1 X+ z+ c4 B7 u/ j' F7 v7 ~
    Count of elements                        : 2702
    ; Y6 Z$ K2 }" rStream size                              : 19.8 MiB (0%)! l6 c2 T# c+ ]8 S0 |
    Title                                    : Hungarian-PGS
    1 l( R- T, w; n+ _- iLanguage                                 : Hungarian) i' e' L& T0 v7 j) E
    Default                                  : No4 k# f+ U' `& I! e% t( L2 }; q* d. i
    Forced                                   : No
    ! N4 A& M( Y' _1 B* n8 O2 F  w. l8 j
    Text #15
    7 [4 [* D& |' \3 n! OID                                       : 175 u1 i2 ?: @7 ~. h
    Format                                   : PGS
    4 o; d, `0 k, {" W% @' aMuxing mode                              : zlib
    ) s$ u( d: |* O# ~" J9 f  eCodec ID                                 : S_HDMV/PGS$ p' w: _# k7 G% a& e) y: s9 F( t
    Codec ID/Info                            : Picture based subtitle format used on BDs/HD-DVDs
    ) d- E, t) F* Q6 K, U2 ODuration                                 : 2 h 19 min- H! V5 J& ?8 w( A- `/ ^, ^' w3 L
    Bit rate                                 : 17.5 kb/s; z' d1 s8 K  L4 s
    Count of elements                        : 2252: n: q$ |- l" s+ r4 o) {/ Q
    Stream size                              : 17.5 MiB (0%)
    0 T# l: b+ R. D8 }0 mTitle                                    : Norwegian-PGS
    4 i2 b# x- o: g3 R  GLanguage                                 : Norwegian
    , r# P5 C$ W" D8 P6 [; sDefault                                  : No$ d% T3 z6 s  d  b
    Forced                                   : No% N3 E5 x# o1 H

    ! J5 v/ X0 i( E4 M" E* ~Text #168 O( D/ R3 R! Z. {. R  L# m
    ID                                       : 189 `0 ~% }$ l& \4 x: w
    Format                                   : PGS
    ! }$ w: D/ g0 S3 RMuxing mode                              : zlib
    - y* V- F6 C* b- iCodec ID                                 : S_HDMV/PGS# W" W+ l. ]! n5 X4 N4 h
    Codec ID/Info                            : Picture based subtitle format used on BDs/HD-DVDs7 h; \( Y; L! c& ]
    Duration                                 : 2 h 19 min1 [3 k# B- X6 L' `
    Bit rate                                 : 17.3 kb/s
    2 ~1 q8 a9 j& M+ qCount of elements                        : 2562
    7 G% e. ~( s7 I3 j+ i7 U9 w: jStream size                              : 17.2 MiB (0%)
    , o6 ~9 m( Q; _8 f/ ~Title                                    : Polish-PGS
    ! m" ~1 j6 \1 n. i7 H( bLanguage                                 : Polish* @6 p1 F3 ]# j5 @
    Default                                  : No
    $ @9 d, M( B2 N2 K' V* NForced                                   : No# ?- x: F* h2 t  W5 R/ e

    # A; c: A6 x! mText #17
    8 ]* K$ D& B) r, l) L' N" u$ l! d7 _ID                                       : 19
    % j1 t- D; i/ @0 s$ y) vFormat                                   : PGS2 k% o7 Z4 L/ S* T* W
    Muxing mode                              : zlib6 A8 H+ Z3 T) g/ r8 d  W
    Codec ID                                 : S_HDMV/PGS7 k5 _8 M. H8 ?8 `: n! }8 l# Q
    Codec ID/Info                            : Picture based subtitle format used on BDs/HD-DVDs, {( ~  g/ ^& u3 Q
    Duration                                 : 2 h 18 min
    1 ~: e5 B9 U6 F, JBit rate                                 : 19.9 kb/s9 u4 m9 e. z4 ^8 e9 W
    Count of elements                        : 27101 O- s7 n; _& H0 b1 ~3 t
    Stream size                              : 19.6 MiB (0%)
    - j- J: C6 v. N" n! x, PTitle                                    : Romanian-PGS6 Q) o8 x. }* d3 E$ G
    Language                                 : Romanian2 v1 z. U; N! l
    Default                                  : No1 P) `! I' A6 C% |
    Forced                                   : No( e* t5 b, N5 ]
    4 o+ q, w/ R; Q  D5 r, C- \
    Text #18
    ( ]+ t( B; F% l9 D" A: o' KID                                       : 20* Q, z6 X) _3 W0 r2 {) C
    Format                                   : PGS# L' ]; k# ~+ P, O# \; `
    Muxing mode                              : zlib1 s! b! |" A( J$ w# I
    Codec ID                                 : S_HDMV/PGS' |8 p8 U7 z; w2 @# u
    Codec ID/Info                            : Picture based subtitle format used on BDs/HD-DVDs' v7 X4 v7 a9 \8 @
    Duration                                 : 2 h 19 min2 v+ \& ?% J. R9 P+ v
    Bit rate                                 : 20.6 kb/s# `6 D# _% V$ g& m/ J
    Count of elements                        : 26340 B6 x) w9 M* c- c, n# V
    Stream size                              : 20.5 MiB (0%)$ \. U, \! R" B  d9 V3 A' H
    Title                                    : Russian-PGS* A* _; T0 B! n. a$ ~
    Language                                 : Russian
    0 E5 _) }* R6 j7 |! Z' P3 C0 l& ~Default                                  : No
    : |- @* R- s- P& q( b0 BForced                                   : No( t$ d3 N2 t9 _3 D5 p( N3 ~8 Y

    : _8 ^2 e' Q7 P0 S; M" FText #195 E5 D9 z# v' g( z
    ID                                       : 217 r( X" S$ m5 s7 D
    Format                                   : PGS' N2 D! \0 h# y6 d8 U4 [
    Muxing mode                              : zlib7 _$ Y8 }4 i3 N, f3 l
    Codec ID                                 : S_HDMV/PGS& ~7 h' R1 R7 u$ a, v
    Codec ID/Info                            : Picture based subtitle format used on BDs/HD-DVDs
    8 L  o+ q7 X$ s& c4 u/ d: `& I  vDuration                                 : 2 h 18 min
    0 I# F! S! _! g$ w1 Q& iBit rate                                 : 17.0 kb/s
    1 y" B0 ?/ D- F. |' |0 k1 yCount of elements                        : 2338
    " R0 @" ]3 Y) l  p+ O3 C* h, I* PStream size                              : 16.8 MiB (0%)" B7 v$ P' O8 K  H, t( }. v4 o
    Title                                    : Swedish-PGS. K, [- ]* A; j) v
    Language                                 : Swedish
    * ?  z% h/ l* Z# b( zDefault                                  : No
    ) v* K4 x: y+ K# S4 [, K* \Forced                                   : No, p5 F1 B- e$ c' d* C1 }7 L
    ' u- V0 d; P, l9 s& a' G3 k
    Text #20( ?& g$ y8 |0 P: U
    ID                                       : 22
    & M0 X8 ~" r+ s& Z* MFormat                                   : PGS% v7 A- P( v5 J, ?; _
    Muxing mode                              : zlib
    & p( ^; a$ ^( X( c# hCodec ID                                 : S_HDMV/PGS4 t2 R7 u5 l) t: S% T9 ?' w
    Codec ID/Info                            : Picture based subtitle format used on BDs/HD-DVDs7 B8 a6 c& _) c9 _9 p, W5 i
    Duration                                 : 2 h 18 min
    8 v) P( V( H8 S) M) `" B$ ~$ Z- tBit rate                                 : 19.3 kb/s
    * g6 s- ^0 n) o) h1 q4 p. a9 z) mCount of elements                        : 27169 K' B" G5 Z* y3 {+ u$ ]6 r
    Stream size                              : 19.1 MiB (0%)
    2 L4 h( |7 F% m& sTitle                                    : Thai-PGS
    ! l# }- [3 \. CLanguage                                 : Thai+ K6 A" Z! _& r3 b) ?+ o0 D
    Default                                  : No8 C7 |) S- l$ n* c( z. p, A
    Forced                                   : No
    0 _9 e; L- q" T5 [7 l
    # D2 j( W, R( _Text #21
    8 b( p) s# H$ c/ x; H" u' W- pID                                       : 236 u2 f, |# _3 i4 Z
    Format                                   : PGS! M6 ^" ~- p+ N; s$ f9 o  \
    Muxing mode                              : zlib
    6 _+ n% J: `* F. z3 Z; }0 JCodec ID                                 : S_HDMV/PGS# c! o* t" k9 A
    Codec ID/Info                            : Picture based subtitle format used on BDs/HD-DVDs# V  @7 n" e9 \' @2 n3 X
    Duration                                 : 2 h 21 min6 S( G; p- t; {  i+ J
    Bit rate                                 : 40.2 kb/s. c* b* B% h3 x
    Count of elements                        : 3936
    8 I; i. ~% x7 n  e. ^Stream size                              : 40.5 MiB (0%)
    # p7 D# v3 U6 B6 f. m: B" E. bTitle                                    : Chinese-PGS4 x- [2 D# m, L% M
    Language                                 : Chinese2 f, Y* H! r' d' W% Y
    Default                                  : No  a% o+ D( j; e7 d# _! _
    Forced                                   : No* U+ F% [& `8 p; i" m7 V8 v2 r' |& d7 j
    $ U+ z8 T# q! I7 p* X% q! p
    Menu# G. j. j9 G, \5 K
    00:00:00.000                             : en:Chapter 01, t6 `' ~2 C9 n3 C6 b$ Y
    00:03:00.388                             : en:Chapter 02
    ! J& P- w2 P5 t00:05:04.846                             : en:Chapter 03" `7 v3 `3 ~3 \/ U! g2 x! U
    00:10:33.799                             : en:Chapter 04
    4 X6 M4 ^6 Y1 u00:12:08.394                             : en:Chapter 05
    " I% q. Z  O* z8 {- h. f) J2 {/ H- n00:14:24.280                             : en:Chapter 06+ }% y; q9 u' X2 _2 ?* k) c" E
    00:17:37.556                             : en:Chapter 07
    # X) x+ [' Y) b( S" X- X8 `00:20:30.896                             : en:Chapter 08
    3 d* R. A; |- v; y! {00:24:58.622                             : en:Chapter 09
    ' o+ m" I" H0 P- y1 C00:28:51.563                             : en:Chapter 10
    2 F8 |1 J% e7 H, W& t7 `/ O00:34:10.089                             : en:Chapter 11* S8 @  a" e' \  n/ M
    00:40:28.801                             : en:Chapter 12) j% I2 j1 t! ]8 A) L1 |2 h
    00:46:00.924                             : en:Chapter 132 D7 c/ h0 c9 p! ]
    00:46:52.226                             : en:Chapter 14
    9 |" u# i; H% D! i00:49:17.079                             : en:Chapter 15" L6 _9 ?, W" h2 s; u* J
    00:51:16.198                             : en:Chapter 16
    ) ~. E/ {+ z3 X# S0 S00:57:01.876                             : en:Chapter 17
    ) N5 N/ `/ z& F" p* b( \5 X00:58:36.846                             : en:Chapter 18/ b2 \+ s0 a7 w$ j- S: ?
    01:02:37.086                             : en:Chapter 19
    8 L! W0 s4 O! Q/ z01:06:05.753                             : en:Chapter 20! j  Y# f: r; h" g, |3 u& S
    01:09:00.469                             : en:Chapter 21
    & ~* ^( T+ S' c1 H, B01:16:52.107                             : en:Chapter 22
    % s/ b$ p4 G- w4 z# I( U01:22:18.558                             : en:Chapter 23/ j2 N7 V* ~. l8 _5 E6 {
    01:25:29.582                             : en:Chapter 24
    0 ?) ?, C3 g( i01:31:41.120                             : en:Chapter 25
    5 v; _1 D+ K8 ]; C01:34:03.804                             : en:Chapter 268 t  N9 a+ X! @5 Z
    01:35:48.576                             : en:Chapter 274 n; v' I0 Z. s3 ^" O, |8 G$ ^
    01:39:30.547                             : en:Chapter 28) Z' e3 ]3 U2 J, d% g8 ^& x7 _0 j
    01:43:49.806                             : en:Chapter 29
    ) {. R! \0 D3 Y2 t# W( r01:49:26.059                             : en:Chapter 30% l, |9 m% F' |1 W! m
    01:54:24.440                             : en:Chapter 31
    - m2 q6 v$ c) i( e# @0 A- d' T& t) m01:58:44.617                             : en:Chapter 32
    4 O  e8 w. m2 [; K8 v! G02:01:09.553                             : en:Chapter 334 |! H. u7 G+ m
    02:05:29.980                             : en:Chapter 34* k: q. {3 f5 Z
    02:07:32.561                             : en:Chapter 353 b: d8 B/ s2 X8 \# h, i
    02:10:23.482                             : en:Chapter 36+ S) g! W7 E9 x
    02:12:10.047                             : en:Chapter 37' d6 \0 [+ \6 t! M
    02:15:03.345                             : en:Chapter 38
    % F) \, @7 q% t( j) P6 G02:18:56.745                             : en:Chapter 39
    # _. f4 G! _0 ?& l5 T02:21:16.301                             : en:Chapter 40

    . K! k; a& c# z+ L
    Video
    4 K/ u+ O* }, I, c/ x/ M% ?8 zID                                       : 1
    8 K/ k0 W; l( b$ l& TFormat                                   : AVC
    9 H- J2 @! e  v2 f4 L9 C. HFormat/Info                              : Advanced Video Codec3 Y1 D: `6 K* t" x/ R; Q
    Format profile                           : High@L4.1
    1 a2 n3 o4 G7 f% i# _! G8 UFormat settings                          : CABAC / 4 Ref Frames
    ) q% H& t$ o5 M* w$ w/ RFormat settings, CABAC                   : Yes
    , U2 e# H3 t- i, D7 o, `Format settings, Reference frames        : 4 frames
    # p& V7 k) k# K0 z+ x! NCodec ID                                 : V_MPEG4/ISO/AVC6 w8 k6 {: H  Z+ Y
    Duration                                 : 2 h 23 min
    5 z5 s$ C1 P2 O+ l2 \, J9 O9 `Bit rate                                 : 12.8 Mb/s
    - x+ T0 o" a3 KWidth                                    : 1 920 pixels
    & M7 _: z: {2 |1 l7 H4 oHeight                                   : 1 080 pixels
    # |$ o7 d& E4 SDisplay aspect ratio                     : 16:9
    & {! n- q9 Y/ y. |Frame rate mode                          : Constant
    ' V" j3 e: O' d! `( o, EFrame rate                               : 23.976 (24000/1001/37687) FPS
    7 W4 X% v2 U; @' b3 yColor space                              : YUV: q4 i0 N5 }7 k* g
    Chroma subsampling                       : 4:2:0
    4 V2 m& I9 O5 j; i+ T) Z& gBit depth                                : 8 bits
    * U( f. g0 }; X# z) iScan type                                : Progressive- z% K1 J$ U0 ^; I6 M! L: s% |
    Bits/(Pixel*Frame)                       : 0.258
      p8 i6 w, i* E6 oStream size                              : 12.9 GiB (89%)
      A- V5 A: R9 R- P8 F1 rTitle                                    : The.Shining.1980.US.DC.REMASTERED.1080p.BluRaycd.x264.DTS-SWTYBLZ
    7 z1 m: O) }! {; aWriting library                          : x264 core 157 r2935 545de2f
    5 M# [+ W$ Q; i+ K' S) b3 UEncoding settings                        : cabac=1 / ref=4 / deblock=1:-1:-1 / analyse=0x3:0x133 / me=umh / subme=10 / psy=1 / psy_rd=1.00:0.15 / mixed_ref=1 / me_range=48 / chroma_me=1 / trellis=2 / 8x8dct=1 / cqm=0 / deadzone=21,11 / fast_pskip=1 / chroma_qp_offset=-3 / threads=34 / lookahead_threads=5 / sliced_threads=0 / nr=0 / decimate=0 / interlaced=0 / bluray_compat=0 / constrained_intra=0 / bframes=8 / b_pyramid=2 / b_adapt=2 / b_bias=0 / direct=3 / weightb=1 / open_gop=0 / weightp=2 / keyint=250 / keyint_min=23 / scenecut=40 / intra_refresh=0 / rc_lookahead=60 / rc=crf / mbtree=1 / crf=19.0 / qcomp=0.60 / qpmin=0 / qpmax=69 / qpstep=4 / ip_ratio=1.40 / aq=1:1.00( k$ A$ V/ I% ^
    Language                                 : English3 l: _" Z( v$ c' n0 x
    Default                                  : Yes
    8 R, d6 y  Q& N( L" e+ fForced                                   : No8 z- J+ A5 E  P+ J6 ^! b
    , j  R" r( R; a2 ~7 L8 ~
    Audio
    # S- {& z# {/ cID                                       : 26 u- b6 N2 e7 s2 B5 c
    Format                                   : DTS5 }1 m' b0 m4 `+ V( d
    Format/Info                              : Digital Theater Systems
      p$ y) `- d+ h# l' S9 v& eCodec ID                                 : A_DTS$ v# c/ `  m9 K% z
    Duration                                 : 2 h 23 min- e; C" t3 M( S
    Bit rate mode                            : Constant; f* N% Y" `* M+ F
    Bit rate                                 : 1 509 kb/s: I8 i, U2 F2 G* J
    Channel(s)                               : 6 channels
      _9 ]" {2 ^( Q; b$ E8 D1 aChannel layout                           : C L R Ls Rs LFE
    - y8 z8 }6 Z8 q4 c4 bSampling rate                            : 48.0 kHz0 U2 W$ S( b4 t: q
    Frame rate                               : 93.750 FPS (512 SPF)
    ' x% L8 W4 Z: u% F0 {Bit depth                                : 24 bits
    # t% q$ X2 J8 X, {Compression mode                         : Lossy
    + [6 A& I& U9 Z4 Y$ i' `Stream size                              : 1.52 GiB (11%)* U2 ?# ?- k$ `& ~8 P5 \
    Title                                    : The.Shining.1980.US.DC.REMASTERED.1080p.BluRaycd.x264.DTS-SWTYBLZ
    6 ~/ Y$ C) ^* R9 H& N# X6 O9 W3 ]Language                                 : English% L; @% M* t( f) x. R  ^" P0 c: s' y1 h
    Default                                  : Yes
    # @) E; L) l% U8 L! a. n; n- z+ c$ ?Forced                                   : No
    ( N+ a$ G0 F( W7 a
    ) D( E9 Q3 i: z$ [Text
    % _2 C" R3 N) t- c' ]* wID                                       : 37 J; ?) o- [. f, E+ t
    Format                                   : UTF-85 t, T! ?0 {4 U) {
    Codec ID                                 : S_TEXT/UTF8
    ! F. w2 X: }4 t/ O8 Q- q, ]; jCodec ID/Info                            : UTF-8 Plain Text
    % l  ], [3 ~6 N/ R( N1 DDuration                                 : 2 h 14 min+ @- G$ {& u& n: v- C' Y( U- w7 k
    Bit rate                                 : 41 b/s1 ~0 W4 O- M7 y: q
    Count of elements                        : 1453
    " V% b6 B2 _; B: S# w4 a) h7 `Stream size                              : 40.4 KiB (0%)
    : ]& z4 I" l/ R0 x% u1 qLanguage                                 : English0 Y' A3 l6 k6 E0 H2 ?
    Default                                  : Yes
    ; [" Z9 v% j9 K1 \Forced                                   : No
    , a- D6 g2 B! s
    0 |: Q% Q  B$ _8 n$ E$ TMenu! L' ^& ~; `; [& s; q$ N
    00:00:00.000                             : en:Chapter 01
    ) w; A; t2 h7 g9 N) f00:03:00.388                             : en:Chapter 021 ?$ j3 N% b4 F7 |; n' Q. ?* O
    00:05:04.846                             : en:Chapter 03
    , m! [4 e8 i& o' B) c, c, a; b00:10:33.799                             : en:Chapter 04/ c$ A% ~; l! {% S9 d9 ~# ?) E
    00:12:08.394                             : en:Chapter 05
    ! N5 [, P  c* S$ n1 o% w! N7 a00:14:24.280                             : en:Chapter 062 M2 B' x  T' W2 E% h0 I  q
    00:17:37.556                             : en:Chapter 07) V; ^2 M% r! e4 a# {; l
    00:20:30.896                             : en:Chapter 08
    # w0 t% |  r4 o$ r+ F00:24:58.622                             : en:Chapter 09
    1 M2 [2 W- z" q& F0 ^2 t! B3 D00:28:51.563                             : en:Chapter 10
    0 e6 z9 Y! W6 D5 O$ w00:34:10.089                             : en:Chapter 119 B6 B/ r0 p" E/ T' q8 Y. w! x
    00:40:28.801                             : en:Chapter 12
    : u( q+ r) m! y& w& }8 E00:46:00.924                             : en:Chapter 13
    5 l4 @8 C$ Q' x9 e% G7 ?' J00:46:52.226                             : en:Chapter 14* b( f3 i; @0 d" M: n; a
    00:49:17.079                             : en:Chapter 15
    / w, C! z0 c* ]; E" \! x. g00:51:16.198                             : en:Chapter 16& s8 T' M) l7 f+ m$ ]+ N9 b8 l: E
    00:57:01.876                             : en:Chapter 170 ]) b: Y6 n3 e4 M
    00:58:36.846                             : en:Chapter 183 j  o* q. s$ m* `
    01:02:37.086                             : en:Chapter 193 o, b2 {; X4 ], t0 F. ^% M5 q
    01:06:05.753                             : en:Chapter 20: d: K/ D: N$ p) d5 H" ~0 m# I
    01:09:00.469                             : en:Chapter 212 [6 D! D8 W1 P  d% D% N
    01:16:52.107                             : en:Chapter 22
    6 P$ B, e- r* }/ R" i, v01:22:18.558                             : en:Chapter 23
    : C5 M, F9 Z% ^+ N$ B8 W4 [01:25:29.582                             : en:Chapter 24
    : P  p& x" i0 C! v5 K01:31:41.120                             : en:Chapter 25) A9 M* s" X6 g' i
    01:34:03.804                             : en:Chapter 26
    4 J; B( s5 g& p/ F, y) n5 M01:35:48.576                             : en:Chapter 27
    ; L, R' {, i5 h  J, g" y01:39:30.547                             : en:Chapter 28' l/ L) _! [, Z/ c, M' B( n
    01:43:49.806                             : en:Chapter 29) T- L0 T& q" c/ ?8 K# J
    01:49:26.059                             : en:Chapter 30& _& J( x: o+ d* s
    01:54:24.440                             : en:Chapter 31# B0 U( l9 p, v) P& Q
    01:58:44.617                             : en:Chapter 32# T. i# E/ K$ z) f/ |8 M0 J" P: ?
    02:01:09.553                             : en:Chapter 33
    1 i1 o" ?6 b" D& b5 n3 ?$ O5 h02:05:29.980                             : en:Chapter 34  k4 C( |, x6 Q) q6 ^4 h) b6 H. b
    02:07:32.561                             : en:Chapter 35
    , h( i5 W: p' A. a5 G02:10:23.482                             : en:Chapter 36" ]9 i3 C% {: D4 C( ^; ^5 @
    02:12:10.047                             : en:Chapter 37
    & I' J2 {( U8 u" T* W$ j% k02:15:03.345                             : en:Chapter 38$ a( j% t7 t% T
    02:18:56.745                             : en:Chapter 39' S3 v2 h! l5 ~
    02:21:16.301                             : en:Chapter 40

    7 Q% U) ?5 C5 q5 h# C5 _6 S5 f3 ]7 j; ?1 ^. l
    Encoded from 4k bluray.
    ' l& t, L" _' W+ V2 \
    游客,查看本帖隐藏内容请回复 | 加入VIP贵宾组可免积分免回复下载 立即了解 | 还不是会员:点击获取邀请码 Invitation Code
  • TA的每日心情
    开心
    4 天前
  • 签到天数: 56 天

    [LV.5]暂住蓝盘

    2

    主题

    558

    帖子

    2339

    积分

    Sponsor

    金币
    537 枚
    体力
    756 点
    tto138 发表于 2020-5-21 20:21:13 | 显示全部楼层
    沙发是抢的而不是占的!
    " E9 N2 m" n  ?The decisive Replies sink is I get the sinking feeling great sense of accomplishment!6 E8 U6 I" j# X2 Z& }  V' V3 b# N/ ~
  • TA的每日心情
    擦汗
    2020-4-15 16:32
  • 签到天数: 2 天

    [LV.1]初来蓝盘

    0

    主题

    576

    帖子

    2779

    积分

    Sponsor

    金币
    4 枚
    体力
    1574 点
    xpg050811 发表于 2020-5-24 13:15:56 | 显示全部楼层
    啥也不说了,楼主就是给力!
    0 \5 U7 P% [1 @7 ~9 c: vI love your Blu-ray movies Forum!
    + r+ O3 G1 ~9 }  A# b/ L

    本版积分规则

    小黑屋|Archiver|蓝光电影资源网

    GMT+8, 2020-6-2 13:03

    快速回复 返回顶部 返回列表