BluRayCD Forum

 找回密码
 立即注册【分享大片】

QQ登录

只需一步,快速开始

查看: 18|回复: 2
收起左侧

[经典影片] 闪灵1/鬼店 [4K美版原盘压制 导剪重制版 内封中字] The Shining 1980 US DC REMASTERED 1080p BluRaycd x264 DTS-HD MA 5.1-SWTYBLZ 17.18GB & 14.39GB

[复制链接]

7843

主题

8037

帖子

6万

积分

Forum Moderator

金币
10771 枚
体力
9772 点

卓越贡献勋章

24小时 发表于 2020-5-20 14:46:05 | 显示全部楼层 |阅读模式
* r9 B& X4 a, N4 C: m8 s: p  E# t
8 k- Q4 O8 i+ L5 R5 M1 g/ J. B
◎译  名 闪灵/鬼店(台)/幻觉/幽光
4 [/ n: ]+ V) v$ p◎片  名 The Shining# b# j& @9 L0 A5 M! ^# b
◎年  代 1980
; b" j% d5 U8 D7 k4 [◎产  地 英国/美国( ]5 J$ Q3 ~1 z$ _
◎类  别 剧情/悬疑/恐怖
) `* _/ q: O, I" V6 e◎语  言 英语
( @9 k+ _  c/ W' E( U' G6 k◎上映日期 1980-05-23(美国)
1 w4 a' S  X, R* q( J◎IMDb评分 8.4/10 from 852,631 users
8 E0 |% W0 Q3 O; H3 y◎IMDb链接 https://www.imdb.com/title/tt0081505/; e/ q$ l" n+ G; P
◎豆瓣评分 8.2/10 from 307,068 users( Q& o2 X" d  [0 k
◎豆瓣链接 https://movie.douban.com/subject/1292225/( a- `' s" W. y1 d. ~$ ^$ {
◎片  长 2 h 23 min
+ G7 e' q) E& H◎导  演 斯坦利·库布里克 Stanley Kubrick$ p! J. M( u( L/ g7 b
◎编  剧 斯坦利·库布里克 Stanley Kubrick  }8 O% D' }4 j
       黛安·约翰逊 Diane Johnson
7 h  o3 Z& l  V5 q       斯蒂芬·金 Stephen King
* l5 W" t( W1 c◎主  演 杰克·尼科尔森 Jack Nicholson
3 J3 }6 O1 f4 J4 W$ Q5 x       谢莉·杜瓦尔 Shelley Duvall
. ~1 ~6 L' T# X+ K" M       丹尼·劳埃德 Danny Lloyd
! B* l0 c, R# f$ I( M" _1 E       斯加特克罗索斯 Scatman Crothers
- A3 l8 d! ?* b* g# X       巴瑞·尼尔森 Barry Nelson0 B7 J, f  K, R3 Z+ _$ ^* c& q/ X
       菲利普·斯通 Philip Stone( N) s5 O/ m9 ^3 T5 b
       乔·托克尔 Joe Turkel
; q4 {' V2 o7 B; Q0 X4 W       安妮·杰克逊 Anne Jackson; a; R" W3 _* K. Y5 n5 M
       托尼·伯顿 Tony Burton
4 S1 t$ \4 P5 h$ A! F
. Y& c* x" c' b9 a* ~◎简  介   
/ K5 A2 P; R* q. r3 a% f; _8 Q8 _8 p  _. q+ I
  杰克(杰克·尼科尔森 Jack Nicholson 饰)是一个作家。一个冬天,他得到了一个看管山顶酒店的差事。这正合杰克的意思,他正好可以有一个幽静的地方写作。于是杰克带着妻儿搬进了酒店。' t; _4 ~+ u! o- p1 ~" x
4 K; O7 j: o7 W; N- C1 A
  冬天大雪封路,山顶酒店只有杰克一家三口。从他们一搬进来,杰克的妻子温蒂(谢莉·杜瓦尔 Shelley Duvall 饰)就发现这里气氛诡异,杰克的儿子丹尼(丹尼·劳埃德 Danny Lloyd 饰)经常看到一些他不认识的人,但这里除了他们一家别无他人。而杰克除了一整天闷头写作外,脾气亦变得越来越古怪。
4 r6 T6 ?( q! o8 h5 b$ @8 W& |3 ^2 Y% L" ~" ^9 q
  直到有一天,温蒂发现丈夫这些天来一直写就只有一句话:杰克发疯了!
/ o$ @+ y6 b( V  j: H$ R1 a0 c: e5 Y- P, A1 |
  A caretaker of an isolated resort, has a complete mental breakdown, terrorizing his young son and wife.
* ~3 D( _/ H5 w; S7 v# h
Video
$ H3 z: p$ I) d+ I% w$ VID                                       : 1. ]# m0 u. L: {7 J* s
Format                                   : AVC6 D1 x& _9 e3 ^2 {, }- K) Z
Format/Info                              : Advanced Video Codec
* s# P5 K; V' X2 V- j) D0 DFormat profile                           : High@L4.1
7 Y# M2 E1 |( M4 yFormat settings                          : CABAC / 4 Ref Frames
0 p' M! i6 u: Q4 z4 v; K' p2 a2 ^Format settings, CABAC                   : Yes# P1 \; ^5 f, V0 G( B. Z' @1 z
Format settings, Reference frames        : 4 frames, D: w! v0 P% K8 d" L( d
Codec ID                                 : V_MPEG4/ISO/AVC6 |/ |- ]5 E. K- U
Duration                                 : 2 h 23 min
, I$ Q2 ~: e, H; m* aBit rate                                 : 12.8 Mb/s
5 _( Q  K5 O. d3 k1 C$ iWidth                                    : 1 920 pixels+ v+ n' ?. B. t; e3 |! V; u
Height                                   : 1 080 pixels# m6 v8 M" R, c4 w* F* U
Display aspect ratio                     : 16:92 v3 h8 |% L; S- X" o: g
Frame rate mode                          : Constant8 _/ j9 R' v/ c
Frame rate                               : 23.976 (24000/1001/37687) FPS9 I3 V& ?2 Y; e; \
Color space                              : YUV
' U/ u) o+ D6 @+ \0 B* BChroma subsampling                       : 4:2:0  v8 P' j% Z; l, [3 f- P  \
Bit depth                                : 8 bits. ]! P! ~" k2 ~* U6 k  \' C- n
Scan type                                : Progressive
6 X7 x, I- j3 K/ a& ]Bits/(Pixel*Frame)                       : 0.258
6 T  [% h) B( S3 D: rStream size                              : 12.9 GiB (75%)
8 k+ U% k7 p% C& a% g" Q4 yTitle                                    : The.Shining.1980.US.DC.REMASTERED.1080p.BluRayCD.x264.DTS-HD.MA.5.1-SWTYBLZ
. ?/ @7 x0 C& h) b) x$ Q! IWriting library                          : x264 core 157 r2935 545de2f
( G0 O6 O; Z1 S0 a5 Z0 |6 p% h5 bEncoding settings                        : cabac=1 / ref=4 / deblock=1:-1:-1 / analyse=0x3:0x133 / me=umh / subme=10 / psy=1 / psy_rd=1.00:0.15 / mixed_ref=1 / me_range=48 / chroma_me=1 / trellis=2 / 8x8dct=1 / cqm=0 / deadzone=21,11 / fast_pskip=1 / chroma_qp_offset=-3 / threads=34 / lookahead_threads=5 / sliced_threads=0 / nr=0 / decimate=0 / interlaced=0 / bluray_compat=0 / constrained_intra=0 / bframes=8 / b_pyramid=2 / b_adapt=2 / b_bias=0 / direct=3 / weightb=1 / open_gop=0 / weightp=2 / keyint=250 / keyint_min=23 / scenecut=40 / intra_refresh=0 / rc_lookahead=60 / rc=crf / mbtree=1 / crf=19.0 / qcomp=0.60 / qpmin=0 / qpmax=69 / qpstep=4 / ip_ratio=1.40 / aq=1:1.00
# M1 f: [; d8 l$ }+ Q6 |( UDefault                                  : Yes" l. Z; Y& Z7 D; E6 f! M6 l! v) Z$ z* D
Forced                                   : No
6 C5 T9 N3 c# K9 T$ ]2 d- H. P4 I4 [3 O; n& y' B
Audio; A  A7 A- }( J" W9 l$ n  n
ID                                       : 2
( J$ ~3 ^. B- VFormat                                   : DTS XLL
, [0 N: c6 j. c0 l6 @Format/Info                              : Digital Theater Systems
# w, V4 q' Y* a" ICommercial name                          : DTS-HD Master Audio
& N! q6 x8 k8 G3 {# }9 F# qCodec ID                                 : A_DTS9 `4 m7 J  p/ u8 m/ {- q
Duration                                 : 2 h 23 min
: a: A  M7 w9 H0 _3 P1 W* cBit rate mode                            : Variable! B8 G5 }2 D2 F- S
Bit rate                                 : 4 098 kb/s
4 n0 L: x  j: i' V5 U# L! NChannel(s)                               : 6 channels
3 c8 f  p6 N* H/ p0 f; zChannel layout                           : C L R Ls Rs LFE. I* H) D3 m4 T8 t' r2 \" I
Sampling rate                            : 48.0 kHz+ x- \" T" }8 P0 |
Frame rate                               : 93.750 FPS (512 SPF)
* E1 h5 ?9 c4 r( l  {+ S, OBit depth                                : 24 bits
. n" T! l$ {/ P1 p8 rCompression mode                         : Lossless
. l6 H  e+ _* Z! N. g) F0 g) KStream size                              : 4.12 GiB (24%)
1 N' }  E) ]5 X0 w0 p1 @  J0 oTitle                                    : The.Shining.1980.US.DC.REMASTERED.1080p.BluRaycd.x264.DTS-HD.MA.5.1-SWTYBLZ) a# x! R. i, `; A8 r; t
Language                                 : English! _6 F9 [/ r  H/ I. e. s* T) j. H
Default                                  : Yes1 A. d) i8 b% |. [& }, @) e6 v
Forced                                   : No# H8 v. O( T, b$ P  s
$ q4 j$ U$ K: h! X
Text #1
7 b; ]  {- j# VID                                       : 3
! u" }7 }/ f, f$ S$ R2 cFormat                                   : UTF-88 n% ?  U/ l4 ?1 X
Codec ID                                 : S_TEXT/UTF8( I( r! w+ b  t$ P( }
Codec ID/Info                            : UTF-8 Plain Text, t$ r: K& _# p4 o
Duration                                 : 2 h 14 min
: K4 J( U+ G- N2 S6 z8 [! ^Bit rate                                 : 41 b/s, s$ u' V0 m4 M8 E! }7 A4 K% q9 e, V
Count of elements                        : 14534 ?& B: U2 ~0 M7 j* A' d8 P
Stream size                              : 40.4 KiB (0%)2 H4 A$ z& e& ^" D: b# Z- J
Title                                    : English-SRT
' L. r& f7 Q: y( L+ J9 [Language                                 : English2 j! q2 J3 ^% u% R& E1 i" [7 c
Default                                  : Yes" |2 N; j! o+ l. X
Forced                                   : No4 Q! p3 l/ p+ |
4 \! P  ?. E! z
Text #2$ `# L" F9 a& y
ID                                       : 4# O" a0 X  ~: \/ ]5 x: [3 v
Format                                   : PGS
: y. ]% h. T/ {/ v; QMuxing mode                              : zlib
7 y; E* o1 i7 y: A9 O0 R8 `Codec ID                                 : S_HDMV/PGS1 m$ V3 T) h7 d
Codec ID/Info                            : Picture based subtitle format used on BDs/HD-DVDs: G$ d* p+ O  k
Duration                                 : 2 h 16 min- D3 W' r. ?+ P7 _5 N9 `9 ?
Bit rate                                 : 23.4 kb/s! j" I8 v' J' y* S# m( @8 U
Count of elements                        : 30425 f( h* r/ Z9 M% M
Stream size                              : 22.8 MiB (0%)' P- F4 }, \' X: s. M0 n3 a
Title                                    : English-PGS
0 y, r: `: }1 HLanguage                                 : English
9 N- s4 X0 o1 K1 @Default                                  : No
2 B& u5 E& ?7 o( P, IForced                                   : No
' o" X4 e) v* H9 `0 X/ V1 q% h! r* x  Q. h6 p7 }6 H
Text #37 s2 G3 Z+ r3 F5 V
ID                                       : 5
/ _  [; u$ U% s" c% uFormat                                   : PGS, j! m% `  W3 v. A! u' i5 a
Muxing mode                              : zlib* }- F, E# @& C1 a( e0 D5 h! g
Codec ID                                 : S_HDMV/PGS. x7 g- N8 j; ^
Codec ID/Info                            : Picture based subtitle format used on BDs/HD-DVDs- u2 k( @' ]8 @# F! T1 v3 @$ c' L! f# W
Duration                                 : 2 h 20 min
3 M, z- l# o+ I& V8 K4 ]Bit rate                                 : 18.4 kb/s/ v" o  h7 j/ u9 o& J. W; @2 Z
Count of elements                        : 2378' A+ R" m: t3 L# |" z( i8 j
Stream size                              : 18.5 MiB (0%)
5 c$ x8 D3 ^) ~, BTitle                                    : French-PGS/ c  q/ |$ E* X
Language                                 : French' t( k# r6 I! Q$ H
Default                                  : No/ M8 Y$ c# L8 g+ |+ ]4 c2 L
Forced                                   : No
* d8 l5 z4 A* k& `  @! S
/ p' Y9 y, A2 @2 M% V, f, B' WText #4
# L2 O; F% M/ V6 fID                                       : 6
! B5 W9 X/ g* CFormat                                   : PGS
3 r. f+ }* Q, ^% B* VMuxing mode                              : zlib' Z' A  H" m& o. O7 k
Codec ID                                 : S_HDMV/PGS
; p! [: N- L0 C- k  O6 u3 ~7 qCodec ID/Info                            : Picture based subtitle format used on BDs/HD-DVDs- ^* d  _; }; j# [
Duration                                 : 2 h 18 min* M* e" g  l- U- |& \
Bit rate                                 : 24.5 kb/s" P" j7 T: M5 B/ n! l5 j* W
Count of elements                        : 3062
" K. ]& O% K) o0 s- p# K' OStream size                              : 24.2 MiB (0%)
* _1 A3 u3 P; e8 f" W3 zTitle                                    : German-PGS
4 n& h6 G3 |% S0 C) |Language                                 : German, [1 m) S7 F5 U- c" h  I; K
Default                                  : No+ r; W& O' _$ `1 |
Forced                                   : No( G5 E# |4 m5 f% ~1 b! g
! n- \# n/ a) O9 \' S3 {3 ~
Text #57 v) D8 x$ a) u5 I6 z0 w( o4 g
ID                                       : 7
' \# _5 i- d2 j; n% wFormat                                   : PGS: G9 x( [9 t$ [
Muxing mode                              : zlib
8 A; w. F& H9 G9 `; ^9 @Codec ID                                 : S_HDMV/PGS
# Q1 O" }$ x8 o, X7 ^( A2 cCodec ID/Info                            : Picture based subtitle format used on BDs/HD-DVDs$ n; W) O- h. \
Duration                                 : 2 h 18 min
3 f5 V6 _8 h( `" MBit rate                                 : 24.0 kb/s
2 u0 ], S' N* r/ L$ s) UCount of elements                        : 3050
! U5 k( C: W- ?# h) ~: f: q- e0 DStream size                              : 23.7 MiB (0%)6 R/ ~- l( `) V) C: r' t  H
Title                                    : Italian-PGS
$ V/ j( ?+ ^1 q$ oLanguage                                 : Italian+ ?; B) _* p% k  K
Default                                  : No
& ^- Z! i( i* D% c9 B" uForced                                   : No. P: L4 E1 T! n( J+ s& l4 u) Y
$ l- B. p/ y5 q3 ~2 q) p
Text #6, f3 _% z- T5 Q- Z5 ]/ a
ID                                       : 8
3 f% ~" x, G2 z5 R) LFormat                                   : PGS: g7 u; G7 o: a: j; G& B0 p/ V
Muxing mode                              : zlib( @$ Q6 A- u0 R9 Y
Codec ID                                 : S_HDMV/PGS2 k% e) K* d+ B$ Z# c: ]6 {
Codec ID/Info                            : Picture based subtitle format used on BDs/HD-DVDs8 s, V# H9 ]: b5 B% }6 V
Duration                                 : 2 h 18 min
8 h0 [  @, t# y% t5 L$ oBit rate                                 : 18.0 kb/s5 v$ G9 ]5 t$ P, |8 X
Count of elements                        : 2420
3 V4 L3 k9 o3 D3 VStream size                              : 17.8 MiB (0%), R: n9 F2 ], q
Title                                    : Dutch-PGS( w+ F/ M- K- D! Z5 y, \( J% J
Language                                 : Dutch" c  C" A& G% A7 v* i  I
Default                                  : No
# b, [$ ~; B9 T8 vForced                                   : No
9 Q  u2 f- O* a6 b- u8 ~5 j$ R" i, \
Text #7. S* D. j  Q3 h5 R6 J, D
ID                                       : 9
% S1 C) ^9 l! |" V5 g) [5 [5 u. m; JFormat                                   : PGS
3 @: O2 R6 B4 U3 qMuxing mode                              : zlib
) k# e' L- }! Q) @- c+ nCodec ID                                 : S_HDMV/PGS
- K) J) U% x8 t; [  g" T+ nCodec ID/Info                            : Picture based subtitle format used on BDs/HD-DVDs
  F8 ]. f( e3 w" \+ SDuration                                 : 2 h 19 min, w3 h1 Y+ `7 [0 {& {; ]" |
Bit rate                                 : 19.4 kb/s
' W% J6 H4 @. d! G. ECount of elements                        : 2698$ u% U6 z% q4 J6 k6 y  G
Stream size                              : 19.4 MiB (0%)
# \' b! f" i4 t8 q$ {Title                                    : Chinese-PGS* d$ s7 ^7 f; P
Language                                 : Chinese
! a+ r" [* G" UDefault                                  : No, J. Z! D. L9 N/ |
Forced                                   : No
$ u) p* {; Y3 a2 {% A$ S8 P" P1 m; F. [! L
Text #8
; K2 g7 H( O5 T2 ]; G6 t" zID                                       : 10
  M% B# _0 N8 F7 O( j$ FFormat                                   : PGS
& S3 ?0 j& N. i8 Q7 I- DMuxing mode                              : zlib
! q: Q, b/ V0 M: S2 ?/ u9 NCodec ID                                 : S_HDMV/PGS  t( D2 b# n. {. s. o, R
Codec ID/Info                            : Picture based subtitle format used on BDs/HD-DVDs, w7 ?4 ^* J1 N
Duration                                 : 2 h 19 min
6 u0 t( {& r+ p( c" E) @Bit rate                                 : 15.0 kb/s
3 k) y# P. u6 U9 MCount of elements                        : 2638. n6 @) F" c2 R& a. t
Stream size                              : 15.0 MiB (0%)
# ^2 m" e* w% r' t* S/ i9 J; [Title                                    : Korean-PGS
0 z9 h6 z: ^! H6 \- ?# LLanguage                                 : Korean* k/ \0 W/ K4 z* ?4 J# z3 n2 k' j
Default                                  : No$ [8 N5 J: N; t2 s
Forced                                   : No. v% i" u3 a! ~% u! K0 a+ `/ o- c
  y( @/ M5 R( K% f0 \6 [
Text #9/ k( Y+ D5 I3 O- q4 b
ID                                       : 11
7 N& P8 X: B) W8 E; G& @& VFormat                                   : PGS
) t! i1 @5 ]# d' r$ XMuxing mode                              : zlib4 P, Y" ?! [2 C. }7 k% Q
Codec ID                                 : S_HDMV/PGS) E/ L+ Y3 b+ |& L
Codec ID/Info                            : Picture based subtitle format used on BDs/HD-DVDs
* U# t: h  ]( o8 UDuration                                 : 2 h 18 min4 C, x5 B/ t" Q& [
Bit rate                                 : 18.3 kb/s6 e: Z( A0 A( ~& J* V1 w1 o
Count of elements                        : 2628" u: u- S! k" X& d+ p
Stream size                              : 18.1 MiB (0%)
  P$ u  \6 L& b3 u, V6 RTitle                                    : Spanish-PGS8 @6 V6 s1 w$ x# Q
Language                                 : Spanish
8 K8 t+ j0 e! L6 JDefault                                  : No
$ ~8 m: N2 g$ K% k! r: W4 eForced                                   : No$ j  Q8 E) v) D1 [! O$ B
0 @3 `5 I# k) c' @
Text #10( m, p5 [) }4 S4 x( S: A
ID                                       : 12$ w, Y" U  I) ^
Format                                   : PGS
* I4 ?+ d  i  Q6 {9 _' a8 G5 ~1 pMuxing mode                              : zlib8 H/ H4 c( u" ~% L6 a/ N. x
Codec ID                                 : S_HDMV/PGS
% f( _6 J- N. BCodec ID/Info                            : Picture based subtitle format used on BDs/HD-DVDs
, _- r+ d% l7 f6 N7 P9 }Duration                                 : 2 h 19 min4 Q( B# x. X+ c3 I# b
Bit rate                                 : 10.7 kb/s
( [1 I7 ]: }  f7 ^" bCount of elements                        : 2624
* p0 G! |7 X( J6 k$ X7 ^; c, bStream size                              : 10.7 MiB (0%)+ Z2 w9 U& y, i' U  m5 n
Title                                    : Arabic-PGS/ O: y6 j7 S  [/ I) }5 O6 D
Language                                 : Arabic
4 [) d8 y8 E' }) W/ V) TDefault                                  : No( T5 `& y. X6 I' B
Forced                                   : No- B  C* S: E2 ^: g/ t) p
) t9 x) O- [  J6 d
Text #11
& k- _' m! h6 u' a  d! S: z; TID                                       : 13$ Q  `7 N& K9 t
Format                                   : PGS* q, v3 ]& z5 Y$ i9 y3 L
Muxing mode                              : zlib6 i8 z2 ^- ?& q. g9 x: {6 b
Codec ID                                 : S_HDMV/PGS" j, ]. y/ ~+ d4 `3 m+ \
Codec ID/Info                            : Picture based subtitle format used on BDs/HD-DVDs3 s5 V* N0 K& ~. c5 M
Duration                                 : 2 h 19 min
' `' o. ]! b/ [8 Y4 k& hBit rate                                 : 18.0 kb/s% I; s* z% i+ r  N% B9 @! n
Count of elements                        : 2708; K$ e& k3 z5 W! _. k6 E
Stream size                              : 18.0 MiB (0%)5 ?( o7 s2 h8 r- q/ z/ q3 C
Title                                    : Czech-PGS
8 c6 G* v+ u1 K2 WLanguage                                 : Czech
) X) N' Y# C, x/ Y: b2 `" vDefault                                  : No
# n+ ~" y( Z5 [0 ~4 NForced                                   : No$ a8 {( g4 b. M  D8 x: b& d
3 C) R6 v2 x# F- r" A6 E+ |3 d2 v; l
Text #12
  F8 h6 B  B4 Z. Q6 eID                                       : 14
3 C! i. f8 m8 W. F8 c% t2 r! w  yFormat                                   : PGS
9 u; Z" `; I; u+ {Muxing mode                              : zlib
$ _) p9 X$ A+ ]* n7 xCodec ID                                 : S_HDMV/PGS" F5 f7 t# c2 Z) g, D$ e
Codec ID/Info                            : Picture based subtitle format used on BDs/HD-DVDs3 l" d2 I- y+ p6 E/ B8 _& `
Duration                                 : 2 h 20 min
3 \! W& X8 w+ U7 O% tBit rate                                 : 19.6 kb/s
( s2 r1 M6 h3 ?Count of elements                        : 2494
6 ?+ @+ }% j% I! j1 c) v3 r4 G! IStream size                              : 19.7 MiB (0%)8 r# @# U8 Y: g
Title                                    : Danish-PGS
- k$ h! N8 B5 T+ @6 |Language                                 : Danish& s% Z/ k) D- u# I! Y
Default                                  : No
. ^- U1 ?( T8 u' E" ^Forced                                   : No
8 s% o  }7 f4 p2 o* V6 f- [8 [3 k+ U/ Z1 f9 f
Text #13
1 Y& \3 f  ?3 f$ @0 \ID                                       : 15  p$ ~9 n4 L: s% E+ q
Format                                   : PGS' x/ m: ?* q  v0 ^' g. `" i% P1 U
Muxing mode                              : zlib. @+ O' v( t: b1 T  q
Codec ID                                 : S_HDMV/PGS3 Z" Y3 l; t, f) l* \  T
Codec ID/Info                            : Picture based subtitle format used on BDs/HD-DVDs  B  C/ k' t: d/ e3 T+ t
Duration                                 : 2 h 19 min
& @* t8 B% N4 v& W# aBit rate                                 : 15.6 kb/s( O6 t+ o& V* K0 Z
Count of elements                        : 1978
: W4 }8 b! t& o! U0 i+ S4 Z6 RStream size                              : 15.6 MiB (0%)
. H" a6 P8 j9 j. i+ ], n; H6 |Title                                    : Finnish-PGS; s& B5 L7 x1 M% d+ T6 y
Language                                 : Finnish
6 }9 p! e" H  l, M! w! A# V. x% [Default                                  : No- m5 N- R8 Y8 K) X0 }- U5 W
Forced                                   : No3 V+ K! c: S3 o7 ^  N

4 i* n+ h4 K& m7 B: I" gText #14, O" g5 e2 S) A9 i
ID                                       : 16
& \0 d" T. L. RFormat                                   : PGS; v, Q3 G/ i$ k& ?3 n
Muxing mode                              : zlib
7 H. ]. {5 t" [% h( G+ YCodec ID                                 : S_HDMV/PGS
) j! m7 p" x6 R2 ]4 `3 s! |Codec ID/Info                            : Picture based subtitle format used on BDs/HD-DVDs
( }+ I& J9 O  d% Q- t% DDuration                                 : 2 h 19 min
" O9 v0 o9 i1 n# ^' h# W9 b3 zBit rate                                 : 19.8 kb/s
& f. Q& i- d5 p- aCount of elements                        : 2702
6 u" Y) e5 N( r. R- `6 _Stream size                              : 19.8 MiB (0%)
: g9 M3 K; c  q+ Q! B: m4 |; z, S  qTitle                                    : Hungarian-PGS9 N' P) B0 c( |6 K  @3 R' G( X4 @0 @
Language                                 : Hungarian
9 W( x2 w6 c- k8 @7 fDefault                                  : No
( B8 V6 Y' F+ UForced                                   : No) E( v% _. @# |+ T8 b: E' d

! g  Q& T1 I6 C6 Q" [: Z. {Text #15. Y0 \9 d  R4 ^; z
ID                                       : 17
* M. q2 _; `, p0 p; [. UFormat                                   : PGS
. B9 H5 `( O9 Y+ f- J/ wMuxing mode                              : zlib
  A3 D/ t% @, K! v/ mCodec ID                                 : S_HDMV/PGS
: s% u' |" F  I# |6 n2 V  A7 mCodec ID/Info                            : Picture based subtitle format used on BDs/HD-DVDs
# J3 K& y8 v/ O& t( nDuration                                 : 2 h 19 min' C1 n7 ^, b! p! e# g% E# x: n' {! P
Bit rate                                 : 17.5 kb/s, \+ W$ v& y+ K6 N( J- z" o$ F, b
Count of elements                        : 2252: P0 o$ s8 e& k1 ^2 \' z
Stream size                              : 17.5 MiB (0%)+ Z7 l. P# y6 X; {7 k) p4 \. C' [
Title                                    : Norwegian-PGS
/ F% Z. N# W; SLanguage                                 : Norwegian, ^! c) F: W" [+ U
Default                                  : No
3 K4 c6 ^' _2 h* K* sForced                                   : No+ i$ \" \$ w- {

  u3 h! [7 j( |$ `( M" d1 PText #16/ b/ o* g- R' @1 E* k0 v' L
ID                                       : 18
1 t  |8 ~' F, F7 i- eFormat                                   : PGS
' Q$ d% a2 d8 h. YMuxing mode                              : zlib
( ?2 t. m! G4 r( W$ U0 i+ N/ ~Codec ID                                 : S_HDMV/PGS' k  I( U3 ^  l8 W/ d: {
Codec ID/Info                            : Picture based subtitle format used on BDs/HD-DVDs
3 g+ V& l& S  k- h3 tDuration                                 : 2 h 19 min* m$ R( p' |+ m. I
Bit rate                                 : 17.3 kb/s
) ^) O( t; v6 l1 U: nCount of elements                        : 2562& v' t' A4 a* [( [6 p. w+ J7 u9 s
Stream size                              : 17.2 MiB (0%)
* W$ E2 b/ Q% L7 e# Y& KTitle                                    : Polish-PGS
( I5 O% [( f1 @4 j( r1 ]Language                                 : Polish* m( {, S9 u$ n: Y4 ?; m
Default                                  : No) j2 P1 i6 R6 ~* h( H) W
Forced                                   : No
9 W1 r! a8 e6 a2 V1 t3 ^2 K- l, x; ?* Q, h  s
Text #17" Q, V4 w' p/ G$ w( p( o2 A
ID                                       : 196 c  T* x0 j, a9 K
Format                                   : PGS6 @1 |1 \7 O! G* p
Muxing mode                              : zlib
5 N* ]7 e9 P/ k4 c( V2 XCodec ID                                 : S_HDMV/PGS
; W/ y) w- X2 E8 T; ^6 KCodec ID/Info                            : Picture based subtitle format used on BDs/HD-DVDs  N6 J5 E, v8 B8 |( w. [; o& b  y
Duration                                 : 2 h 18 min) Q3 g3 Q* L5 ^) P/ D
Bit rate                                 : 19.9 kb/s
: b' T( @! g7 c" I0 k  |8 r! G( SCount of elements                        : 2710
9 I3 T4 b4 B4 X$ _Stream size                              : 19.6 MiB (0%)) m. Z6 _1 O4 s: s! d& |
Title                                    : Romanian-PGS. u5 q5 C* M3 ~$ n6 ?8 R- j
Language                                 : Romanian7 h0 ]* q; p2 H" R" r2 f: l" a% p
Default                                  : No
5 x* `: X- y5 F9 kForced                                   : No
$ l, h* r4 X0 H% A' D7 l8 J1 @; M7 A4 E% F# M
Text #18
, R+ o5 q4 A- J6 W+ TID                                       : 207 s, ]- @! ?8 j" E! m& `) f. Z
Format                                   : PGS1 I+ z: \: U: h5 L/ p
Muxing mode                              : zlib* Z) z$ y# \; e! M0 ^1 I
Codec ID                                 : S_HDMV/PGS
- {% m6 M; L8 z" f8 ]' w9 XCodec ID/Info                            : Picture based subtitle format used on BDs/HD-DVDs7 R8 J  s' F$ L5 b
Duration                                 : 2 h 19 min, g9 L' ~% Z; M3 y" c
Bit rate                                 : 20.6 kb/s) {% D8 ]' Q  s( x; F6 _) d
Count of elements                        : 2634
. p; Z; {- P1 U4 W; r. ]Stream size                              : 20.5 MiB (0%)4 b: @! O3 \; k  {$ A' L; B
Title                                    : Russian-PGS
5 D4 j' r7 s+ b4 I+ H4 |Language                                 : Russian5 G! A# P3 m% R% x' ]  P
Default                                  : No( F8 n- _7 I: [) U3 F
Forced                                   : No
5 M4 M, y/ M& ]  S" y
; G) {# g% a, N/ ^# ^( ~Text #190 X- `7 J& E: ]- R5 C: f
ID                                       : 21
% C8 k( Z/ ^0 b+ t2 N1 {* J9 ]  hFormat                                   : PGS1 Y" f/ [1 n" R: J5 i
Muxing mode                              : zlib
$ |8 a" d' G8 Z. H; R* l0 TCodec ID                                 : S_HDMV/PGS* u3 W; O* E- w9 K# b% Y- C& g
Codec ID/Info                            : Picture based subtitle format used on BDs/HD-DVDs
7 H% ]* m# z4 w1 o, J, |Duration                                 : 2 h 18 min
+ E% ~% E; v$ m" h3 f' l# MBit rate                                 : 17.0 kb/s
3 |; E# a9 u& G( K) ~Count of elements                        : 2338
8 a! T5 `: r5 V- bStream size                              : 16.8 MiB (0%)4 A( u5 {4 C2 g
Title                                    : Swedish-PGS' J% ?6 x: m% p4 j7 _$ c% T
Language                                 : Swedish
0 T3 \! A9 w1 t& |  IDefault                                  : No
- m$ g+ {- ?/ V8 ?2 J0 n' RForced                                   : No
2 Q7 w' Z3 ~. ?. Z3 f: l; q+ }: G1 _0 u- b9 G; |' u+ k
Text #204 M) A- n7 B3 C
ID                                       : 224 w$ t* W% {$ Q7 z7 G& m9 G* b, V" j6 j
Format                                   : PGS, n( k- e+ r1 c8 D2 e' I  q; [
Muxing mode                              : zlib
# z8 Z, x7 P2 B9 v& ^Codec ID                                 : S_HDMV/PGS
4 W) v' L3 n' O9 f0 Y7 ]$ U& Q0 G, WCodec ID/Info                            : Picture based subtitle format used on BDs/HD-DVDs
- Q" i% K! _7 E8 f5 _. |3 gDuration                                 : 2 h 18 min/ K1 ]" q+ t3 y) P% R
Bit rate                                 : 19.3 kb/s: \& W$ J/ r4 j3 N( t! G0 u
Count of elements                        : 2716
& T3 l9 S" ]: E3 V/ o' E0 W+ jStream size                              : 19.1 MiB (0%)
" ?9 v  E: b) A! M3 cTitle                                    : Thai-PGS
$ R# Q; [& C( l: jLanguage                                 : Thai
2 T2 Q; o5 z# d/ `" pDefault                                  : No
* v8 e7 ]8 F* [0 f. KForced                                   : No
8 j" Y5 x/ h. u4 P
7 W% C2 I. x- {/ m5 uText #21% z; X1 U/ z3 n4 u
ID                                       : 23
3 }, U( U, l  JFormat                                   : PGS; r1 Q- U3 t" [5 l9 S, B
Muxing mode                              : zlib6 {+ a+ f3 S- @, F$ K( u
Codec ID                                 : S_HDMV/PGS9 C, q/ \. ]  ~( E
Codec ID/Info                            : Picture based subtitle format used on BDs/HD-DVDs
- k5 u! F1 s3 ~0 J% u9 ~Duration                                 : 2 h 21 min
) E; x" }* e( E! U; |( HBit rate                                 : 40.2 kb/s
; [4 P9 M' F0 o' }Count of elements                        : 3936
& [4 Z% e$ m6 }/ W  {Stream size                              : 40.5 MiB (0%)
, Q& \. S) ]6 ?( STitle                                    : Chinese-PGS( j/ T6 Q! W/ b3 ~" v
Language                                 : Chinese) a6 z4 r# l5 M
Default                                  : No3 n5 U7 I6 U5 ?0 H  V
Forced                                   : No
# D4 @3 ?2 \: B! I" B- Y) M7 P
4 ^+ O  q7 l! s2 nMenu# ?4 Z# ^+ g6 k  j
00:00:00.000                             : en:Chapter 014 b: {. c0 C1 P7 B+ ~  T7 u
00:03:00.388                             : en:Chapter 02
+ z1 V$ [3 I  _& X8 g4 }00:05:04.846                             : en:Chapter 03
; _  j  ~0 k; I7 o7 _) E4 G00:10:33.799                             : en:Chapter 04
; p* _' ^0 o# X) U3 V; k00:12:08.394                             : en:Chapter 05
4 h. Q  E: d! T3 `7 E4 l00:14:24.280                             : en:Chapter 061 h1 h4 U, ?5 |
00:17:37.556                             : en:Chapter 07/ \, C' b. [/ k
00:20:30.896                             : en:Chapter 080 n0 h* }3 _& F4 N; l  x4 I# _4 [
00:24:58.622                             : en:Chapter 09" Q  K* e3 j2 z
00:28:51.563                             : en:Chapter 10+ s+ X, \6 N" X9 K7 J
00:34:10.089                             : en:Chapter 11" _) p: \9 T7 t: Y
00:40:28.801                             : en:Chapter 12
( j% C: `6 y$ J% _+ i3 Z5 B: p" E4 H00:46:00.924                             : en:Chapter 13+ Q3 }- O. J8 I  [3 q9 k* y
00:46:52.226                             : en:Chapter 14
( U; _! }$ }; l. J00:49:17.079                             : en:Chapter 15
) o# l$ P9 N4 I3 B; G0 U* ~00:51:16.198                             : en:Chapter 16
1 X: J3 C4 Z- C: n/ N00:57:01.876                             : en:Chapter 178 K9 U3 w% a! W8 j$ ]+ o8 d. P
00:58:36.846                             : en:Chapter 18' V" V  r2 k- _. }. a
01:02:37.086                             : en:Chapter 195 Q3 ^( `% F+ {! y, u) F: E$ L
01:06:05.753                             : en:Chapter 20) z2 h( W9 @2 P: e2 T& d8 R
01:09:00.469                             : en:Chapter 21
5 M% D$ X  w' V' m01:16:52.107                             : en:Chapter 22
! b* {9 g$ O3 R: u; X01:22:18.558                             : en:Chapter 23
: f$ t, z8 l& z$ k! P9 s3 h01:25:29.582                             : en:Chapter 24# g5 Y5 c" F. I* I8 o6 o( N( @
01:31:41.120                             : en:Chapter 25
2 x4 l6 R( \+ }2 Y/ k1 l01:34:03.804                             : en:Chapter 26
0 o6 g9 U7 ~8 h' ~01:35:48.576                             : en:Chapter 27
# j. n+ t6 i  ^  c01:39:30.547                             : en:Chapter 28, e" ]/ L- H- H$ i. ^$ \
01:43:49.806                             : en:Chapter 29
& H# k  l9 F# x& A' @* d01:49:26.059                             : en:Chapter 30
, p- F" U7 x& {. K+ j) y$ f2 H, V01:54:24.440                             : en:Chapter 310 T, @8 ~# z' d3 t+ y/ {
01:58:44.617                             : en:Chapter 32, w" |- K, C8 M- I, k+ D
02:01:09.553                             : en:Chapter 33
$ M  n: p' a0 N% S- z) A02:05:29.980                             : en:Chapter 34+ r8 @( u6 k7 k- g: d; c( }7 ]
02:07:32.561                             : en:Chapter 35
/ y$ X, b0 T& _5 E02:10:23.482                             : en:Chapter 36
7 r) z1 ^+ P0 r' [02:12:10.047                             : en:Chapter 37
$ a. F6 \5 I3 l8 d4 V02:15:03.345                             : en:Chapter 385 V1 S; G9 V, D! z" ~/ S6 C
02:18:56.745                             : en:Chapter 39" A" T/ I7 y6 J2 ^: N
02:21:16.301                             : en:Chapter 40

. L, x* p4 {- D+ I
Video! l/ L1 z  u) \0 Y/ p4 i% k1 J' D
ID                                       : 1% V+ t- q3 l% A- m7 t/ S
Format                                   : AVC6 D6 L2 W. |$ r/ m3 s
Format/Info                              : Advanced Video Codec) @& N  D) ~. B8 l" M( p. v
Format profile                           : High@L4.1
5 j  C: h8 n, ~3 q1 o7 H' RFormat settings                          : CABAC / 4 Ref Frames+ _; T7 }9 @4 P4 ?7 T
Format settings, CABAC                   : Yes3 ]" ?( b- \8 H5 s
Format settings, Reference frames        : 4 frames
- y& X* h7 H* U& H: U! W& tCodec ID                                 : V_MPEG4/ISO/AVC
- w, E: O: J: x' S% Y/ NDuration                                 : 2 h 23 min
2 P, f+ O7 w. q0 bBit rate                                 : 12.8 Mb/s* |  v( P2 |. P' I7 ?' d
Width                                    : 1 920 pixels/ k9 Q- s& {$ n. ?) ^  H
Height                                   : 1 080 pixels
2 V1 h( p: I0 U0 y7 {, cDisplay aspect ratio                     : 16:9
7 @6 a$ z- R, p0 wFrame rate mode                          : Constant. z' G& S1 y0 q- ~8 Z1 b+ r
Frame rate                               : 23.976 (24000/1001/37687) FPS
, c! J: d5 F; n, I+ M6 NColor space                              : YUV
, N2 i7 x5 l) |0 U4 [8 sChroma subsampling                       : 4:2:0( S2 {: x7 F" ~  U
Bit depth                                : 8 bits/ P) e2 |% f" }6 x2 _; D
Scan type                                : Progressive3 O: @1 Z( Y( i: ]
Bits/(Pixel*Frame)                       : 0.258: |9 m+ q$ G, ~: a: D
Stream size                              : 12.9 GiB (89%)
- J& P0 ?3 ]7 k! yTitle                                    : The.Shining.1980.US.DC.REMASTERED.1080p.BluRaycd.x264.DTS-SWTYBLZ
3 A( G  h  b  T: ]Writing library                          : x264 core 157 r2935 545de2f
2 G) D) w* d8 r2 d/ K8 B7 nEncoding settings                        : cabac=1 / ref=4 / deblock=1:-1:-1 / analyse=0x3:0x133 / me=umh / subme=10 / psy=1 / psy_rd=1.00:0.15 / mixed_ref=1 / me_range=48 / chroma_me=1 / trellis=2 / 8x8dct=1 / cqm=0 / deadzone=21,11 / fast_pskip=1 / chroma_qp_offset=-3 / threads=34 / lookahead_threads=5 / sliced_threads=0 / nr=0 / decimate=0 / interlaced=0 / bluray_compat=0 / constrained_intra=0 / bframes=8 / b_pyramid=2 / b_adapt=2 / b_bias=0 / direct=3 / weightb=1 / open_gop=0 / weightp=2 / keyint=250 / keyint_min=23 / scenecut=40 / intra_refresh=0 / rc_lookahead=60 / rc=crf / mbtree=1 / crf=19.0 / qcomp=0.60 / qpmin=0 / qpmax=69 / qpstep=4 / ip_ratio=1.40 / aq=1:1.00& B/ d* `+ d; n2 c9 }* @3 k
Language                                 : English( r+ d# q0 [. M" F
Default                                  : Yes
. J/ ^/ N, r& ~% f- y& _6 ~7 `! b' HForced                                   : No
$ n8 X7 f" |$ o! L. }  d) D! I3 \  l$ W" w* m2 h' N
Audio$ p: a2 A: l% O: P+ y
ID                                       : 2! D' B) E" K" X0 q6 E$ f
Format                                   : DTS& q1 c+ A, _1 C. f$ O& I- P  T
Format/Info                              : Digital Theater Systems
2 P! N0 G3 o: p5 n2 @" ]Codec ID                                 : A_DTS" G0 i; s5 H( o
Duration                                 : 2 h 23 min
0 a9 |$ K6 _& H. o0 L' [1 SBit rate mode                            : Constant, a+ F, E: e* B! @1 |5 u
Bit rate                                 : 1 509 kb/s* O* ~+ U4 c- z1 u) {3 G8 e
Channel(s)                               : 6 channels
8 v+ E( ^3 r/ Y, j4 i. `( uChannel layout                           : C L R Ls Rs LFE4 A) H7 Z" v$ g, n6 o
Sampling rate                            : 48.0 kHz
5 ?+ M* I( |# o% X. lFrame rate                               : 93.750 FPS (512 SPF)- J; s7 B& Y- O% j8 _" i: n; s
Bit depth                                : 24 bits
$ a, g/ e7 F4 V8 {  f( ^+ E5 z, u& {% |Compression mode                         : Lossy
2 Z+ H1 Y- \$ s( e4 [Stream size                              : 1.52 GiB (11%)2 S' y  }$ @5 g6 R) W4 `: [
Title                                    : The.Shining.1980.US.DC.REMASTERED.1080p.BluRaycd.x264.DTS-SWTYBLZ4 v/ r4 W/ u  {3 o
Language                                 : English
6 o* N, Y2 H0 a. ~( ODefault                                  : Yes: A8 }4 P; d( Q/ I, C( U8 Y  c
Forced                                   : No
* X7 i0 G7 _# \7 k* t8 P! q2 m
, M0 k+ C3 t- I5 p4 C3 G. hText
; c7 U2 ]2 `% p) n0 }ID                                       : 3' n" a' D3 j3 m3 T: ]& p* L
Format                                   : UTF-8
' X! b( y. A5 m% T# o/ eCodec ID                                 : S_TEXT/UTF8) v/ ]1 x( ~& u: q) F0 V
Codec ID/Info                            : UTF-8 Plain Text
0 u" O2 t& g8 `6 C3 n# k/ XDuration                                 : 2 h 14 min
- X" K" C, c. ?$ b1 b) RBit rate                                 : 41 b/s
$ p$ n% c, |$ X4 uCount of elements                        : 1453
: R- E8 n2 `4 R3 RStream size                              : 40.4 KiB (0%)2 ^* Q% U: V# o- T. Z9 v6 x
Language                                 : English
7 |& W8 V9 W3 e4 A  c3 o( g, }Default                                  : Yes, N" L1 q2 b& ?3 ?% F9 j
Forced                                   : No
% M5 l  E8 Y4 ^: B+ X. e) [' d8 [9 ~; M# D5 ?
Menu
" s! z* b9 i4 N/ x00:00:00.000                             : en:Chapter 01  i3 ]9 V8 @5 I3 `
00:03:00.388                             : en:Chapter 02
2 V( Z6 K6 M7 l% j00:05:04.846                             : en:Chapter 030 ]& t: }7 k. o
00:10:33.799                             : en:Chapter 04. L% z: j. I+ z4 N
00:12:08.394                             : en:Chapter 05  O# D7 W+ X, @8 T0 i/ o4 `
00:14:24.280                             : en:Chapter 06
; g* g3 [, M% b% Q& O00:17:37.556                             : en:Chapter 07
# X- p$ G, w$ T; g6 i4 i9 _! s00:20:30.896                             : en:Chapter 08, b( r; L9 M: |/ \1 s+ h. o, t
00:24:58.622                             : en:Chapter 09+ p, u  k" ?4 v
00:28:51.563                             : en:Chapter 10/ \& n5 Q' j* Y& e2 ^/ [0 v
00:34:10.089                             : en:Chapter 11
2 d/ [/ F3 ], J7 b2 W9 I4 k00:40:28.801                             : en:Chapter 12
$ h: e8 X7 R' C3 w9 R00:46:00.924                             : en:Chapter 13
! q1 Z5 Q! d  q; t9 x$ q% \00:46:52.226                             : en:Chapter 14
4 b! \2 T% A7 T% p00:49:17.079                             : en:Chapter 15# A& C3 G7 A3 b' {8 k1 D
00:51:16.198                             : en:Chapter 16* w: Y" \1 t7 M( w& D6 Q
00:57:01.876                             : en:Chapter 17' E( X8 @: b/ E8 Q4 p( K0 |
00:58:36.846                             : en:Chapter 18
" d( G( A( I3 O; _' K/ t1 b" E- V4 A01:02:37.086                             : en:Chapter 19( r: t; S) }3 p* N9 |- M2 J
01:06:05.753                             : en:Chapter 20* t' e6 Y. y( D, D3 @  G
01:09:00.469                             : en:Chapter 216 @# k% Z" A; D5 I1 C6 ]
01:16:52.107                             : en:Chapter 22
8 R1 ~: d7 q! T; F+ N0 ^+ z01:22:18.558                             : en:Chapter 23  g. x$ T7 i8 Q1 g: D' Y& Y& ?
01:25:29.582                             : en:Chapter 24% H" k& K6 j  |! X
01:31:41.120                             : en:Chapter 25# [) i. K, q+ D' w0 e$ I0 M
01:34:03.804                             : en:Chapter 26) k# t+ L  O5 A9 \( q/ l
01:35:48.576                             : en:Chapter 275 s, D6 d' M# Z3 ^4 l4 \' L9 B
01:39:30.547                             : en:Chapter 28* u9 X& [$ r% c
01:43:49.806                             : en:Chapter 294 @5 k, f9 D* _" n2 S! p
01:49:26.059                             : en:Chapter 30
' @: P  d* v: M) ^. |) @01:54:24.440                             : en:Chapter 31
, Z  S2 }: e" x' _5 i01:58:44.617                             : en:Chapter 32( u8 {, ~* c# w. `
02:01:09.553                             : en:Chapter 33
& y; {; D* M( P. N3 X) O: Y02:05:29.980                             : en:Chapter 34
, V! o( E( a# `  F- h% w, ?& u. k2 D02:07:32.561                             : en:Chapter 35" t7 N3 I4 C. V, p
02:10:23.482                             : en:Chapter 36# I5 C8 S- s' C+ V
02:12:10.047                             : en:Chapter 37
2 U1 R9 |. I* O02:15:03.345                             : en:Chapter 38
5 z* b, ^- N: w: x# L02:18:56.745                             : en:Chapter 39
4 |5 p0 T" h) p0 ~6 u- D02:21:16.301                             : en:Chapter 40

2 S. B5 i6 g. f+ j8 i, c5 l
8 t# V5 R; w7 u. i( M; REncoded from 4k bluray.! H2 N; ]" U; o, Q5 i
游客,查看本帖隐藏内容请回复 | 加入VIP贵宾组可免积分免回复下载 了解详情 | 还不是会员:点击获取邀请码 Invitation Code

2

主题

713

帖子

3242

积分

Sponsor

金币
590 枚
体力
1303 点
tto138 发表于 2020-5-21 20:21:13 | 显示全部楼层
沙发是抢的而不是占的!
" j- v9 i/ X7 ?# CThe decisive Replies sink is I get the sinking feeling great sense of accomplishment!$ }: O; b7 O" P& B! Q

0

主题

651

帖子

3284

积分

Sponsor

金币
31 枚
体力
1901 点
xpg050811 发表于 2020-5-24 13:15:56 | 显示全部楼层
啥也不说了,楼主就是给力!
' o4 L4 P1 Y' b9 d% [; q$ YI love your Blu-ray movies Forum!' a4 N5 L3 {- p; G

本版积分规则

小黑屋|Archiver|蓝光电影资源网

GMT+8, 2020-12-6 09:25

快速回复 返回顶部 返回列表