BluRayCD Forum

 找回密码
 立即注册【分享大片】
查看: 103|回复: 5
收起左侧

[蓝光原盘] 寻龙传说/魔龙王国 [REMUX无损版] Raya and the Last Dragon 2021 1080p BluRaycd REMUX AVC DTS-HD MA TrueHD 7.1 Atmos-FGT 30.03GB & 23.14GB

[复制链接]

9516

主题

9924

帖子

9万

积分

Super moderators

金币
646 枚
体力
45745 点

最高荣誉勋章

24xs 发表于 2021-5-17 21:34:36 | 显示全部楼层 |阅读模式
In a land called Kumandra, split into five different regions, a warrior named Raya searches for the last dragon in the world.
. C2 h$ i- ?9 X3 I% ^- C* }5 T
01.jpg
) j4 L1 p; n0 V: m8 a
7 [; Q6 g' |, t# h+ D/ F◎译  名 寻龙传说/魔龙王国(港)/寻龙使者:拉雅(台)/瑞亚和最后一条龙/拉雅和最后的龙' j- }! D6 I, Q( d2 t$ W
◎片  名 Raya and The Last Dragon+ t: s( l" Z' M" b, L$ Y; {
◎年  代 20211 s! k: T2 T' U6 N4 Y8 O9 w$ N- @
◎产  地 美国2 b- p/ C- @# G) B  C
◎类  别 动画/奇幻/冒险. Z4 C( b$ q4 Q8 [8 |
◎语  言 英语! K' U5 G5 I+ i% C$ T. I8 e' h5 G
◎上映日期 2021-03-05(中国大陆/美国)
. @" z# {5 G; g, g3 \◎IMDb评分  7.5/10 from 56,825 users" b3 M7 K4 G) W* m* q
◎IMDb链接  https://www.imdb.com/title/tt5109280/
0 b: k) T0 j2 N( r, ~2 h◎豆瓣评分 7.2/10 from 77,751 users& }7 i+ V& f! X* I
◎豆瓣链接 https://movie.douban.com/subject/34804147/" `6 Y9 x( @9 G0 F
◎文件格式 x264 + DTS + TrueHD . u% [. K$ x4 y$ t9 b) F; Q4 I
◎视频尺寸 1920 x 1080
5 J& [5 M$ {5 B9 i◎文件大小 1DVD 30.03 GiB & 23.14 GiB' K' I5 V6 \" W% T. F! Z6 N' Q
◎片  长 1 h 47 min
" X3 h, s& x: B3 s7 Q" x( ?3 d% [◎导  演 唐·霍尔 Don Hall
4 a- ]4 G+ M' _8 h$ B7 Y       卡洛斯·洛佩斯·埃斯特拉达 Carlos López Estrada
) ~; @: F; R+ |( V+ m' _* J6 j  W       保罗·布里格斯 Paul Briggs2 n1 h' E4 @, B- M, F6 a
       约翰·瑞帕 John Ripa) N" U( m4 ]# ^" b/ c$ R- \
◎编  剧 阮基 Qui Nguyen
) r5 ^3 U1 a/ E8 p, @       阿黛勒·林 Adele Lim' D$ B( ^; p% B9 }- Y* g2 n4 I% T
       保罗·布里格斯 Paul Briggs2 U/ S4 i' F, o! H; g8 {
       唐·霍尔 Don Hall
  o8 a" X% l/ x* f* c* O% N       卡洛斯·洛佩斯·埃斯特拉达 Carlos López Estrada
$ E8 h, t+ v4 l% b2 K' E       基尔·默里 Kiel Murray0 G5 l# _. N9 k& p7 s5 a/ l/ |
       约翰·瑞帕 John Ripa
' L3 s% X9 l: x# I; `  Q3 f" h6 t/ s: \2 }       迪恩·威林斯 Dean Wellins, i' q5 ]1 h8 N9 W4 K9 h- l6 I
◎主  演 凯莉·玛丽·陈 Kelly Marie Tran6 b# c7 f' x% k
       奥卡菲娜 Awkwafina5 c) _! R% k3 T5 |; ^
       嘉玛·陈 Gemma Chan7 R5 ^- j7 ^% K1 e- `
       金大贤 Daniel Dae Kim  p9 t5 J8 P5 ]/ }
       吴珊卓 Sandra Oh4 |' g, J: N! }7 ]3 ]" ?) o+ U$ ~+ M1 p
       本尼迪克特·王 Benedict Wong
$ k5 W- n* q; H. @6 J       伊扎克·王 Izaac Wang
+ |6 L: \% e) c1 F       塔莉娅·陈 Thalia Tran
6 U* N  Q, G0 |4 E. R       艾伦·图代克 Alan Tudyk
& H) \; X; s. M" Q- |       迪辰·拉克曼 Dichen Lachman
: H3 Y$ t3 w. V. _! g* f       帕蒂·哈里森 Patti Harrison9 b2 A# [! |4 C1 t( M
       姜成镐 Sung Kang
& K: \6 J8 @- q       罗斯·巴特勒 Ross Butler
% r. i1 T9 g( J       乔娜·肖 Jona Xiao
2 o  @/ O# b+ l; m9 y8 H3 d2 N# S       宋静秀 Lucille Soong6 y; J2 `0 z5 E1 r, i
       弗朗克西斯·周 Fran?ois Chau8 z5 g7 Q! O. i
       保罗·扬 Paul Yen
+ X. h. \6 E" W4 q1 I       Liza Del Mundo+ g3 X. O8 q9 |  ?) H
       塔妮亚·古纳迪 Tania Gunadi) D" `0 {+ [- x; q+ Z
       Jennie Kwan
& p" R6 Q4 @6 X/ X& [; l3 M       Lucian Perez( X5 B9 N' }: N% L- Z) p  n2 M
       文森特·罗德里格兹三世 Vincent Rodriguez III( L, ?4 H6 {$ O7 g
       JB Tadena
" c) K' r# r1 b& t       赵丽颖 Liying Zhao
9 j4 @+ e, m1 y  K4 P( U3 t
5 u$ i' v: d4 s: B8 o- U◎标  签 迪士尼 | 动画 | Disney | 动画电影 | 奇幻 | 华特·迪士尼WaltDisney | 美国 | 皮克斯
7 }$ V3 ~$ V$ m- m9 K3 S# ^9 f. s6 M0 d% @+ K0 H
◎简  介
  \2 H* V) R/ |. y
  M4 @1 j8 f, O* _$ W; n+ Y: r  很久以前,在充满奇幻色彩的龙佑之邦,人类和龙和谐地生活在一起。但当一股邪恶的力量袭来,龙牺牲了自己来拯救人类。500年后,同样的邪恶力量卷土重来,只有一个孤独的战士拉雅(凯莉·玛丽·陈 配音)承担重任,追踪传说中的最后一条龙,以修复这块破碎的土地,团结分裂的人民。在她的旅程中,她也会逐渐了解到拯救世界不仅仅需要一条龙,还需要信任和团队合作。' d6 D  T6 R# U/ i) Q! Q  o
: d8 d6 `8 G7 {8 X) v
  In a realm known as Kumandra, a re-imagined Earth inhabited by an ancient civilization, a warrior named Raya is determined to find the last dragon.+ e; `$ G. C: }. ]/ e' S
Video
: V" D  O3 V( WID : 1
4 o+ z7 o, k, N+ r0 A3 ?& cID in the original source medium : 4113 (0x1011)
) M( [" G3 N$ {1 `+ H. mFormat : AVC/ N- p% o3 @- |3 F& ~& }6 K! h! C
Format/Info : Advanced Video Codec% |; i3 N5 f5 o
Format profile : High@L4.1% C. j: w7 T1 _
HDR format : SMPTE ST 2086, HDR10 compatible
; f, a4 Q* A, U$ y& ?Codec ID : V_MPEGH/ISO/HEVC
4 R+ J" W0 ]4 a! v3 \' T9 UDuration : 1 h 47 min
' d5 w7 O8 y2 S6 f5 qBit rate : 51.5 Mb/s) E; G; R2 ~& q5 p8 F% G
Width : 1 920 pixels
1 S; K8 L7 X7 O; b! k1 ^Height : 1 080 pixels3 M8 |) n. @& B! Q9 ]1 s
Display aspect ratio : 16:9
# }- z* [0 V) i( b2 }Frame rate mode : Constant( Q3 x1 J' {/ v8 I) x0 _
Frame rate : 23.976 (24000/1001/189150) FPS
* H  ?+ w: B& J0 p" N4 v/ NColor space : YUV
3 u" r- Z" ~& H- \Chroma subsampling : 4:2:0 (Type 2)
$ w" L$ u; Q& v: w- hBit depth : 10 bits
. B4 y, U3 G/ k7 H5 w7 }* aBits/(Pixel*Frame) : 0.259* q& M1 f" _2 M. M. H
Stream size : 38.7 GiB (72%)
% r' S3 V9 t4 vTitle : Raya.and.the.Last.Dragon.2021.1080p.BluRayCD.REMUX.AVC.DTS-HD.MA.TrueHD.7.1.Atmos-FGT, K8 ?& U3 D: K1 G
Writing library : ATEME Titan File 3.9.6 (4.9.6.2)
6 F0 N, r5 l) ^' w3 R. t' QLanguage : English  F" k4 }9 q& f* ]0 v
Default : No
" X0 C$ P/ f4 a. z2 a8 TForced : No
. p/ I3 v* [/ dColor range : Limited
8 ~9 T% ~- n; k& W# g. jColor primaries : BT.20200 D) }1 R3 W; t
Transfer characteristics : PQ+ ]  u5 C$ J- `; D
Matrix coefficients : BT.2020 non-constant
- s/ v  n) ~' V* xMastering display color primaries : Display P3
3 c  O7 x3 a* U' y% \8 GMastering display luminance : min: 0.0050 cd/m2, max: 1000 cd/m2
$ r2 M, }4 c1 c1 J  Z% SOriginal source medium : Blu-ray
7 d$ g3 O7 W0 i; F& }
0 @9 a9 R1 S  d0 i5 Z+ i0 CAudio #1
* u$ `! F& X5 O' y; ^- A6 z4 FID : 2
; Z$ j" F* j: p! i. PID in the original source medium : 4352 (0x1100)1 m; d! I6 h, p& T2 m# t5 y6 J$ H/ e; w) F
Format : MLP FBA 16-ch/ Y5 I7 L- O/ I6 s. u
Format/Info : Meridian Lossless Packing FBA with 16-channel presentation' `6 Y* b% Y% H( D5 l4 K3 X$ P( T
Commercial name : Dolby TrueHD with Dolby Atmos0 M9 E: ?1 @% q) ?& a
Codec ID : A_TRUEHD% g3 \" t2 r" B5 W
Duration : 1 h 47 min
( O* k2 g! w+ r/ h6 ]Bit rate mode : Variable4 s: e, b; q# @9 I9 r, @( W/ K
Bit rate : 8 470 kb/s+ O7 M' k' ]5 z
Maximum bit rate : 11.2 Mb/s
3 m- m. A3 ?& C. |- z  hChannel(s) : 8 channels
# S7 M$ R$ z2 q* n5 AChannel layout : L R C LFE Ls Rs Lb Rb) |' y5 |. u% r7 w! w' u$ Y
Sampling rate : 48.0 kHz
$ b- H. F7 `3 P+ s' [1 |Frame rate : 1 200.000 FPS (40 SPF)) J9 r3 [0 k" T
Bit depth : 24 bits- V! s* k5 E0 q2 w7 [: s3 D
Compression mode : Lossless
  h! M5 r5 Z  `" NStream size : 6.36 GiB (12%), R" S! u8 i2 S& B: ?' R& T" V
Title : Raya.and.the.Last.Dragon.2021.1080p.BluRaycd.REMUX.AVC.DTS-HD.MA.TrueHD.7.1.Atmos-FGT
/ E( x+ t. o" i* _; n" ELanguage : English
( h2 N9 e$ v, t( ~" B& HDefault : Yes
& r3 d' |1 k/ _' YForced : No
# W+ Z9 M7 t' G" T3 I1 YOriginal source medium : Blu-ray
7 Y6 C9 X  @1 l, t: S0 a7 i1 Q8 W& CNumber of dynamic objects : 13
- o' e1 X! H/ M: B8 a. }6 VBed channel count : 1 channel' g' R8 X& r# B& @' \
Bed channel configuration : LFE7 e' G* o1 R/ }

) B" i. X3 r, R0 A5 kAudio #2
6 V# T- H- k9 d. _2 L+ E$ e( hID : 3( N+ E1 _3 e' }* b
Format : DTS XLL: [% P4 Q3 Z4 r5 d- P3 Q! a- W/ b
Format/Info : Digital Theater Systems0 r# H& ?9 D1 _* T) N6 _5 y
Commercial name : DTS-HD Master Audio: C; c8 j9 I- C0 J* t; i8 h
Codec ID : A_DTS) `& H( A& {9 E5 O
Duration : 1 h 47 min
3 f) T0 m: L+ R% P4 I% s4 UBit rate mode : Variable
& T: c8 ^+ i! G4 w  iBit rate : 5 285 kb/s
6 X. F. V" v/ G2 t) S" g# D" z; MChannel(s) : 8 channels5 \. S% V" C& r7 v, T. e/ R4 h
Channel layout : C L R LFE Lb Rb Lss Rss
" s4 e1 i; I; T# y  }5 z7 k* t. ]Sampling rate : 48.0 kHz
4 k; @. `! t$ H& T4 GFrame rate : 93.750 FPS (512 SPF)5 V" A: |' y$ X8 k2 M0 o
Bit depth : 24 bits- |9 f, z: W1 [& n; [2 \# j8 R, [
Compression mode : Lossless
- @/ M' M4 `6 H; y: fStream size : 3.97 GiB (7%)( Q4 A7 Z9 A- D3 ]9 Y/ `
Title : Raya.and.the.Last.Dragon.2021.1080p.BluRaycd.REMUX.AVC.DTS-HD.MA.TrueHD.7.1.Atmos-FGT
* b+ {$ e$ A. H1 a* }& CLanguage : English  y+ `4 K6 E8 ~: J) p
Default : No9 _  n7 [; a& |
Forced : No
  N0 {- X6 ]+ A# Q% e% E! W6 Z. h6 p2 @4 i8 m
Audio #3
( C) d: P0 O& R+ u$ Z. @ID : 4
! e1 [0 P3 U5 |3 c! r2 a  yID in the original source medium : 4352 (0x1100)  z# e" q+ \" k( n% a% v3 |! t, u
Format : AC-3
! B5 E' v4 {8 E8 c- `- ]6 [* GFormat/Info : Audio Coding 33 |- a  ^7 L4 o
Commercial name : Dolby Digital- F$ B. B( f, B2 W& _
Codec ID : A_AC3
3 E( q, f) C/ Z( x& }4 ^* BDuration : 1 h 47 min* z$ o/ ^: E1 b3 M
Bit rate mode : Constant
  b% i$ R( g& R3 A2 w: \9 TBit rate : 640 kb/s
9 _* K2 `& C7 E* @1 H; \3 Z) V! wChannel(s) : 6 channels
$ r' U$ q$ b; o/ C3 q* I4 q+ ]) ZChannel layout : L R C LFE Ls Rs
: K' ]" E+ R# }) Q9 v! D4 D6 jSampling rate : 48.0 kHz& N9 {) z  y. G3 c3 t" r5 ?( ?
Frame rate : 31.250 FPS (1536 SPF)1 t# f8 [+ w! `: J! \! ~
Compression mode : Lossy
! G9 J& r; [2 o: v1 M' @Stream size : 492 MiB (1%)+ I6 j5 q+ A) N& P  T3 L8 J
Title : Raya.and.the.Last.Dragon.2021.1080p.BluRaycd.REMUX.AVC.DTS-HD.MA.TrueHD.7.1.Atmos-FGT% S) m- {0 h9 z0 n) }/ K" g7 u! Z0 ?0 g
Language : English
3 n- q/ t: Y% [Service kind : Complete Main  Q2 }: t8 f" N% m3 ^( T& h/ y
Default : No
$ X* I) y, I' g7 pForced : No/ J' ]) P& T  |. i
Original source medium : Blu-ray& G: c' U1 A% b: }8 z5 K

+ \( |% [  y* N5 k/ ^Audio #4
( c+ T! \5 h8 A# B3 lID : 5
- ]: P9 U3 i) J! u- B* M4 vID in the original source medium : 4353 (0x1101)! w% U& ?7 z) z! w% l
Format : AC-3
+ D$ u. c* t2 F$ J  W* g* `0 k) kFormat/Info : Audio Coding 3( u3 h" T# A4 J$ H/ K
Commercial name : Dolby Digital
$ \9 D+ R' R6 u2 ~- VCodec ID : A_AC3/ v* j& y' @& ?9 u
Duration : 1 h 47 min
- P1 G# x3 z. T3 q( n1 L8 EBit rate mode : Constant* E  Y% S' d  f5 O/ D
Bit rate : 320 kb/s
) x- S7 N1 O4 M( c$ O5 ZChannel(s) : 2 channels
6 |  W7 }: X, `* ~. uChannel layout : L R" b+ w) r) d: c
Sampling rate : 48.0 kHz( Z. X. G. c0 P  |) c
Frame rate : 31.250 FPS (1536 SPF)
8 B" U  i: U) _- [* c- lCompression mode : Lossy
+ y1 f  d7 h" W- ^' X" d4 f+ iStream size : 246 MiB (0%)2 n7 A/ e' U$ b2 f* X. J
Title : Raya.and.the.Last.Dragon.2021.1080p.BluRaycd.REMUX.AVC.DTS-HD.MA.TrueHD.7.1.Atmos-FGT
0 f% S" u# h/ JLanguage : English
8 a2 i; l! E4 G0 s$ ~0 LService kind : Complete Main: k4 F, X9 v, F( t
Default : No5 }1 z4 f- \( D4 [6 m# T
Forced : No8 L( d1 E* F- }8 A
Original source medium : Blu-ray' y, M, N# {3 N' [: Z6 @+ M+ w1 F
* H2 }8 v2 q! U- V1 R; N9 L
Audio #5( D. ^4 }7 ?  ?# x0 S  R
ID : 6
1 G! M4 f  Q4 H: ?, `% z6 gFormat : E-AC-3
4 ?2 e# [! H/ QFormat/Info : Enhanced AC-3
0 M6 w+ h9 {2 C+ \3 m- nCommercial name : Dolby Digital Plus, v7 c7 q0 V$ J- m! t! d! Y5 T) _
Format profile : Blu-ray Disc. y6 a* S4 t) H+ V7 {& {
Codec ID : A_EAC3
9 t$ H0 j. z; o  e7 a: U: a9 xDuration : 1 h 47 min
; M. z. I+ m+ SBit rate mode : Constant
$ y4 Y6 ]' ~. o$ a8 GBit rate : 1 024 kb/s( x. B2 F+ y, {" x- x- U
Channel(s) : 8 channels
$ ]: X- q, E' g  m% [Channel layout : L R C LFE Ls Rs Lb Rb4 x' g& [+ B* C1 k4 x6 u
Sampling rate : 48.0 kHz- V7 o  w+ S+ {7 a! v" K% W! y$ F
Frame rate : 31.250 FPS (1536 SPF)9 t: x7 \2 |- w: I
Compression mode : Lossy
* X2 e. w( z) sStream size : 787 MiB (1%)
0 t( [- s  `: n7 h7 k" e6 ?Title : Raya.and.the.Last.Dragon.2021.1080p.BluRaycd.REMUX.AVC.DTS-HD.MA.TrueHD.7.1.Atmos-FGT
9 a2 _5 T+ ]& N$ _3 VLanguage : French
  Z, ]- Y2 `( j7 y! U+ iService kind : Complete Main
# X$ Q  K# E1 @/ DDefault : No
- m9 {# v2 o5 k2 |0 n# T: ]Forced : No. `. ?2 {9 _' L
) V" c# y6 m& s0 C$ ~4 O3 ?7 G1 z' `" @
Audio #6$ [% x0 Q1 \  x- {- T# y/ e. {
ID : 7/ Y7 }& |* ~/ y) O. A& z( O
ID in the original source medium : 4354 (0x1102)2 y% I; _% B! s/ g0 h
Format : AC-3
. a- U0 {, v/ J  I1 BFormat/Info : Audio Coding 3" F/ s8 z, G6 h7 k9 i6 h
Commercial name : Dolby Digital2 w4 F9 y9 J" ~8 g# Z
Codec ID : A_AC3
+ X+ a+ i7 f# G- y. g9 ?Duration : 1 h 47 min
$ {5 {3 a0 R+ p( EBit rate mode : Constant
, Q- u4 W  U; u- L/ d( ]& yBit rate : 576 kb/s
  s. w* z2 Z, g& ?2 ]- q1 U9 EChannel(s) : 6 channels% G! G) K! j0 F+ `( X
Channel layout : L R C LFE Ls Rs
3 _1 u# d& i" KSampling rate : 48.0 kHz9 Q& N! w1 L6 h/ x
Frame rate : 31.250 FPS (1536 SPF)/ u9 B. t  Z; h4 h+ c/ }
Compression mode : Lossy; y$ V0 ^$ Z6 V) A9 }# H
Stream size : 443 MiB (1%)
* h% Z8 m0 x; p. d2 `" |- _6 l* D. ]Title : Raya.and.the.Last.Dragon.2021.1080p.BluRaycd.REMUX.AVC.DTS-HD.MA.TrueHD.7.1.Atmos-FGT
* B7 r! R* k; @) }! [Language : French7 E/ u( }) ]2 `$ o- ]
Service kind : Complete Main4 O5 C( V+ h, G' b4 _: X8 b# s
Default : No
. Y0 p  t" G* ?, x, q; E% ~5 dForced : No3 k7 U9 x7 c; F
Original source medium : Blu-ray
$ f0 D# ^2 g# v. u* U7 `* O( n# w1 w& ^$ @0 u
Audio #7
9 ?+ y( R; W8 V: {ID : 8
% a7 G  m, C) z7 C! _7 r# bFormat : E-AC-3
$ f5 U/ C8 D3 ~! X2 }Format/Info : Enhanced AC-3
0 f. |8 F! H. _  T' y/ Y6 l5 z2 cCommercial name : Dolby Digital Plus4 [6 V2 B  @; r$ J. `" h) p$ L
Format profile : Blu-ray Disc# D7 f( H" T9 E& W1 O+ g( a
Codec ID : A_EAC3
0 C1 b0 G8 t! EDuration : 1 h 47 min
8 }3 S5 V" W5 M$ {' p1 yBit rate mode : Constant
- k/ V! I3 Y; Y0 @) \6 f$ LBit rate : 1 024 kb/s" d9 D' a8 W: P  p  r; ?
Channel(s) : 8 channels' j9 h7 \9 V1 a) O! _3 T9 S
Channel layout : L R C LFE Ls Rs Lb Rb' w0 h8 X2 ?5 V- P0 y; u' W# {" H
Sampling rate : 48.0 kHz
7 L% M% B( N, M; c- B' kFrame rate : 31.250 FPS (1536 SPF)1 O8 v1 o& _1 E1 u1 c9 K1 w. `
Compression mode : Lossy
! J/ W' O$ ?( I9 e8 m4 K9 v/ l0 qStream size : 787 MiB (1%)
; f" l' ], G9 |8 ~Title : Raya.and.the.Last.Dragon.2021.1080p.BluRaycd.REMUX.AVC.DTS-HD.MA.TrueHD.7.1.Atmos-FGT% O/ g+ U! t& p# G% o
Language : Spanish: G) g- a! M& V2 z4 F2 ?! K2 d) w
Service kind : Complete Main/ m* D. i) v% ?+ ?
Default : No3 ~, _6 [( T4 T* ~5 Z6 H% E8 o- O
Forced : No1 I9 m; G8 M; g! G
" z8 i, g. c2 V! {+ z( C4 o( q* y
Audio #8( |5 M- q- A0 N; q* F8 u8 P7 A1 T
ID : 9% m/ _/ Z, k; F  L# j" l
ID in the original source medium : 4355 (0x1103)
, r# F+ I; S% [% L% k$ G- WFormat : AC-3
" O, ?# k/ |, z% z: b- i: |, {/ y9 BFormat/Info : Audio Coding 3
( F) P% y& J" a0 W! bCommercial name : Dolby Digital' r, A( M* n  S) ^1 V
Codec ID : A_AC3
0 e) l9 ~6 t+ B+ P. LDuration : 1 h 47 min3 M: ~1 I3 {* K5 v, o" a! q* }7 A# Z
Bit rate mode : Constant% j% ^( `3 E: R, E+ Y/ Y0 m2 N; _
Bit rate : 576 kb/s
1 t: \# Q+ M& ]2 h: S9 L5 HChannel(s) : 6 channels
2 K* z. i$ G1 H  MChannel layout : L R C LFE Ls Rs: [- B" H" f. B% u8 W" M" o
Sampling rate : 48.0 kHz
; V( c# e( B: ^: W) }Frame rate : 31.250 FPS (1536 SPF)
' }* l9 A; }5 A% ]# S' W$ ICompression mode : Lossy- r) M0 m4 K5 @, B
Stream size : 443 MiB (1%)
- b/ v" ^. @: M1 YTitle : Raya.and.the.Last.Dragon.2021.1080p.BluRaycd.REMUX.AVC.DTS-HD.MA.TrueHD.7.1.Atmos-FGT4 H) F8 a( b5 a% j
Language : Spanish( D1 k. G  j0 h4 p8 w# j
Service kind : Complete Main  |$ I, L. v/ g# `' X, T
Default : No$ {( R. n6 p" C7 U- X$ D
Forced : No' e! l0 f' f# L+ a+ t" q' e; U
Original source medium : Blu-ray
( p/ X6 P  N7 [0 k$ G3 Q
6 s% H; C2 p( G, u9 I0 Y) I; `Audio #9& m& F1 Z% d; z6 n* g
ID : 10
! u  o) [( C- _( d5 W! i7 PFormat : E-AC-30 \8 B1 H( a% b! o$ s
Format/Info : Enhanced AC-3
: g* o( b5 ]+ j' }9 NCommercial name : Dolby Digital Plus
6 \, M* @4 Z" {* zFormat profile : Blu-ray Disc
8 ~1 J1 }6 W' c2 z8 ~4 _/ [& t. NCodec ID : A_EAC3- E7 b0 p1 ~9 d* C- m
Duration : 1 h 47 min
8 I* n4 L6 J! ~  f+ o* s6 sBit rate mode : Constant3 {% @: {6 ~. S' o
Bit rate : 1 024 kb/s
: H8 {! H: P) x! H$ W6 ]0 T" f% HChannel(s) : 8 channels: g8 q7 x8 N7 w0 T
Channel layout : L R C LFE Ls Rs Lb Rb, }/ a% e6 R2 x% E+ m
Sampling rate : 48.0 kHz
: y5 v7 L, Y" EFrame rate : 31.250 FPS (1536 SPF)
& A' M( I+ P4 v, LCompression mode : Lossy( i7 E6 q* Y: q( F; l
Stream size : 787 MiB (1%)9 J/ H' k' G5 K+ j
Title : Raya.and.the.Last.Dragon.2021.1080p.BluRaycd.REMUX.AVC.DTS-HD.MA.TrueHD.7.1.Atmos-FGT
" D- [9 o3 _9 W" D( x7 bLanguage : Japanese4 t" z- N4 k2 k- q
Service kind : Complete Main: h' r% E2 Q/ a, L; c: M
Default : No
3 K% J1 K+ ^( n& G  H$ r0 dForced : No: G! p9 D5 W, u. |9 O: U$ E3 q5 W. ^
* x% W; X4 r9 k! q0 o) C1 ]3 O
Audio #106 c# P0 t: w# \5 u& X* A
ID : 111 M7 ~1 ~/ X/ |# }8 F7 j
ID in the original source medium : 4356 (0x1104)+ l5 \0 o% k/ W# n
Format : AC-3# H  K) W7 E! a/ _
Format/Info : Audio Coding 3+ d8 P/ R4 U/ e- _
Commercial name : Dolby Digital( w6 H, f" U. g
Codec ID : A_AC3
0 q3 M1 r4 |& O( T$ w/ ~Duration : 1 h 47 min6 E3 h, g. a, E4 o4 q1 i7 U$ t
Bit rate mode : Constant; Y* J% S% R/ C" u
Bit rate : 576 kb/s
! _! `  f7 p4 c& kChannel(s) : 6 channels
, q- l, e' j/ u( F6 bChannel layout : L R C LFE Ls Rs! Z* n  M6 D7 z& n& u/ T
Sampling rate : 48.0 kHz
6 I* V$ j/ \. x+ Q) N' J9 uFrame rate : 31.250 FPS (1536 SPF)
; p5 _6 a8 W+ p6 ^; L3 t& H( u' zCompression mode : Lossy4 N1 E9 M7 R* D; a
Stream size : 443 MiB (1%)- G0 x/ c% Y3 l! ^0 [% j! B+ K
Title : Raya.and.the.Last.Dragon.2021.1080p.BluRaycd.REMUX.AVC.DTS-HD.MA.TrueHD.7.1.Atmos-FGT
$ g5 N; \6 f& h  qLanguage : Japanese' M, h# u- y) ]" Z! ]; Y" b" R
Service kind : Complete Main
/ `! X, e9 r" JDefault : No# ^" i% l! j6 q8 t0 W
Forced : No4 [- F5 {6 g( f+ b+ h0 v8 E
Original source medium : Blu-ray+ ^0 A: f/ x# U( L; y( |' M
7 K( [) P/ {% x& P# C
Text #1" E/ m$ ^1 p1 Y' C, G. Z
ID : 12
3 B9 ^! v4 w" A6 v9 ^( PFormat : UTF-8
# y6 i( ?, [6 r5 f2 c% A1 @Codec ID : S_TEXT/UTF8  n4 P  `0 B# N. R0 {% {7 L) S
Codec ID/Info : UTF-8 Plain Text
, D- U( \; b8 K, H+ z7 p, RDuration : 1 h 37 min
$ Q" E6 l' e4 L* bBit rate : 51 b/s' `/ Z# v7 q# @1 M: `
Count of elements : 1360
) e. |4 f. \. k6 `7 r% \9 k9 U$ CStream size : 37.1 KiB (0%)
* M; Y# I! j7 ]( a$ D/ v( k9 TTitle : English-SRT
# X: h* i/ x* fLanguage : English
1 ^8 q; ~& I3 Y& s& S- x. GDefault : Yes
5 m+ a6 A* ]' `2 c+ E. W; LForced : No% n6 I, l* K" r; ]4 u5 ?* g
; o7 G' _: A; a( M0 _# `+ a- L
Text #2
( ~- e2 r0 G# d0 G  r  wID : 13. D5 D* r9 r* h! c9 U  V
ID in the original source medium : 4768 (0x12A0)
5 p9 X4 Y7 Z8 i2 gFormat : PGS+ X, e7 u, c: e, z5 m0 ?
Muxing mode : zlib
! O7 Y5 v/ Q  F4 I( z2 W5 i  BCodec ID : S_HDMV/PGS
8 k+ t8 a8 ^' l, Y2 ^) ^Codec ID/Info : Picture based subtitle format used on BDs/HD-DVDs
. n7 p3 U/ e& G* G5 tDuration : 1 h 46 min! K' n  ~# R9 z+ o( q  f
Bit rate : 44.3 kb/s
! L; R* k/ Q, M& X% O. G3 S2 ~Count of elements : 3839
; I3 X1 P/ g$ |5 `) {: wStream size : 33.7 MiB (0%)
- k+ x8 f( q$ [" y& i  r; cTitle : English-PGS
) v) b# z8 n! n  r( L/ HLanguage : English8 _5 z6 T  z2 z2 a7 x! \
Default : No3 W8 z9 n1 p* g- d  V$ q0 K/ X+ L
Forced : No1 M9 v4 S& d6 k6 b
Original source medium : Blu-ray
+ h2 o4 n4 i0 [8 }8 ^- x7 Q: C% ]2 r2 @
Text #3% {, m- |) {; _) I3 X
ID : 14
8 {) C' I- b+ Q2 E$ Z, AID in the original source medium : 4769 (0x12A1)' B% `2 T+ J7 T  r5 q' z
Format : PGS
2 d+ X( H0 }7 f% t7 LMuxing mode : zlib$ {0 P* b+ R8 V$ l0 h" M
Codec ID : S_HDMV/PGS
$ f% V+ C* N1 p5 v  i& ECodec ID/Info : Picture based subtitle format used on BDs/HD-DVDs
8 A7 Q9 |7 v& e9 G# y, j' J; kDuration : 1 h 45 min% b! n2 r+ e" K) _7 W2 f! V
Bit rate : 26.7 kb/s
. J/ d7 u( P0 {* N: i8 R* cCount of elements : 23155 @- u" V8 g2 m& l" B( f# Q1 s
Stream size : 20.2 MiB (0%)
! l# X( r3 R& }) a$ \Title : French-PGS
  I3 [4 _4 i  r$ s$ \Language : French1 o3 u0 R0 ^! e+ Y, p. T
Default : No
' i: f/ j  n2 }* Q  |; P% t$ A- \Forced : No" `9 \' G+ [, H# T
Original source medium : Blu-ray, v; l6 Y# G& k1 X- E# k

& U8 u# [& y1 `& RText #4
5 ~: G% N( t8 n) ~* ~ID : 15
+ X% X* U+ C/ h: }' CID in the original source medium : 4770 (0x12A2)
! G8 u1 y% N  W; i$ V" xFormat : PGS( }, h# q' q) q0 k! j+ o
Muxing mode : zlib
3 B/ o- p* R& J5 d: z9 n" [" ?Codec ID : S_HDMV/PGS0 z$ v' ?# ?' k4 ]4 Q( X. o
Codec ID/Info : Picture based subtitle format used on BDs/HD-DVDs/ ]9 Y% ?! [& _' {" l. h
Duration : 1 h 45 min
) n, ~& A8 D, k! Q- {, V3 EBit rate : 28.5 kb/s
+ B+ l3 _, c* n9 I, qCount of elements : 2322
% R0 N: D5 O! r- V  @Stream size : 21.6 MiB (0%)6 B. @( M  i- B. f* A9 l) w, X
Title : Spanish-PGS' w2 I" N( }- y% t) U/ f, h& W2 V
Language : Spanish
: A( B6 Z+ N7 xDefault : No
8 Y; Y1 f3 x& N0 a- @. U7 GForced : No; B0 S) Y/ W/ j  Z6 s' A4 R9 B
Original source medium : Blu-ray  d+ d9 N% ~: s( g& J5 _$ h& n+ r

, H$ B! g' d. S. v0 B  bText #5& m! Q# |7 g1 ]: g0 c: l* ^" @
ID : 16
2 _1 _4 _' s% M! b0 D0 W" s8 hID in the original source medium : 4771 (0x12A3)
, M3 T, k! p- s4 GFormat : PGS
' f6 j8 h' x, fMuxing mode : zlib2 L0 }' u: R7 q" H( B
Codec ID : S_HDMV/PGS# J2 V9 T' ^8 n: y4 I( `3 v
Codec ID/Info : Picture based subtitle format used on BDs/HD-DVDs4 g8 A: ]5 A# C3 H
Duration : 1 h 45 min6 P6 ~8 d: N; g$ W
Bit rate : 22.6 kb/s5 _) l2 C6 R+ U5 g: u! {8 Z
Count of elements : 2208/ z9 G; m7 W* t9 M2 p; O
Stream size : 17.1 MiB (0%)
: a  E/ o4 s. k& H6 q, @4 S; `Title : Japanese-PGS
+ U9 d  b! P& @2 R) U7 m, MLanguage : Japanese3 D+ C7 [( E$ G% Q0 @6 {- O
Default : No
4 o1 S+ L, i/ Q% v/ Z' k! s" HForced : No& B$ c3 P3 y: n% @2 H
Original source medium : Blu-ray" X9 L2 a" {! i5 V+ l* e
1 n/ c3 P5 y( A5 b8 b9 T$ r
Text #68 L5 C' ?5 w* c  C
ID : 176 x0 r1 w5 f/ G. k3 [- z: G2 c9 x9 T
ID in the original source medium : 4772 (0x12A4)
9 [  `1 r+ \3 hFormat : PGS) Y- e* k0 n  g% |  u
Muxing mode : zlib: M+ n* K- n. C' q2 S) B7 B
Codec ID : S_HDMV/PGS
) l$ I: C  U% ^5 \! ZCodec ID/Info : Picture based subtitle format used on BDs/HD-DVDs- ]$ \$ t! e2 O9 u# W
Duration : 1 h 46 min% V; O9 b) W6 l3 @7 {5 e4 v$ b) x
Bit rate : 1 069 b/s
# t4 q& O7 D: n' jCount of elements : 88- O% ]1 |/ C! R7 p
Stream size : 837 KiB (0%), H' K) y+ |& l/ w: q! i; ~6 H
Title : French-FORCED-PGS( T: Z  f* ~  r" A/ c  x, ?& Y! g
Language : French: _7 ^: i2 x" |8 b& Z7 N
Default : No
: ?. F4 [( f* t9 IForced : No$ i' K; d& R) N- ^$ ^
Original source medium : Blu-ray
' W: Y( R0 F* v  F  O# E/ V
* O# H/ r4 h, C1 gText #7
' Y. n( u7 m* b0 z8 YID : 18  c% X4 s1 I; k- G/ g5 H
ID in the original source medium : 4773 (0x12A5)  @+ D7 d5 e1 F* q/ U& S: p
Format : PGS- E5 o4 S3 n4 W: y4 S  ]  K) w
Muxing mode : zlib
$ H& D* ?! ?* P" |: q  p1 mCodec ID : S_HDMV/PGS
9 ^* r# f' W9 u- x9 ]! RCodec ID/Info : Picture based subtitle format used on BDs/HD-DVDs9 \7 s! I: h; e5 {# s2 I
Duration : 1 h 46 min
0 Q7 q7 D: F3 ?( ABit rate : 1 198 b/s! E1 T/ u: ?+ e2 }
Count of elements : 1085 v  [3 D. ]( V1 M- [& D0 @5 `
Stream size : 938 KiB (0%)
9 w' y' ]! {2 [# gTitle : Japanese-FORCED-PGS
0 r6 [. e8 Z' Q9 wLanguage : Japanese4 C  w6 I! D0 D/ q) l% ^
Default : No* i; L6 b# o8 w" s' q. ~
Forced : No
9 }+ W* k  S3 u- F7 vOriginal source medium : Blu-ray2 M1 m1 I6 P- s- N' Y' A: f  r9 _

; L1 A+ u5 S) K9 @! v3 k- fMenu  v; Z5 H% s* D2 t" N5 E
00:00:00.000 : Chapter 01
4 D% z6 ?$ U1 G- Z00:08:08.696 : Chapter 02
7 x3 t5 {" I8 G- ~6 K5 L& F00:11:00.159 : Chapter 034 \7 f) T* P( A& ]1 k5 M- w
00:15:16.415 : Chapter 04
8 C( D) c7 m& v( W: j00:20:15.255 : Chapter 056 p  `, \" R" `
00:28:28.498 : Chapter 06" |# F; m4 x9 y7 i6 G- B" y7 L
00:35:56.904 : Chapter 07
* d3 X1 ?3 f5 k3 ^00:37:43.261 : Chapter 08( g' r$ K& W' i: S
00:41:12.595 : Chapter 09: Q2 ^/ D' E/ ~6 p' H9 X8 `& Q" q
00:43:19.388 : Chapter 10
0 z0 A4 D9 L" B9 O& w- O1 c00:48:56.224 : Chapter 113 s. L; c/ o9 a$ C9 X' X: S% O3 {
00:51:31.505 : Chapter 12
' T1 |- v7 M% ]2 t% A3 ]' i: |00:53:13.398 : Chapter 13
0 s7 n) T# o2 w, Y; C00:55:20.817 : Chapter 147 p& Y, t& u1 G
00:59:07.669 : Chapter 15
; }( z9 z/ ?$ |/ [! f01:01:57.213 : Chapter 16
; o6 j9 @: P& j5 ^9 r/ i, \6 x# i01:04:34.412 : Chapter 17+ Q% i3 Y7 M" @1 D2 T* e
01:06:47.211 : Chapter 18
: S# V( V$ B7 E7 Y5 F01:11:21.610 : Chapter 199 y# f$ ?" c/ B9 ^
01:15:50.921 : Chapter 207 c$ `$ ~8 ^) A; c" v
01:18:41.007 : Chapter 21
  |" O1 {( B' s7 L# ^; ~+ p8 v01:28:26.050 : Chapter 22* @- T! A0 P6 T4 o. Z( [# V
01:35:08.285 : Chapter 233 m2 V0 e1 P4 V/ {
4 J0 L7 ?  h# h7 R
Video: 1080p bluray Audio: 2160p UHD bluray
7 Z6 l% C8 B( e0 p
游客,查看本帖隐藏内容请回复 | 加入VIP贵宾可免积分免回复 了解详情 | 还不是会员:点击获取邀请码 Invitation Code

76

主题

2758

帖子

1万

积分

Sponsor

金币
1312 枚
体力
3839 点
lanpanshuma 发表于 2021-5-19 09:13:12 | 显示全部楼层
这么好的帖子不回对不起自己!
, k1 X) Q. i: mbluraycd forum, a lot of Blu-ray movies!
" b/ L( ^# E) L
该会员没有 ...

0

主题

437

帖子

1869

积分

Sponsor

金币
20 枚
体力
673 点
bais69 发表于 2021-5-19 12:05:20 | 显示全部楼层
谢谢楼主分享!

0

主题

27

帖子

175

积分

Sponsor

金币
78 枚
体力
39 点
sawas 发表于 2021-6-2 07:42:58 | 显示全部楼层
That's awesome

0

主题

15

帖子

190

积分

Sponsor

金币
127 枚
体力
33 点
myhxq 发表于 2021-6-4 19:19:56 | 显示全部楼层
谢谢楼主分享!

本版积分规则

小黑屋|Archiver|蓝光电影资源网

GMT+8, 2021-6-12 19:32

快速回复 返回顶部 返回列表