BluRayCD Forum

 找回密码
 立即注册【分享大片】
查看: 38|回复: 1
收起左侧

[2160P极清] 死于枪战/枪战之死 [4K高清版] Die in a Gunfight 2021 2160p WEB-DL x265 10bit SDR DTS-HD MA 5.1-SWTYBLZ 10.04GB

[复制链接]

6520

主题

6899

帖子

6万

积分

Post Share

金币
16015 枚
体力
12636 点

卓越贡献勋章

mvods 发表于 2021-7-17 20:52:49 | 显示全部楼层 |阅读模式
5 w& A0 o# o% a. j, j

+ b3 x' Z+ Y7 e0 d/ @  u◎译  名 死于枪战/枪战之死
! s$ {/ B$ y& ]4 ?8 |7 X: u◎片  名 Die in a Gunfight
3 p: G7 [: g$ z( R, R- w◎年  代 20215 T0 X; O, ^( o7 C" R' s7 X% Z2 c
◎产  地 美国4 c  M2 Y& c( ]& I' ?' e1 p9 f( h
◎类  别 喜剧/动作/爱情/犯罪
, O9 ]# S+ K8 e8 e5 p3 K◎语  言 英语
, g1 ?9 `" J' _- }+ E4 `! K◎上映日期 2021-07-01(俄罗斯)" k5 R/ c+ R) I  G' @7 f
◎IMDb评分  4.5/10 from 448 users2 G: Q8 D- l! p" A$ ^
◎IMDb链接  https://www.imdb.com/title/tt1697800/
* S5 \3 t5 j0 G2 ~0 `$ [◎豆瓣评分 4.2/10 from 135 users8 ~% Y; l9 {8 B  z8 S
◎豆瓣链接 https://movie.douban.com/subject/6872950/
# J" [, u0 @$ @! \8 a! {$ D" t) i◎片  长 1 h 32 min
# v4 d1 h- R0 {1 N5 s" ]" t◎导  演 科林·希夫利 Collin Schiffli
  T5 A! n4 f. _  n: S% A◎编  剧 安德鲁·贝伦 Andrew Barrer
, e6 O- e$ P  A  G. Y0 M/ C       加百利·法拉利 Gabriel Ferrari
5 R8 U, m0 c! c9 G2 L◎主  演 迪耶戈·博内塔 Diego Boneta
6 O$ _- @1 k  m" F       亚历珊德拉·达达里奥 Alexandra Daddario
2 @) ^' X7 S+ T* d7 O: ^$ ?( K       崔维斯·费米尔 Travis Fimmel
7 f5 t) t  `  e& k       贾斯汀·查特文 Justin Chatwin
+ K1 I( M' R: _5 G* U' J- w       比利·克鲁德普 Billy Crudup" \9 R4 O4 ~; U5 |; k. J3 f
       埃曼纽尔·施莱琪 Emmanuelle Chriqui
, C9 J7 o% Z: z$ c- r3 U       尼古拉·科雷亚·达姆得 Nicola Correia Damude
% _6 g6 e3 Y$ H& P' ^- l       约翰·拉尔斯顿 John Ralston
) P) i+ ?: _8 F- h+ B. K       米歇尔·诺尔顿 Michelle Nolden
+ O+ w+ {2 ~/ C4 C- a4 R( x       斯图尔特·休斯 Stuart Hughes& \( t, |  ?* |, A' R
       约翰·腾奇 John Tench
' o# x% e# Q2 v. s       蕾妮·威利特 Renée Willett5 a5 s# g( r3 j1 |# X) c! f  S2 w
       高莉莉 Lily Gao
( |1 M# p3 \; h3 s3 m, R       奥立薇娅·玛恩 Olivia Munn
8 d( D  v. G* C       海伦·亨特 Helen Hunt
- y! ~; {- q& [, E: r2 x5 ]! M       大卫·达斯马齐连 David Dastmalchian9 j/ f9 \$ D+ V6 E: @% M

7 Z9 H; @% @: `: j  c- \  u◎标  签 亚历珊德拉·达达里奥 | 美国 | 动作 | 爱情 | 剧情 | 2021 | 电影 | 美国电影* p# i; n' R: Q/ S: R8 {* Z" Z+ x; a
/ [# Q4 T& J$ D! R6 g) w( Y: W1 h8 `
◎简  介   
9 E7 {* c5 b1 B( Q; O, P* @% X  U: P
  一位年轻的纽约人爱上了他父亲的死对头的女儿,开启了一段罗密欧与朱丽叶式的禁忌罗曼史。: f& |! N3 [) x% A$ x( B7 d/ Q( d
( R2 a9 c7 d" f  y6 o8 ^
  A young New Yorker falls in love with the daughter of his father's nemesis, setting in motion a Romeo and Juliet-like forbidden romance.
& T$ v, ?" X/ K+ N, I
Video
2 @4 z4 ?7 q/ N9 h" d6 AID                                       : 1
+ ?9 r3 ]0 K( mFormat                                   : HEVC: g& T/ o  l) {+ {2 w' b$ X
Format/Info                              : High Efficiency Video Coding4 I1 ?& x" z# j% W
Format profile                           : Main [email protected]@High
7 X4 e# g/ H0 v& V2 G  i! v% fCodec ID                                 : V_MPEGH/ISO/HEVC5 n* N4 k& p! @7 |9 f5 i+ ^, {
Duration                                 : 1 h 32 min
, B( T* R) G7 ~4 c. N2 RBit rate                                 : 11.8 Mb/s6 |' P0 l) @* x: }
Width                                    : 3 828 pixels
2 L6 Z" x. W. ^9 s" \Height                                   : 1 592 pixels
8 ?, N0 D/ x# V( ~! M' nDisplay aspect ratio                     : 2.40:1
8 S/ s5 A( q4 R( C( NFrame rate mode                          : Constant
  Z% j( n  U9 L3 R) m+ lFrame rate                               : 23.976 (23976/1000/189150) FPS
' h. b2 \/ _' ]0 n1 xColor space                              : YUV' s7 t) V& g! v) i$ ~
Chroma subsampling                       : 4:2:05 v! _8 r) G8 k; H+ s
Bit depth                                : 10 bits% Z" G+ l4 t/ E, A' [7 `
Bits/(Pixel*Frame)                       : 0.081
5 A& g6 b* R+ J3 [; S$ bStream size                              : 7.63 GiB (76%)5 H7 z+ h$ U7 ?. m
Default                                  : Yes
. p) n  ~: a* AForced                                   : No
8 p% j) p! J; d' VColor range                              : Limited) {+ r9 H2 d9 w! o. G% S5 D9 ^
Color primaries                          : BT.709" y6 N: J, Q8 |7 Q6 L: w' y( C# D
Transfer characteristics                 : BT.709
5 Z# u  s; u( DMatrix coefficients                      : BT.709
& Z0 f4 s( q# h4 l, M
( n8 Y) e% Q7 l/ m3 i. o+ aAudio #1
5 R, ~5 I: q5 Y. i" I0 ZID                                       : 2
1 A/ D1 w0 E+ }3 Y! b5 r, h7 XFormat                                   : DTS XLL# _" c( a+ o- A9 ?* ~7 s, z
Format/Info                              : Digital Theater Systems8 m" l8 y. M' y! r6 y6 k& F
Commercial name                          : DTS-HD Master Audio: w5 G( G+ [) ~6 a
Codec ID                                 : A_DTS
1 N1 n, N$ `! _Duration                                 : 1 h 32 min1 b* w. \/ F& t+ J/ K& ^
Bit rate mode                            : Variable0 Q6 N1 i# U/ }7 g6 Y( C
Bit rate                                 : 3 310 kb/s0 E, {( ~7 S* z% |1 N9 p6 b; F
Channel(s)                               : 6 channels& n( H; B  _  @. A; r
Channel layout                           : C L R Ls Rs LFE
. m6 @4 u! |7 [! \) SSampling rate                            : 48.0 kHz
' ?+ x+ x4 a# Z  q& U0 E3 {Frame rate                               : 93.750 FPS (512 SPF)
; S/ B6 D7 e7 ?. a* K, q4 UBit depth                                : 24 bits% j0 n. g# q$ u/ \" P! t3 ?( F
Compression mode                         : Lossless, e+ T# T5 u* v
Stream size                              : 2.13 GiB (21%)
7 v5 `! o; m! t0 A( d$ oTitle                                    : DTS-HD MA 5.18 k9 p/ h7 A# x4 g
Language                                 : English$ w* P; c% U1 p/ ~  K/ l3 ~8 c5 u, c
Default                                  : Yes
% W' i: B$ l/ g0 D1 N2 tForced                                   : No0 H' `& O7 o6 W' Z

+ ?9 K( Z) ?/ U; l2 ^5 b# b% T8 vAudio #2
3 E- w9 J9 k+ {! ~+ W4 AID                                       : 3
7 `* [2 m0 S2 O1 E! C# GFormat                                   : AC-3: j) B, K( f+ q6 c2 {& r6 @! q
Format/Info                              : Audio Coding 3
6 T% t3 K% S1 CCommercial name                          : Dolby Digital7 h( c; a+ i- \% |
Codec ID                                 : A_AC3
7 {# H4 i: R% R+ c0 J- }1 L' ~Duration                                 : 1 h 32 min4 e) w* [; {+ {( c  m) R
Bit rate mode                            : Constant) ]: ]8 s4 K- a  `' \0 X9 I  g
Bit rate                                 : 384 kb/s
6 [8 N. F. u. `, FChannel(s)                               : 6 channels: d& ]2 Y) {: Q0 ^7 G7 O% F
Channel layout                           : L R C LFE Ls Rs# b. u& t  M+ s( T  c, Y
Sampling rate                            : 48.0 kHz) c, x# X9 H+ B/ d
Frame rate                               : 31.250 FPS (1536 SPF)
. r  l# `3 h) a" ~Compression mode                         : Lossy
$ S! y4 Q/ y& ~: x0 W* m" }9 vStream size                              : 253 MiB (2%)
. }" P2 D0 h& S# r; J" u) FTitle                                    : DD 5.1: l1 g6 D+ i, J, b
Language                                 : English3 }7 f( a' V2 C4 R8 G8 X
Service kind                             : Complete Main0 P2 j, g, }9 `
Default                                  : No
+ f+ ^* J2 ?& y" t( H/ Q& x# GForced                                   : No+ ]$ K  H5 ?7 d: T, I  b$ Q4 a( i

/ `4 s! U9 a6 c0 u. O6 \; Z) CText #1' K* e( _- S8 X! T0 q7 E9 C
ID                                       : 4
+ \' u5 a. n) ^- G& D" }8 PFormat                                   : UTF-8  Q9 ]4 r- h5 Z6 h
Codec ID                                 : S_TEXT/UTF8; M! t% W: k+ m8 _
Codec ID/Info                            : UTF-8 Plain Text
  @8 f# p- Q* i& ?4 i* s- Q  SDuration                                 : 1 h 28 min4 r& B3 e5 N, G3 U# O, [
Bit rate                                 : 56 b/s3 S9 V) i" R4 x
Count of elements                        : 1142
8 o% r( i0 L; C$ ZStream size                              : 36.6 KiB (0%)6 A" K: S8 D# Q
Title                                    : SRT9 k7 ~5 t4 G- g! h9 @6 H/ g
Language                                 : English7 X  j: ^5 ?0 c" W/ m9 M
Default                                  : Yes, X6 L( C0 W% A$ t* q$ p
Forced                                   : No
8 S' G6 C' Y) I# C* u. G8 @: L9 B9 ]" B/ i5 W2 m" `" x
Text #2
. P# O9 A! S. Z7 s$ F) p; r8 GID                                       : 5  H2 n. O, j& K/ i- j
Format                                   : PGS
1 [, \3 F  q$ s+ MMuxing mode                              : zlib
- D7 V8 `; n8 \3 h) ICodec ID                                 : S_HDMV/PGS' I9 j1 \8 A$ O* N8 @2 L6 m: ^
Codec ID/Info                            : Picture based subtitle format used on BDs/HD-DVDs
1 b, P6 M9 }  O1 \$ tDuration                                 : 1 h 28 min8 Q4 W! y( F7 `/ }, ]3 ?( r
Bit rate                                 : 39.3 kb/s3 o1 v9 d, O2 s7 C+ i5 r% R% Q) U% Y
Count of elements                        : 2550
; ^# L: K8 }( L& w7 d9 e1 T# \Stream size                              : 24.9 MiB (0%)9 J/ t/ N$ S" u
Language                                 : English  t2 C2 L8 P% P0 N6 i
Default                                  : No
8 ]' L% h/ f: _, [Forced                                   : No/ d# g+ A. r/ |& U! k

5 L, V8 U1 S; Z- {7 y$ E, P* O' KText #3
  T' F, ?. M& C0 M) c+ sID                                       : 6* R6 e/ r. A5 F6 E; @. _3 `
Format                                   : PGS5 M+ n) j5 u4 R
Muxing mode                              : zlib
1 z9 S# I9 q0 i1 u" x1 G- lCodec ID                                 : S_HDMV/PGS2 W1 p# A: j! n6 c
Codec ID/Info                            : Picture based subtitle format used on BDs/HD-DVDs
* `* e! B: F2 t: Z$ ^5 J. @Duration                                 : 1 h 31 min/ O7 B3 y7 N3 ]
Bit rate                                 : 33.0 kb/s4 x: h2 Y' f9 r( ~
Count of elements                        : 2144
, ?, }5 U9 g1 D& p. J8 ?$ ?# sStream size                              : 21.5 MiB (0%)
4 [+ s% x. ^- k2 F& LTitle                                    : Latin American6 y, C, `7 R" n" A) W6 [* k. n" s
Language                                 : Spanish
* U& r9 ~1 K% Y* w" N' ?2 m5 ^$ S/ g8 pDefault                                  : No/ K- x0 N8 J1 {' z
Forced                                   : No0 L% u6 o. Y) a3 s; C7 {- E2 |
7 y+ S: j: E* v5 |: V+ _
Menu5 c+ L0 I, ^8 _- M
00:00:00.000                             : Chapter 01" b+ y5 Q: `  e% z9 J% Z8 g  I
00:03:25.664                             : Chapter 02' [8 s' Q6 B0 X: P7 F, J# _
00:13:18.631                             : Chapter 03" j( c" |$ a2 V2 e7 R  u
00:16:12.638                             : Chapter 04
6 ^' h1 P0 P1 O5 ~: x9 N4 f00:24:09.281                             : Chapter 05* C# k# z0 r- f
00:28:33.170                             : Chapter 065 V) Q5 n; E3 e  e
00:35:19.993                             : Chapter 07! j9 t: D1 I( M6 G/ U  x
00:38:37.899                             : Chapter 08! l, o2 K5 U+ I. t" i3 l: p& U6 |
00:44:13.109                             : Chapter 09
- N9 n3 N# Y, @, ~6 N. _* v* Q, D00:47:35.186                             : Chapter 10
0 b- v4 t7 H/ Y: G9 a+ B2 @00:55:41.463                             : Chapter 11! g* H- H( S; D) ]& T
00:58:39.725                             : Chapter 12
% Y; q  G  E$ b# M) a01:02:52.477                             : Chapter 13
: K9 b2 g1 o( Y! Y01:08:55.798                             : Chapter 14
# W/ q- }3 ~# w7 p7 b7 |  r6 n01:13:28.362                             : Chapter 15
: D2 S( x* I: m7 n3 M' s; L/ h( E! T  C01:22:39.163                             : Chapter 16

8 B: u9 l$ J6 w4 J' k3 e6 r# o
游客,查看本帖隐藏内容请回复 | 加入VIP贵宾可免积分免回复 了解详情 | 还不是会员:点击获取邀请码 Invitation Code

0

主题

257

帖子

1024

积分

Sponsor

金币
38 枚
体力
466 点
sebarstean 发表于 2021-7-21 20:08:05 | 显示全部楼层
每天都来蓝光论坛看看,我爱蓝光电影。
: D% K( L1 ^" _* a+ |' M( ~The decisive Replies sink is I get the sinking feeling great sense of accomplishment!) P% g0 Y( B# n0 z/ ~1 T

本版积分规则

小黑屋|Archiver|蓝光电影资源网

GMT+8, 2021-9-20 04:26

快速回复 返回顶部 返回列表