BluRayCD Forum

 找回密码
 立即注册【分享大片】
查看: 15|回复: 0
收起左侧

[喜剧爱情] 死于枪战/枪战之死 Die in a Gunfight 2021 1080p BluRaycd x264 DTS-HD MA 5.1-MT 9.67GB & 8.88GB

[复制链接]

6520

主题

6899

帖子

6万

积分

Post Share

金币
16015 枚
体力
12636 点

卓越贡献勋章

mvods 发表于 2021-7-18 03:18:22 | 显示全部楼层 |阅读模式

4 J  r4 X, U# ^2 I% Z: L
+ p8 j, p- d3 L$ b◎译  名 死于枪战/枪战之死
4 U0 d/ @* A# F3 o4 u3 c) B◎片  名 Die in a Gunfight2 Q( z+ D5 x4 K% m: F+ ^# b7 b
◎年  代 2021
4 W/ X* k3 i, h. V2 e% a/ H# o◎产  地 美国
# d1 t' z8 _$ L& n5 e/ z0 G◎类  别 喜剧/动作/爱情/犯罪
0 P$ h9 T, O6 Y" F+ y◎语  言 英语) p% z% J) F8 ^
◎上映日期 2021-07-01(俄罗斯)
7 C/ [5 F, ?, }9 W◎IMDb评分  4.5/10 from 461 users
: e0 \/ n# T' V" j! i◎IMDb链接  https://www.imdb.com/title/tt1697800/
7 Q, j$ I9 ]2 V$ S7 N+ b; {◎豆瓣评分 4.1/10 from 148 users
; G; g/ B- ~% U. Q- z) _) l◎豆瓣链接 https://movie.douban.com/subject/6872950/" S" {0 c( k4 P5 o& w$ u2 A
◎片  长 1 h 32 min4 f% @4 ]" T! t- n- ^
◎导  演 科林·希夫利 Collin Schiffli+ b+ y9 f9 Z4 q
◎编  剧 安德鲁·贝伦 Andrew Barrer; C% C. d; Y7 d; F2 t4 I
       加百利·法拉利 Gabriel Ferrari" z4 r! ~2 P( o  |. Q% {4 [* e
◎主  演 迪耶戈·博内塔 Diego Boneta$ ?4 W- M2 x+ A7 H/ e: _2 t: y# q
       亚历珊德拉·达达里奥 Alexandra Daddario* J$ Q2 o1 Z" h; p" l# d- p
       崔维斯·费米尔 Travis Fimmel" I/ A5 P2 b4 q( t' ~& K& g5 P
       贾斯汀·查特文 Justin Chatwin7 q% c3 ^  R5 y: w& H" _
       比利·克鲁德普 Billy Crudup# k! @9 a0 _' T# }) _
       埃曼纽尔·施莱琪 Emmanuelle Chriqui
# N6 C# U5 _" |3 L  f$ r3 {       尼古拉·科雷亚·达姆得 Nicola Correia Damude
7 V* k  H6 x  B( }( H1 h5 W' c: J* y       约翰·拉尔斯顿 John Ralston
/ n0 {4 d4 @' f" e4 M( q       米歇尔·诺尔顿 Michelle Nolden
5 i$ P% N% `6 [5 x* h6 Y       斯图尔特·休斯 Stuart Hughes
. x- h0 u: }- U0 A       约翰·腾奇 John Tench
3 v( h4 p1 \  ]; L5 q; l. X# }+ v       蕾妮·威利特 Renée Willett0 [: p" u9 m( X( {' J: l
       高莉莉 Lily Gao
  o% g1 e$ D% P- S/ [' w       奥立薇娅·玛恩 Olivia Munn
- i6 k6 F) g* D0 m: l4 O5 p, }       海伦·亨特 Helen Hunt6 T5 b1 |2 m# w9 n' f" t
       大卫·达斯马齐连 David Dastmalchian
" Z, w) D6 @$ `. V. O8 ]/ i3 W
5 y$ B  z7 W' O4 a+ g! ]1 @◎标  签 亚历珊德拉·达达里奥 | 美国 | 动作 | 爱情 | 剧情 | 2021 | 电影 | 美国电影' a) ]$ d0 t7 @: X, k5 A( r
( R- k' o0 W3 r& x) u  u
◎简  介   ) n; |) k# |2 S
; `. R( u* p- ?5 H0 G
  一位年轻的纽约人爱上了他父亲的死对头的女儿,开启了一段罗密欧与朱丽叶式的禁忌罗曼史。% f1 q: Y, W$ [8 }

8 f$ o- }# |0 q. X' p7 u  A young New Yorker falls in love with the daughter of his father's nemesis, setting in motion a Romeo and Juliet-like forbidden romance.0 O/ E+ [+ b. L  |0 d- f
Video* d! z' A9 i* ]! G( v0 M8 x! e- z
ID                                       : 13 J3 Y0 w' _! w. a
Format                                   : AVC: Z. \- o0 P* M( L! p! T, U
Format/Info                              : Advanced Video Codec- J; n0 \8 r" S
Format profile                           : [email protected]9 K/ e* e; g; b5 c4 |' {; I6 G
Format settings                          : CABAC / 5 Ref Frames% F1 o. ?) N, L$ e% [
Format settings, CABAC                   : Yes
" [/ U" k( P6 `' [7 O  [Format settings, Reference frames        : 5 frames5 ?) ~9 Y/ k0 z2 \; u; f- ^
Codec ID                                 : V_MPEG4/ISO/AVC
  e3 B# k- K1 a; Z% v* [8 SDuration                                 : 1 h 32 min
" }: V" I  e0 d9 B1 r" MBit rate                                 : 11.7 Mb/s
3 G) T3 b  v5 i0 ^! {Width                                    : 1 920 pixels
+ N3 r8 ]$ H9 Q8 g+ u* NHeight                                   : 804 pixels  b- T% x2 ?/ _
Display aspect ratio                     : 2.40:1
2 c) @, \3 y  W6 [* oFrame rate mode                          : Constant- W/ G5 A5 [7 U; ]( B
Frame rate                               : 23.976 (24000/1001/189150) FPS
$ T- }) H; B0 LColor space                              : YUV# Z3 B" e/ R5 F/ v# E" W
Chroma subsampling                       : 4:2:0
6 |1 o7 r* P; H; t* T' GBit depth                                : 8 bits
4 A+ y( o; v& h8 n$ n# _1 Z: _9 t2 ^Scan type                                : Progressive, M0 u9 R: ~& {# t! ?, D2 B
Bits/(Pixel*Frame)                       : 0.3151 ~* z9 ?& A4 T; ^& V
Stream size                              : 7.52 GiB (89%)0 B# M4 n$ A) X" n2 X
Writing library                          : x264 core 157 r2938 2b00a84 [email protected] Mod% r4 [( A2 `$ [* Q
Encoding settings                        : cabac=1 / ref=5 / deblock=1:-3:-3 / analyse=0x3:0x133 / me=umh / subme=10 / psy=1 / psy_rd=1.05:0.00 / mixed_ref=1 / me_range=32 / chroma_me=1 / trellis=2 / 8x8dct=1 / cqm=0 / deadzone=21,11 / fast_pskip=0 / chroma_qp_offset=-2 / threads=12 / lookahead_threads=2 / sliced_threads=0 / nr=0 / decimate=0 / interlaced=0 / bluray_compat=0 / constrained_intra=0 / bframes=8 / b_pyramid=2 / b_adapt=2 / b_bias=0 / direct=3 / weightb=1 / open_gop=0 / weightp=2 / keyint=250 / keyint_min=24 / scenecut=40 / intra_refresh=0 / rc_lookahead=250 / rc=crf / mbtree=0 / crf=16.8 / qcomp=0.60 / qpmin=0 / qpmax=69 / qpstep=4 / vbv_maxrate=62500 / vbv_bufsize=78125 / crf_max=0.0 / nal_hrd=none / filler=0 / ip_ratio=1.30 / pb_ratio=1.20 / aq=3:0.809 B: x/ _% t& x* C  w
Language                                 : English
" h. t5 m+ ?6 }$ f6 j; MDefault                                  : Yes
! N* t+ k2 l3 @( {! [/ j! XForced                                   : No: `! V& m: n" N0 I4 }. F* R
Color range                              : Limited
' L9 X3 J' [# k, _( u  b2 xColor primaries                          : BT.709
7 P2 p, e0 }7 S3 I% ^+ X7 T, D6 c4 OMatrix coefficients                      : BT.709
/ ^, {! R4 n& o2 u# m
$ x+ @8 e5 Z. hAudio# `; S/ Q8 @3 {. @2 j9 Q. A
ID                                       : 2
4 R+ a3 g4 J2 L# H  DFormat                                   : DTS
" ]1 K; e( [: QFormat/Info                              : Digital Theater Systems3 m, i* k9 n( l
Codec ID                                 : A_DTS% H- z4 J! d7 F  p  h; G
Duration                                 : 1 h 32 min
: a* f5 A, a% n  U* X4 |' ?Bit rate mode                            : Constant
* f6 H1 K% v+ p# s. gBit rate                                 : 1 509 kb/s
6 a& z# }2 p* K3 gChannel(s)                               : 6 channels
, C# q5 [; ^/ c- u3 _1 S1 UChannel layout                           : C L R Ls Rs LFE
1 O& f6 e8 X2 m& KSampling rate                            : 48.0 kHz
5 j/ o9 d  Q- b1 Y: VFrame rate                               : 93.750 FPS (512 SPF)5 D& ~7 v) w0 O! K5 i# i
Bit depth                                : 24 bits
. |' I) [  g+ w) d3 [Compression mode                         : Lossy
1 b" F, Q' [0 ?2 v# _Stream size                              : 996 MiB (11%): _' A$ b: R  F5 g
Language                                 : English# m; w0 Q1 k1 k, s  r4 s" u1 d
Default                                  : Yes7 u& i* n- R+ Z) f
Forced                                   : No
: D; a* n2 n$ |- L7 p, Y! t
* ^. u# S1 _, {. _; _Text
! g. G: m/ E1 y/ w" D9 q  {; \ID                                       : 3( z& k3 ]+ G5 r  `+ \% U0 s: C
Format                                   : UTF-86 B* U# b5 V7 `' Q8 q; P
Codec ID                                 : S_TEXT/UTF8
- K5 H6 D3 s. |' ^+ z7 qCodec ID/Info                            : UTF-8 Plain Text9 f  Z0 w% c8 Q6 \
Duration                                 : 1 h 28 min
. [. K: S7 a7 F: @9 iBit rate                                 : 56 b/s
, _3 S, W7 v& b, I: j* W6 s1 O! aCount of elements                        : 11428 G6 a7 s  f+ S
Stream size                              : 36.6 KiB (0%)& B8 ^* Q9 |# D0 g# ]  Z
Title                                    : SRT; a4 c( m% H! k0 C/ Z4 o
Language                                 : English9 |# \# T2 E$ }, |5 T5 R
Default                                  : Yes
7 Z& p: N1 Y, eForced                                   : No' L! b6 h  {* ~+ [

5 E6 N, z$ a4 Q5 ]2 Z# X  M# dMenu
" R3 ]# F2 Q  H" B00:00:00.000                             : Chapter 01& e% E+ e0 O9 a
00:03:25.664                             : Chapter 021 s7 Q3 U: a% o. \- w
00:13:18.631                             : Chapter 035 C$ x3 b6 X8 R& ^: C: s! |& Q1 u/ Z
00:16:12.638                             : Chapter 04* _; U- ~3 A2 w# u
00:24:09.281                             : Chapter 05
7 E! s8 y5 ~* l- E00:28:33.170                             : Chapter 06
; u8 A/ b8 S8 `; Y00:35:19.993                             : Chapter 07! _- V: y9 o. `
00:38:37.899                             : Chapter 08# a* E& T7 \& I; B
00:44:13.109                             : Chapter 09
5 v( _" S9 c' Z4 a7 x00:47:35.186                             : Chapter 10
5 X+ f. I4 E4 |00:55:41.463                             : Chapter 11
! p8 [/ t3 _8 S- D( B. M# j  ]00:58:39.725                             : Chapter 12
  ^5 e0 ^# Q# f% A2 V) j4 n& |01:02:52.477                             : Chapter 13
6 K8 K# O: {4 C0 t9 X( ^' X' D01:08:55.798                             : Chapter 14
4 K; d$ f% H0 @4 l5 q" v% _01:13:28.362                             : Chapter 151 h" u/ m9 ~7 K2 E) M
01:22:39.163                             : Chapter 16
Video
: I# N' m3 ?: ?$ ]ID                                       : 1
! M, s8 n4 W+ w6 d* ?. z/ D4 FFormat                                   : AVC" x" \) o# p. `3 p/ [/ a
Format/Info                              : Advanced Video Codec7 q( d1 d+ S& I+ q3 R
Format profile                           : [email protected]
# y6 [& Z7 N, x! @  p- M$ p6 q9 J' s: nFormat settings                          : CABAC / 5 Ref Frames
! P# }: @+ x* s% q4 I0 mFormat settings, CABAC                   : Yes/ n, \, m) Q7 Q. S+ Y& i  b
Format settings, Reference frames        : 5 frames
1 _5 W. k6 @! @# B9 q- BCodec ID                                 : V_MPEG4/ISO/AVC, i- n1 G0 p! A  H% |# R: p# e- R
Duration                                 : 1 h 32 min
. K1 Y, [, i. }, ?9 K5 T. I* ^Bit rate                                 : 10.3 Mb/s, P2 T; [& b& Z3 V
Width                                    : 1 920 pixels+ n# l* d; K; y5 p3 A. J4 c8 _
Height                                   : 800 pixels* x6 J  E% y: G. b7 c
Display aspect ratio                     : 2.40:1
9 X3 o! d  R2 f7 A* g6 D, UFrame rate mode                          : Constant+ `, d' V* {' B, A% P/ }
Frame rate                               : 23.976 (24000/1001/189150) FPS; C# H4 u4 ^! J0 A
Color space                              : YUV
/ l/ c1 v0 J7 s( S4 Y7 VChroma subsampling                       : 4:2:0/ [6 g1 E4 o+ k; j4 ~/ N
Bit depth                                : 8 bits  N* p0 K% U! D
Scan type                                : Progressive
3 V" e1 Z; Q# H+ N  J& mBits/(Pixel*Frame)                       : 0.280
) n, a2 H! |0 g* BStream size                              : 6.66 GiB (75%)% p& C# {, A' e  [- f
Writing library                          : x264 core 164 r3065 ae03d92
) b. n  [+ P5 K7 JEncoding settings                        : cabac=1 / ref=5 / deblock=1:-3:-3 / analyse=0x3:0x133 / me=umh / subme=9 / psy=1 / psy_rd=1.00:0.00 / mixed_ref=1 / me_range=16 / chroma_me=1 / trellis=2 / 8x8dct=1 / cqm=0 / deadzone=21,11 / fast_pskip=1 / chroma_qp_offset=-2 / threads=25 / lookahead_threads=2 / sliced_threads=0 / nr=0 / decimate=1 / interlaced=0 / bluray_compat=0 / constrained_intra=0 / bframes=3 / b_pyramid=2 / b_adapt=2 / b_bias=0 / direct=3 / weightb=1 / open_gop=0 / weightp=2 / keyint=250 / keyint_min=23 / scenecut=40 / intra_refresh=0 / rc_lookahead=60 / rc=crf / mbtree=1 / crf=15.5 / qcomp=0.60 / qpmin=0 / qpmax=69 / qpstep=4 / ip_ratio=1.40 / aq=1:1.009 N# [  F' X8 C& O* {" V
Default                                  : Yes7 G( b; |7 Q8 ~1 v% B
Forced                                   : No
- ?; ]0 g! N* S# X7 `( j6 X3 c
5 R7 ^/ B3 e2 ]: B0 b2 `Audio #1
) Y! _* x2 q: OID                                       : 2
' a' Q( E" Z6 s7 _: H0 dFormat                                   : DTS XLL
& Z' P* s1 ]- _3 WFormat/Info                              : Digital Theater Systems6 e* h6 l% A! }/ e& t3 {
Commercial name                          : DTS-HD Master Audio
# p  j7 @1 D' FCodec ID                                 : A_DTS- g3 j( T) `9 H. a% r5 Q5 m
Duration                                 : 1 h 32 min
9 _' U  ?; m, t4 l/ c4 J* O& DBit rate mode                            : Variable
* Q4 N) }' g- m+ a1 WBit rate                                 : 3 310 kb/s: S( `) t2 O3 ?8 p9 A% u
Channel(s)                               : 6 channels1 ~8 o; n" l7 i1 h# R4 ]6 b
Channel layout                           : C L R Ls Rs LFE
) g% B/ d  T) V- z1 ESampling rate                            : 48.0 kHz( T6 X9 c5 C* i
Frame rate                               : 93.750 FPS (512 SPF)
* g( ]4 V. X7 ]Bit depth                                : 24 bits4 N) ]% M$ w3 G* R
Compression mode                         : Lossless
! {1 F1 E0 h- k2 D* a" BStream size                              : 2.13 GiB (24%)3 T& D1 \& R# W) R
Language                                 : English- N, q: \9 u$ e& H0 C0 [& b8 e/ Z
Default                                  : Yes" T+ o+ F$ m0 U3 p( V
Forced                                   : No
1 w& M: A' y! Y5 R& w# m! M( }  p( i- ~$ B+ i. w$ h; ~- c
Audio #29 W' C/ x3 X0 N" ^8 Q
ID                                       : 3
. ^- w6 D5 f. h- ~7 \( ?2 `Format                                   : AAC LC
4 `5 x& S4 \# A' P9 t$ @3 ~+ nFormat/Info                              : Advanced Audio Codec Low Complexity  `, J0 @9 Q2 j3 X
Codec ID                                 : A_AAC-2# A9 \% P6 T7 R" L
Duration                                 : 1 h 32 min
+ A& t- y# S6 ]- S+ V$ VBit rate                                 : 101 kb/s
0 A- u' U* L  q2 NChannel(s)                               : 2 channels
7 W( J- o' b, Q9 W$ {Channel layout                           : L R& V* N/ Q- ^+ y9 ^- Q9 I
Sampling rate                            : 48.0 kHz
3 y+ {4 B5 x1 q! iFrame rate                               : 46.875 FPS (1024 SPF)
. o. z% J6 S& yCompression mode                         : Lossy
9 O8 S4 U( a$ oDelay relative to video                  : 9 ms
) V( z1 ]  ?( I6 Y/ E9 O- oStream size                              : 66.8 MiB (1%)* z5 k" _* z' w! T* ~* K
Title                                    : Commentary
# a! m* t; @7 U/ \1 z+ z$ @5 Q' G' {Language                                 : English1 z7 J1 p! G/ V! i! J# t
Default                                  : No
0 p- T, o. B3 F$ t9 iForced                                   : No
% m2 D% O/ s4 g6 V4 q+ Z4 }6 ^0 m6 e8 ?, J& |
Text #1
* g  H- f2 N2 pID                                       : 4" v$ W3 T& j4 w5 m7 \8 r  x
Format                                   : PGS, P/ K: N9 a) {
Muxing mode                              : zlib
7 E3 W( Z  |  M; WCodec ID                                 : S_HDMV/PGS
3 H* E  c6 F- mCodec ID/Info                            : Picture based subtitle format used on BDs/HD-DVDs1 Q) a( D' d5 L+ k" m
Duration                                 : 1 h 28 min
" C$ j8 R$ J. H4 m  ^! ?( dBit rate                                 : 39.4 kb/s0 B' G! ?+ w1 H
Count of elements                        : 2558
6 {- K1 M! l  `: t; f+ E+ s& eStream size                              : 25.0 MiB (0%)
) l3 u7 ~/ H' I6 g2 t/ {, w0 w1 ^Title                                    : English SDH
$ R+ V( c. V8 J5 A2 ELanguage                                 : English/ ?& P* I- q! _7 E
Default                                  : No  n( v+ S; @  M. D, W, u5 R% F
Forced                                   : No
% e% Q) J, y$ y9 n( I  g# t8 w" J: ~/ O& J0 A6 x! H9 N" P
Text #2
. u! J- U4 C- c8 m* y/ R& oID                                       : 5
8 n/ i/ E7 N0 j5 U5 U- lFormat                                   : PGS) V4 \0 N7 H3 e9 d# o7 b* t
Muxing mode                              : zlib
! D- f9 x% P9 NCodec ID                                 : S_HDMV/PGS) n- L1 r; t0 M
Codec ID/Info                            : Picture based subtitle format used on BDs/HD-DVDs$ i- d# x2 J* g! D
Duration                                 : 1 h 31 min4 L; _" Q5 ~+ d1 r
Bit rate                                 : 33.0 kb/s
+ Q3 Z! K5 r' s$ ~Count of elements                        : 2144
. R5 x+ l2 l+ D4 zStream size                              : 21.5 MiB (0%)) T, L1 K% y- u6 b% e( y
Title                                    : Spanish+ G; z; q% O; |  v6 z4 [+ B
Language                                 : Spanish. t* ]9 ?3 d  M0 I$ N
Default                                  : No% i) l  }0 K/ R3 U
Forced                                   : No
4 b% m7 y. a7 U# S( y5 M
8 k+ Y; u. d% x: GMenu* X: n0 }+ w8 s: x
00:00:00.000                             : Chapter 01
2 T/ |2 ^. ^9 V, |2 k00:03:25.664                             : Chapter 02
% K6 ]. W0 W; @$ C9 u8 f00:13:18.631                             : Chapter 034 P1 @: H* ~) ?7 `
00:16:12.638                             : Chapter 04' q: j4 M  w+ q
00:24:09.281                             : Chapter 05: t- G  ^2 T2 c) ^4 |$ x  S8 ~
00:28:33.170                             : Chapter 06
5 H4 a$ g" j( B00:35:19.993                             : Chapter 070 [5 |. j8 J  v0 Y& T$ V4 Z4 k8 o
00:38:37.899                             : Chapter 08
: b7 n, `+ g# z- N# u& ~  L00:44:13.109                             : Chapter 09* [9 x/ a- ^2 W, x/ K9 E
00:47:35.186                             : Chapter 10
$ m4 p- k2 W1 M' S00:55:41.463                             : Chapter 11
9 G" I5 m+ [6 u9 V3 v+ t00:58:39.725                             : Chapter 12
* m$ W% B4 i, s0 e6 `01:02:52.477                             : Chapter 13
1 o$ E6 ~* S( b! U( F01:08:55.798                             : Chapter 14
; C/ |1 i+ x4 E5 v01:13:28.362                             : Chapter 15
. [/ t% \7 w; ]01:22:39.163                             : Chapter 16$ [2 o3 D7 I0 y. }, j; V
01:32:16.322                             : Chapter 17& B- u4 W" R; H% h3 T6 `: p

' {, ^- c; H# a2 i0 |/ Y2 X: ]- L7 QName: Die.in.a.Gunfight.2021.PROPER.1080p.BluRayCD.x264-PiGNUS
9 M/ R/ m( U1 v8 T8 y0 x% ~& c% f" a, ~$ |. _5 O
Release date: 22-07-2021
% B# a3 D/ E$ b3 `2 C4 m" X" g, T% ?/ G
IMDB link: https://www.imdb.com/title/tt1697800
/ N, A6 U: O( S( o! Z1 j; H5 c: @, `& u+ h2 @- @
Resolution: 1920x8007 T( n" L) V$ M5 r' o
Audio: English DTS-HD Master 6ch 3310 kbps8 H3 Q! Y  A5 V" P4 P. W( K
: English AAC 2ch Commentary
+ d( I- Y0 E' y# DVideo: 10327 kbps, CRF 15.56 z$ ]/ c: o; D" t) D
Source: 36116 kbps* t# z  z2 s3 o1 w5 p

' V% z# ~' K( a: _* RSubtitles: English SDH, Spanish4 e' T, c0 V# p; m) A$ o
5 t3 U( v; X2 y" a' u0 Y; T) @
Notes:9 P8 D1 d4 K1 l; q2 J2 K

9 A$ t, m' ]1 uProper reason. The WoAT release goes more and more out of sync throughout.9 ]" k4 H" x! B% v; h4 v
At the end it is close to 6 seconds out of sync.

3 s' _8 L  g1 S# |. n! V5 [' t
游客,查看本帖隐藏内容请回复 | 加入VIP贵宾可免积分免回复 了解详情 | 还不是会员:点击获取邀请码 Invitation Code

本版积分规则

小黑屋|Archiver|蓝光电影资源网

GMT+8, 2021-9-20 04:50

快速回复 返回顶部 返回列表