BluRayCD Forum

 找回密码
 立即注册【分享大片】
查看: 39|回复: 3
收起左侧

[蓝光原盘] 死于枪战/枪战之死 [REMUX无损版] Die in a Gunfight 2021 1080p BluRaycd REMUX AVC DTS-HD MA 5.1-FGT 24.82GB

[复制链接]

8213

主题

8407

帖子

6万

积分

Forum Moderator

金币
11998 枚
体力
10677 点

卓越贡献勋章

24小时 发表于 2021-7-22 07:08:11 | 显示全部楼层 |阅读模式
In New York City, a young guy falls for the daughter of his father's nemesis.
5 ]9 r1 U& F# S5 ^+ R. o2 J* K2 _! w* w6 T  e6 K3 _
( d& r% d$ @6 o/ s9 T

1 Z2 B# s1 @- m& |◎译  名 死于枪战/枪战之死  e  W$ g! C/ [* n4 ^8 T) G  y
◎片  名 Die in a Gunfight2 A- P" d1 u- f' k% J5 y
◎年  代 2021
$ K2 {# v7 Y' N* X# p◎产  地 美国  V& V, g( Y$ j: O/ x7 S
◎类  别 喜剧/动作/爱情/犯罪; w/ k; |. K( l- C2 r# o' Q  ?
◎语  言 英语
- L% x2 s. ?. [6 o4 X& v8 n% B◎上映日期 2021-07-01(俄罗斯)
& _& }+ }( a  l& X& `# }◎IMDb评分  4.4/10 from 638 users
! x! _! m, W  a; w5 A; L+ D- [◎IMDb链接  https://www.imdb.com/title/tt1697800/
: k( w, J( _" x2 R◎豆瓣评分 4.2/10 from 195 users% D" x: _, @# Y: @* y: O( t
◎豆瓣链接 https://movie.douban.com/subject/6872950/0 Z: u4 p- v9 o2 ~) A1 F0 \
◎文件格式 x264 + DTS
" z/ Q7 V; `- q/ B5 u* _4 _, p◎视频尺寸 1920 x 1080
: `1 G& b; Y& U; d7 U◎文件大小 1DVD 24.82 GiB
( A+ G# Q- V2 T! Q) T◎片  长 1 h 32 min
% x+ d" R& b% @' g# n+ o: y) ]( `◎导  演 科林·希夫利 Collin Schiffli2 v8 \5 _# O( J8 L% I
◎编  剧 安德鲁·贝伦 Andrew Barrer8 x0 `) N" u1 |7 n9 w& |$ h
       加百利·法拉利 Gabriel Ferrari7 u. V' m: m' Q0 M$ g/ M
◎主  演 迪耶戈·博内塔 Diego Boneta. t) N, m; ~) w6 P- Z; p7 x
       亚历珊德拉·达达里奥 Alexandra Daddario
- h$ e6 [. @+ ^  {( F       崔维斯·费米尔 Travis Fimmel
) U$ j% ]% x7 ]       贾斯汀·查特文 Justin Chatwin: {6 t; K; T. E& L$ o( K/ f
       比利·克鲁德普 Billy Crudup# f* i' [  Z- v) ^6 z$ K4 E
       埃曼纽尔·施莱琪 Emmanuelle Chriqui# X: _2 ]2 A. D4 M
       尼古拉·科雷亚·达姆得 Nicola Correia Damude; |. i  P" _0 K2 D# f3 l  h
       约翰·拉尔斯顿 John Ralston
/ S2 ^: p8 O+ i$ l" [       米歇尔·诺尔顿 Michelle Nolden# a7 L( N- t& h6 S7 i
       斯图尔特·休斯 Stuart Hughes, B6 Q* Q" _' D/ @( ^2 M
       约翰·腾奇 John Tench8 j6 N/ m2 J; R% H9 \- l
       蕾妮·威利特 Renée Willett
' F' Q8 E& X1 {7 w. D* V       高莉莉 Lily Gao
* R7 S+ T! J3 ~' k) Q# M+ P       奥立薇娅·玛恩 Olivia Munn
2 x! w5 V) k8 |. D2 `       海伦·亨特 Helen Hunt1 l1 R, E5 X8 @" ]( v- R
       大卫·达斯马齐连 David Dastmalchian
( V3 _/ ~+ _: l, ~# A& m# Z3 ?% i5 D, e' H/ `
◎标  签 亚历珊德拉·达达里奥 | 美国 | 动作 | 爱情 | 剧情 | 2021 | 电影 | 美国电影
; K9 Q) V3 C5 f/ \+ K
, |# ~, U4 l6 L◎简  介   6 @) f6 n! j. ^' a
6 J8 a; {% J1 c2 q8 L7 Y; G( v+ c
  一位年轻的纽约人爱上了他父亲的死对头的女儿,开启了一段罗密欧与朱丽叶式的禁忌罗曼史。" M  ]* {; b' s. o9 _
& K7 Y* [  L4 N& M# k: j
  A young New Yorker falls in love with the daughter of his father's nemesis, setting in motion a Romeo and Juliet-like forbidden romance.7 K: Q2 }2 D! K' i; p7 Y# A" v

/ C' C# Z9 S3 G9 I2 g
Video
# w. K( ?7 a4 D- P" DID                                       : 1% l# v% o6 a$ r( a0 g
ID in the original source medium         : 4113 (0x1011)3 b* y1 D; G# X+ b
Format                                   : AVC
& u. Z- R. R: U0 j; @Format/Info                              : Advanced Video Codec3 h: J6 f* J/ h5 t# z5 d
Format profile                           : [email protected]
1 O( F) x/ _1 _  ^- uFormat settings                          : CABAC / 4 Ref Frames
# g3 A% U0 C. S7 O5 [6 k8 lFormat settings, CABAC                   : Yes
6 k' g6 P) ?; r; a; xFormat settings, Reference frames        : 4 frames1 C" B% l# ?0 ~
Codec ID                                 : V_MPEG4/ISO/AVC
0 m: f& M3 B3 c9 p7 d6 p5 U, x: WDuration                                 : 1 h 32 min
! P6 B% x! B( G4 B  b* P  Z3 u' gBit rate mode                            : Variable; [! v% B: L, i  J! _: L
Bit rate                                 : 35.0 Mb/s0 J; k) t: C7 m* H. m7 h% Y
Maximum bit rate                         : 37.0 Mb/s7 X! F$ z7 Z) \6 `7 y% O) _& L
Width                                    : 1 920 pixels" \" K; j& i+ F! L" I
Height                                   : 1 080 pixels- }3 k" B  q( o
Display aspect ratio                     : 16:9  M" J# I# z6 A0 w  v3 j
Frame rate mode                          : Constant
1 Y. \. L' `- G3 J' K5 FFrame rate                               : 23.976 (24000/1001/189150) FPS6 j' n* {& A+ W) J
Color space                              : YUV& O; E! n0 f- m1 V' s
Chroma subsampling                       : 4:2:0
' _" \- G5 y& }Bit depth                                : 8 bits
) R7 D( c4 b: U. WScan type                                : Progressive
1 v# w0 ~8 E# Q2 I: W+ K! ?" ~Bits/(Pixel*Frame)                       : 0.703# v; t" b+ @$ }8 b0 P& C
Stream size                              : 22.5 GiB (91%)
* K3 w, y/ y: iTitle                                    : Die.in.a.Gunfight.2021.1080p.BluRayCD.REMUX.AVC.DTS-HD.MA.5.1-FGT4 G7 s: t1 E$ H5 E" B% s! C* V; }
Language                                 : English
+ v9 a6 F! \, Z( j9 C9 M) F6 cDefault                                  : No; ~$ M* _+ u* f/ t
Forced                                   : No# d1 h" c) b, E5 A8 ]0 b2 k# ~% f2 h
Original source medium                   : Blu-ray
  s! m# Q/ ~( ~) v# L# s& V) V3 j9 K7 G
Audio #1
3 Q- K4 u. @( Q& V# o" O8 K9 BID                                       : 2/ t  r- G4 I8 A+ `( i
ID in the original source medium         : 4352 (0x1100)
6 E7 }5 p& \/ _4 ~  z" CFormat                                   : DTS XLL
+ N# @8 ?. k0 vFormat/Info                              : Digital Theater Systems2 n9 z% o8 ?! }9 }8 a8 s5 z8 q7 X3 r
Commercial name                          : DTS-HD Master Audio: B4 Y1 E/ L: y" h$ S9 R+ n; O
Codec ID                                 : A_DTS, W0 @8 t% E4 ]; T* y8 C7 N7 m
Duration                                 : 1 h 32 min
% f, I5 e5 `+ q0 F! X1 ^Bit rate mode                            : Variable
0 {% j7 U# E  @, Q& O/ k- {2 |Bit rate                                 : 3 310 kb/s
3 n+ ]" C4 ~. `2 F: Q- r+ x% P7 eChannel(s)                               : 6 channels( S! S4 h" V  z; A3 ?' F. t. r/ N
Channel layout                           : C L R Ls Rs LFE1 x7 o9 r6 L8 Y$ V4 ~* |) T7 ]
Sampling rate                            : 48.0 kHz
( H* q+ o5 G" E; Z; t0 l. NFrame rate                               : 93.750 FPS (512 SPF)6 o. F+ Y0 p4 N6 u8 d; {% M
Bit depth                                : 24 bits
, R- p; Q& b  e( ]9 SCompression mode                         : Lossless' U) |+ B; M( B# t7 S7 [) @
Stream size                              : 2.13 GiB (9%)
; N0 y6 Y! [" b0 \2 T# x8 FTitle                                    : Die.in.a.Gunfight.2021.1080p.BluRaycd.REMUX.AVC.DTS-HD.MA.5.1-FGT
- J( l' k' x8 z4 [! s: N3 vLanguage                                 : English
- |( z$ Y: B0 M4 I) e: JDefault                                  : Yes
. s" x5 n, w7 ?3 y1 nForced                                   : No  `# v0 k3 x1 e7 j
Original source medium                   : Blu-ray
+ u4 R# d! Z1 C. T7 v4 }8 |- k9 `, {- X# ]( ?: q
Audio #2
' h8 k; ~9 W8 a5 |ID                                       : 3
# R2 g+ u! M5 W/ w% XID in the original source medium         : 4353 (0x1101)
+ v2 w: I& H: XFormat                                   : AC-3
" r; C) G. ?* ?Format/Info                              : Audio Coding 3( f, o* R) T( v( Z/ ]
Commercial name                          : Dolby Digital# g* @; o3 I" z5 r) p, ~. N
Codec ID                                 : A_AC3
3 o& \* \2 ^) q& i. L7 ~8 ?/ QDuration                                 : 1 h 32 min
1 m) A* l3 D* ?. E8 g3 R+ {$ bBit rate mode                            : Constant
$ K; e* v8 ^% A0 v& t  ^Bit rate                                 : 192 kb/s
  W8 |; ]! T3 ~, B2 G, T2 \3 J4 iChannel(s)                               : 2 channels" ]" m5 S; C$ E& T
Channel layout                           : L R
9 C3 R. y, E" v, M0 rSampling rate                            : 48.0 kHz
* T+ j) p( h/ Q3 h0 y0 bFrame rate                               : 31.250 FPS (1536 SPF)
! W% f1 ~3 b6 e3 ^; UCompression mode                         : Lossy
: n4 x' Z" y" h- J& {5 f5 {Stream size                              : 127 MiB (0%)
3 O9 R& b; ~, jTitle                                    : Die.in.a.Gunfight.2021.1080p.BluRaycd.REMUX.AVC.DTS-HD.MA.5.1-FGT
) v9 h1 U7 q, P6 D- U3 V* ULanguage                                 : English
' h$ H, O9 j& q. GService kind                             : Complete Main) V7 l! Z- F$ B. D
Default                                  : No
" Z7 X6 R, o2 ?$ uForced                                   : No
; S" }: |1 H2 }1 [Original source medium                   : Blu-ray6 h& ?4 s4 P2 N9 U
* I; p" ^7 d5 T+ Q7 h4 P4 [: i/ S; V
Text #1
* W. L9 `$ j/ w  QID                                       : 4
3 w% k% z: ]3 j7 E8 W% _* z  }6 uFormat                                   : UTF-8: j" G" _  c$ M- S0 ]# b
Codec ID                                 : S_TEXT/UTF8
3 d0 ]5 D- D) TCodec ID/Info                            : UTF-8 Plain Text: |, |& B" o3 B6 h5 A
Duration                                 : 1 h 28 min- z# q7 e: P1 |5 i/ a& V
Bit rate                                 : 56 b/s
$ w; X( w8 `+ o1 E  S5 yCount of elements                        : 1142# V% {+ o5 q! R# y5 b
Stream size                              : 36.6 KiB (0%)+ [3 U0 z5 I# j
Title                                    : SRT/ S1 {0 n% @; F, q; P
Language                                 : English  z) w3 b" L4 O" {' ~, O8 _
Default                                  : Yes
; `: o4 [. _/ I, L  e4 m6 hForced                                   : No4 P! R' ^  U( A) b8 k
; a' t, y7 ^) u. T
Text #2
' P2 @" i: S) ~$ w7 r, E' AID                                       : 5: M6 C, x7 {) P
ID in the original source medium         : 4608 (0x1200)" o% o& [4 S! v
Format                                   : PGS
( ^' s; o1 m/ p" `$ w& l* ]- mMuxing mode                              : zlib
8 u" G+ I0 L  `' DCodec ID                                 : S_HDMV/PGS2 @( {% A0 r& g2 V7 U$ q
Codec ID/Info                            : Picture based subtitle format used on BDs/HD-DVDs6 Z% [  z7 \+ P  E% |, K/ c* w9 `
Duration                                 : 1 h 28 min  w9 I' C3 T3 H1 q  H4 \
Bit rate                                 : 39.4 kb/s% f2 D; V! m% x* o3 L
Count of elements                        : 2558
0 ^* m; s0 a5 |( ^6 ]1 RStream size                              : 25.0 MiB (0%)
' G5 F" |& f6 WLanguage                                 : English
& C+ }9 Z# e6 `2 P/ _Default                                  : No* |  w- _1 b0 h- U8 e& f
Forced                                   : No
: f, \' n5 Z1 O* b9 EOriginal source medium                   : Blu-ray0 v) \: n. w' z: B6 B

2 g0 q* d7 `3 EText #3
7 J/ W; x, a* M9 `) i, T5 kID                                       : 69 E8 b/ k) e& e$ L
ID in the original source medium         : 4609 (0x1201)" A4 |7 h% r! w# ?. v* T; r9 M7 t; N9 n
Format                                   : PGS) y) g) v& `, U2 E2 l' k- H! k2 P
Muxing mode                              : zlib
$ y/ Y. R3 e2 t; B7 q4 PCodec ID                                 : S_HDMV/PGS
$ {4 D/ j% K0 XCodec ID/Info                            : Picture based subtitle format used on BDs/HD-DVDs: N! B! ^' H) h3 C
Duration                                 : 1 h 31 min
: W0 s& d& r& j1 \8 c& m- j- ABit rate                                 : 33.0 kb/s# L; H4 a$ e8 K) Y
Count of elements                        : 2144; T4 X7 q4 v+ |7 ~0 U4 ~
Stream size                              : 21.5 MiB (0%)
% q+ F/ N3 Q- H! e; @Language                                 : Spanish
7 H2 \! @9 D3 fDefault                                  : No
( Z! K+ H, R5 R' n$ ~Forced                                   : No
  o. ]  M, L4 IOriginal source medium                   : Blu-ray2 n1 S' w5 a0 v

) x0 V8 A6 S; `2 u' k* a% }Menu
- l' _8 j/ o. j3 n$ e! W00:00:00.000                             : Chapter 01+ e( O( V: e3 a. o
00:03:25.663                             : Chapter 020 d3 {* J7 j8 X7 `( s! `2 t! [
00:13:18.631                             : Chapter 03
0 w% z$ K) o# ~/ f4 ?- ~- B00:16:12.638                             : Chapter 04
2 C( a7 j4 }+ u+ K9 @* b! S2 ]8 V: O00:24:09.281                             : Chapter 05
  h7 R, V4 z+ G, H8 N8 [00:28:33.169                             : Chapter 06) k" D( L6 Y: q' t
00:35:19.992                             : Chapter 07
% N6 l, J: o+ O' R/ D' A) y1 q00:38:37.898                             : Chapter 08- z/ N; K7 z( w0 a6 X! {8 _
00:44:13.108                             : Chapter 09
+ K# K  V( {6 S( K00:47:35.185                             : Chapter 10& X2 s0 E4 |. i! p% f) Z/ h
00:55:41.463                             : Chapter 11, ^0 v! |( q1 T  s. f: i# m
00:58:39.724                             : Chapter 12! o$ z  N' [! s; v& j
01:02:52.477                             : Chapter 13
+ n7 g. t. ^  y" {4 _/ G- [01:08:55.798                             : Chapter 14
% d5 s4 f' R0 }/ ?, F/ x* }01:13:28.362                             : Chapter 15
; v5 N8 O) t& |. G$ `; d2 g- I  C01:22:39.162                             : Chapter 16

. c4 x5 L9 {; v3 n1 b9 Q5 e4 m$ D
游客,查看本帖隐藏内容请回复 | 加入VIP贵宾可免积分免回复 了解详情 | 还不是会员:点击获取邀请码 Invitation Code

76

主题

2994

帖子

1万

积分

Sponsor

金币
1440 枚
体力
4226 点
lanpanshuma 发表于 2021-7-22 09:27:41 | 显示全部楼层
哥顶的不是帖子,是孤独!
$ D7 c7 Z) u# ^. c/ j. x  G6 iNot see, I am a novice, the inadequacies of the first Please bear with me!
& \/ j6 o/ w5 V) i

0

主题

441

帖子

2246

积分

Sponsor

金币
47 枚
体力
1369 点
QQ
sunday_119 发表于 2021-7-25 20:13:29 | 显示全部楼层
每天都来蓝光论坛看看,我爱蓝光电影。2 {& ~/ Q: J' e0 h! z
bluraycd forum, a lot of Blu-ray movies!
+ P6 c! a) L( X% k

0

主题

401

帖子

1644

积分

Sponsor

金币
10 枚
体力
874 点
luyife 发表于 2021-7-28 11:45:16 | 显示全部楼层
谢谢楼主的分享

本版积分规则

小黑屋|Archiver|蓝光电影资源网

GMT+8, 2021-8-5 23:28

快速回复 返回顶部 返回列表