BluRayCD Forum

 找回密码
 立即注册【分享大片】
查看: 56|回复: 7
收起左侧

[蓝光原盘] 之后4 [REMUX无损版] After Ever Happy 2022 1080p BluRaycd REMUX AVC DTS-HD MA 5.1-FGT 21.44GB

[复制链接]

7486

主题

7658

帖子

7万

积分

Post Share

金币
133 枚
体力
23720 点

卓越贡献勋章

黄金嫖客 发表于 2022-11-12 03:11:56 | 显示全部楼层 |阅读模式
01.jpg
# Y5 k9 z  S; m+ Z, N5 [* C" a  ]2 P% c1 |) E0 ?2 T" L. ~8 o
◎译  名 之后4/永远快乐之后7 w' B: D7 q, l/ O( ~0 D
◎片  名 After Ever Happy / After 4 / После. Глава 4/ X0 E6 P7 {7 d1 O! `- p
◎年  代 2022( _% c; ]( Q" u6 K
◎产  地 美国
3 L% ^2 G. v, c! C◎类  别 剧情/爱情! L% }( X; o- i3 F: {
◎语  言 英语0 W( J6 M+ g, W. d
◎上映日期 2022-09-07(美国)
, p4 x2 B5 v# X' c◎IMDb评分  4.5/10 from 4,514 users
, g) g% s  ~5 y, w◎IMDb链接  https://www.imdb.com/title/tt13070038/+ l$ s+ s8 p) d, @1 |0 g- F# x
◎豆瓣评分 4.9/10 from 1,045 users, z6 T! y3 ^' r0 I5 R" H) g) I; R
◎豆瓣链接 https://movie.douban.com/subject/35221423/7 T7 P) E+ m$ G+ ^* ^. a1 B
◎文件格式 x264 + DTS  6 x8 F- ]% _8 {; ~2 ?( j6 D
◎视频尺寸 1920 x 10802 D# N" F1 Z3 C2 n1 z0 l3 a+ P
◎文件大小 1DVD 21.44 GiB
1 o. L# F+ ^- @$ O- t) H◎片  长 1 h 35 min
  g" b8 i( ]- m◎导  演 卡斯蒂利·兰登 Castille Landon
7 u% H' D  |- ]5 s4 U% b$ S* i1 d◎编  剧 莎伦·索博伊尔 Sharon Soboil
& V, j$ _" I' u7 U# y6 P       安娜·托德 Anna Todd/ A! _: Z. m+ t8 l
◎演  员 赫洛·费因斯-提芬 Hero Fiennes Tiffin/ Z; Y. ~7 p3 L9 K- E( T" [
       约瑟芬·兰福德 Josephine Langford
$ s) |6 }; x, ?       路易丝·隆巴德 Louise Lombard( U4 ~2 B: i* U
       基亚娜·马德拉 Kiana Madeira5 o. b0 z& r2 }1 O2 o/ x& r; q
       卡特·詹金斯 Carter Jenkins
! L& {  l5 Z% V" H: Y# v# u3 g5 O       罗伯·艾斯特斯 Rob Estes1 {3 I* G" j) {. Z, F# u/ [
       钱斯·佩尔多莫 Chance Perdomo
5 a" b) |9 G" \9 O( y4 i: F       杰克·班戴拉 Jack Bandeira
: H3 \" t3 ?( l0 ~( X  x) W3 d: x       阿塔纳斯·斯雷布雷夫 Atanas Srebrev" G' V% N0 |) r( {9 G
       沃利扎·比尼夫 Velizar Binev
( ]; j; |4 M( Q2 X8 L2 b$ T9 G0 C, A
◎简  介   " F( s; b& a: s4 h0 [2 A: {- R7 a' }, U

( `# L5 A* X3 o! {2 X# \$ d  [之后4]讲述一个过往的秘密动摇了Hardin坚不可摧的外表,随后Tessa遭遇了一场悲剧,使他们的关系濒临崩溃。
+ [( e9 p. E7 ^9 `) s; k0 w: g9 W$ s. {, g
  As a shocking truth about a couple's families emerges, the two lovers discover they are not so different from each other. Tessa is no longer the sweet, simple, good girl she was when she met Hardin — any more than he is the cruel, moody boy she fell so hard for.
: k0 m# h3 ^3 ?) H% a  F( m+ J
After.Ever.Happy.2022.1080p.BluRayCD.REMUX.AVC.DTS-HD.MA.5.1-FGT8 E$ Q0 w  W. j. w6 z+ N

8 i, i/ W+ _5 A/ d7 ^Video
$ o3 Q" }' l, u5 fID                                       : 1
1 F) ^; U% E. S/ G7 c1 E( vID in the original source medium         : 4113 (0x1011)6 z7 y( i+ N' O. U  j: M6 {
Format                                   : AVC
7 b; K$ |. f! d0 i4 O$ S$ j/ AFormat/Info                              : Advanced Video Codec
5 I  S; B8 @; HFormat profile                           : [email protected]
4 U2 B) R+ z6 w4 o( JFormat settings                          : CABAC / 4 Ref Frames" S+ z$ F8 Q4 z1 ?, v6 }
Format settings, CABAC                   : Yes
- g1 o3 X/ T- r4 d2 @2 ~6 ^; Z* GFormat settings, Reference frames        : 4 frames
4 B7 ^; M$ n- _0 ?  N/ y- c0 NCodec ID                                 : V_MPEG4/ISO/AVC1 F0 S0 M3 m, V4 m
Duration                                 : 1 h 35 min
, F6 K  s* A0 W& H1 k2 BBit rate mode                            : Variable
5 i$ c4 p- K" q2 gBit rate                                 : 26.9 Mb/s
1 M+ z. j. |: l/ g) `Maximum bit rate                         : 38.0 Mb/s
$ M) l0 l0 \7 n) V8 f+ \Width                                    : 1 920 pixels
0 g1 S6 Q" K4 x3 O: @( \8 j5 THeight                                   : 1 080 pixels' p- I: ?; \5 z: q+ S  g
Display aspect ratio                     : 16:9
2 N! Z% Q  H; a+ FFrame rate mode                          : Constant
! Y- \+ A9 V+ ?1 RFrame rate                               : 23.976 (24000/1001/189150) FPS
. s0 t. |. _: _. F7 W# o% rColor space                              : YUV4 G8 P! ?6 U. V% v+ m8 I# Y1 ~
Chroma subsampling                       : 4:2:0/ R6 P5 }4 |  o+ S* l1 M
Bit depth                                : 8 bits; l' x. \: k% f7 [  U
Scan type                                : Progressive
3 I" q6 ]/ w$ lBits/(Pixel*Frame)                       : 0.5407 i) _3 N/ l: C. M4 U. S/ m% s
Stream size                              : 17.9 GiB (83%)$ V$ N0 @' R2 C, W! K8 P
Language                                 : English
, x: N5 \* M* \7 g6 fDefault                                  : No% U) M( K7 y9 N' M4 F
Forced                                   : No3 W" W9 d- n* w" o; I0 J" ^
Original source medium                   : Blu-ray
6 u8 S' ]' l) q% M/ V, _0 Z7 L
: q! B0 G- U" t" H7 s* G4 TAudio #1$ {" I7 D% Z: h/ Y( b: W
ID                                       : 2
3 W- a$ h" A7 h5 r; m9 {+ L5 k; |ID in the original source medium         : 4352 (0x1100)
! Y. q/ s# [. EFormat                                   : DTS XLL; U/ R& G: X3 d. [' C
Format/Info                              : Digital Theater Systems$ Z$ g+ A" G" @
Commercial name                          : DTS-HD Master Audio3 R  m$ ?" x2 F6 I
Codec ID                                 : A_DTS; [9 W+ g6 b' B. h. k' A' F1 o" g
Duration                                 : 1 h 35 min
* F3 j3 [& n! x/ \+ M! a5 ?# zBit rate mode                            : Variable
# W( s4 @- Y# _) yBit rate                                 : 3 340 kb/s8 U* X% K! ?( {7 Y7 q
Channel(s)                               : 6 channels
9 M6 d/ x8 t9 T0 X2 e* p" H& \Channel layout                           : C L R Ls Rs LFE) y4 N% G. D( P) i
Sampling rate                            : 48.0 kHz
7 B, T, P/ [8 lFrame rate                               : 93.750 FPS (512 SPF)+ {0 f4 }& J; O2 w' ?) ]+ H3 k
Bit depth                                : 24 bits8 {! K1 p0 \& E6 s5 c
Compression mode                         : Lossless
( A0 N& s/ B+ U( k. F: J0 WStream size                              : 2.22 GiB (10%)8 y( T4 M( T" P) ], `: ^
Title                                    : DTS-HD MA 5.1+ B' o: D& k7 @
Language                                 : English1 S. z$ Z& \0 x' d8 ^6 o4 K+ ~  n
Default                                  : Yes6 o- _& Q. f1 V# N6 j
Forced                                   : No& `! ^/ i2 _2 s2 |' O$ _) `9 i
Original source medium                   : Blu-ray" @1 _0 m; {" A

$ B7 K  X) i/ eAudio #2
+ X3 B( v1 G) X# I9 f# }- NID                                       : 3
3 V5 F$ g( E5 O/ GID in the original source medium         : 4353 (0x1101)
8 l1 @$ Y8 A% G! T/ yFormat                                   : DTS XLL
4 j8 A9 H+ K) r1 U$ r+ H6 w* QFormat/Info                              : Digital Theater Systems
' M$ d7 Q) ]* Y4 T& JCommercial name                          : DTS-HD Master Audio
5 v5 @2 f% x, Z1 }; H; ICodec ID                                 : A_DTS# u% i$ _7 R3 f; K0 z
Duration                                 : 1 h 35 min( y1 q& t, t; M% E9 ^  [
Bit rate mode                            : Variable1 L6 |: W! }# U
Bit rate                                 : 1 991 kb/s
; `9 r: h& g; ~8 O: n9 o0 `Channel(s)                               : 2 channels
. Y, e' @" E8 n# `  h4 y5 G4 TChannel layout                           : L R3 V3 x2 j# D/ M
Sampling rate                            : 48.0 kHz$ |0 g" W: Z9 [6 o3 y
Frame rate                               : 93.750 FPS (512 SPF)
- ]- v; M4 V5 Y4 wBit depth                                : 24 bits- |" g- e4 \: K8 [
Compression mode                         : Lossless
* q0 @& }4 f7 x$ }( S4 w* bStream size                              : 1.33 GiB (6%)# x9 @1 e+ U" t4 T8 u( k% O% |# v
Title                                    : DTS-HD MA 2.0/ z% ~9 p$ _# _0 U* q+ J
Language                                 : English
! M& L2 H+ |; l' E/ XDefault                                  : No3 v& Q/ Q: E7 W9 Q7 p6 o# Z+ F' k
Forced                                   : No, N9 `! u1 F# G0 e( ]( X/ N& [
Original source medium                   : Blu-ray
/ X4 x& P1 W3 G4 E8 p3 Z# e. D: ]0 c6 u2 Y' I
Text #1
/ \; g* [  S$ ?( I6 X' A' N! oID                                       : 4
) T2 ~/ ]0 E1 {4 kFormat                                   : UTF-8! v) O$ P7 \3 k/ ^( E' ]) m
Codec ID                                 : S_TEXT/UTF8
5 s6 v, ^, v9 u# N6 JCodec ID/Info                            : UTF-8 Plain Text
( o3 P3 M$ O2 X6 n5 y; kDuration                                 : 1 h 32 min- U0 Z- V" a# D6 H
Bit rate                                 : 60 b/s
$ |, i. ^2 H$ OFrame rate                               : 0.238 FPS; S  [7 m$ Z. Z+ S/ F
Count of elements                        : 1325
0 @' V# ?  O/ j' ]" \% m2 j8 b/ N! RStream size                              : 40.9 KiB (0%)# ?; B$ B0 G7 O: }0 P
Language                                 : English
% o9 |2 f1 ?, V; q) E: ~, cDefault                                  : Yes
' a& w' a+ L0 Z% F( X) ?5 x6 tForced                                   : No
- a! U8 s) l9 R/ s
- Y4 n# e) B! ^Text #2
, A7 d# R/ J! [: K8 ~# b  v3 PID                                       : 5) Q  W& e# k( t* [8 ]1 \: e
Format                                   : UTF-8
: t3 m+ e. m1 b( `5 \$ v( CCodec ID                                 : S_TEXT/UTF8
4 ]) `% I) ~. UCodec ID/Info                            : UTF-8 Plain Text
2 R, x1 g' [" S' bDuration                                 : 1 h 34 min7 v* b& E8 b! `5 h
Bit rate                                 : 68 b/s
: ]& j% J& `, M1 _1 A2 o3 H9 ?3 i- gFrame rate                               : 0.276 FPS( Z* H2 W3 s, J8 M
Count of elements                        : 1558
$ m) A; `" q8 m. U7 [. hStream size                              : 46.9 KiB (0%)
* a2 A; W, Q( O2 w2 ^+ D5 jTitle                                    : SDH
  h1 F! R) O4 [$ E( W: [. ?* F" NLanguage                                 : English
) E- d9 @7 [4 U1 J! ]3 ~1 R% FDefault                                  : No
2 {! ~+ |) X, d4 w7 v1 AForced                                   : No) d- a) c1 J8 {4 E4 |
! O6 D/ {1 s1 O6 r. A
Text #3( l& l! ^$ o5 d8 q- k9 t
ID                                       : 6
/ l- g/ a# G7 E, mID in the original source medium         : 4608 (0x1200)
4 I; B: X& a& T& g2 ]+ N! yFormat                                   : PGS$ E( B9 m& W9 u. U0 p% ~
Muxing mode                              : zlib
; C8 D' v! S" a, l, y  x; oCodec ID                                 : S_HDMV/PGS: D# k6 |4 F( Z, `3 w' v6 R
Codec ID/Info                            : Picture based subtitle format used on BDs/HD-DVDs8 n" K" t5 l) H, i' n8 G! C; c
Duration                                 : 1 h 34 min
- T- O' Z# |/ f! C1 XBit rate                                 : 35.8 kb/s0 m, ~) p) K+ K  ]
Frame rate                               : 0.562 FPS( L6 N& o  T2 q1 K  o
Count of elements                        : 3174
# }& C, m# G' l$ kStream size                              : 24.1 MiB (0%)
/ z: E9 k5 o0 ?1 M3 A  o9 b( ULanguage                                 : English
' {" i/ E( O. T1 v% i$ J* B! aDefault                                  : No& _  v( ^% a; ~1 o" k8 }
Forced                                   : No
. B2 t+ u0 \  h$ f" r& rOriginal source medium                   : Blu-ray2 k! C: O* V- S% y$ ^1 S9 q) R

% r' c& }7 A* l& [Menu
  F$ C0 v( H6 }00:00:00.000                             : en:Chapter 01
1 ?/ X4 B+ i, p0 {00:10:47.480                             : en:Chapter 02" c  w- I% w, K
00:19:59.990                             : en:Chapter 03
  l7 T# `6 a8 t! T. b/ {00:27:41.242                             : en:Chapter 04
5 _0 w! O4 o3 F0 |+ Y00:36:12.962                             : en:Chapter 057 m% b6 K2 X6 a/ ^) V0 e
00:46:08.682                             : en:Chapter 06
" \2 G& N8 ]* ^9 H00:55:09.055                             : en:Chapter 07
; `3 b/ P& k8 y# e01:03:45.238                             : en:Chapter 08/ }7 ^0 `1 s# h1 O. q: q" e& W/ e
01:10:47.117                             : en:Chapter 09
8 n8 d* V) D* d1 {% X01:19:54.372                             : en:Chapter 10  I- a, H( \: G1 ^
01:28:02.402                             : en:Chapter 11/ T1 W0 I; O  V+ [
01:35:15.042                             : en:Chapter 12

0 y5 D: z; h/ W/ n4 W/ ]
游客,查看本帖隐藏内容请回复 | 加入VIP可免积分免回复 了解详情 | 还不是会员:点击获取邀请码 Invitation Code

0

主题

530

帖子

2231

积分

Sponsor

金币
13 枚
体力
1199 点
luyife 发表于 2022-11-12 15:57:44 | 显示全部楼层
谢谢楼主的分享

0

主题

530

帖子

2231

积分

Sponsor

金币
13 枚
体力
1199 点
luyife 发表于 2022-11-12 16:07:24 | 显示全部楼层
这么好的帖子不回对不起自己!9 w# r5 d( b' k
Blu-ray Film Forum is now my home!
" J' z( @, p# a8 |" h$ M6 X

3

主题

880

帖子

4259

积分

Sponsor

金币
0 枚
体力
2383 点
myg0123 发表于 2022-11-13 10:31:56 | 显示全部楼层
每天都来蓝光论坛看看,我爱蓝光电影。
3 O  C- C# }; F, @4 mBlu-ray Film Forum: I will always support you!! r* z$ p4 t' D6 s
蓝光论坛里 ...

0

主题

141

帖子

2097

积分

Sponsor

金币
343 枚
体力
1446 点
ljy-123 发表于 2022-11-14 08:39:48 | 显示全部楼层
每天都来蓝光论坛看看,我爱蓝光电影。
% ~! f5 x* A& D0 A# FAfter reading the posts have nothing to do I Amoy posts!
7 J) p1 K5 t$ h( l2 C/ w

0

主题

852

帖子

3862

积分

Sponsor

金币
1 枚
体力
2102 点
sclzywxl 发表于 2022-11-15 16:04:36 | 显示全部楼层
谢谢楼主分享

0

主题

841

帖子

3252

积分

Sponsor

金币
248 枚
体力
1305 点
lfvvzc 发表于 2022-11-16 17:08:53 | 显示全部楼层
果断回帖,如果沉了就是我弄沉的感觉很有成就感!# Y! e! J7 g9 f' C2 ]9 B6 ]
bluraycd forum, a lot of Blu-ray movies!
2 r( u2 x- b4 x6 {! \8 ~

75

主题

367

帖子

5028

积分

Sponsor

金币
586 枚
体力
3532 点
conanmc 发表于 2022-11-18 14:30:36 | 显示全部楼层
啥也不说了,楼主就是给力!, `3 |  x* k' ^: u+ z2 z1 q; d  k
Blu-ray movies Community: my favorite!1 M- ?' t! _" D3 |0 D
每天都来支 ...

本版积分规则

小黑屋|Archiver|4K蓝光论坛

GMT+8, 2022-11-26 23:56

Copyright © Tencent Cloud.

快速回复 返回顶部 返回列表