BluRayCD Forum

 找回密码
 立即注册【分享大片】
查看: 1|回复: 0
收起左侧

[喜剧爱情] 之后4 After Ever Happy 2022 720p BluRaycd x264-PiGNUS 2.98GB

[复制链接]

1万

主题

1万

帖子

10万

积分

Post Share

金币
171 枚
体力
26702 点

卓越贡献勋章VIP黄金勋章诚信会员勋章

mvods 发表于 3 天前 | 显示全部楼层 |阅读模式
% U3 L. d% }  d$ c& S$ {
+ s) L7 ^+ W7 [( d% Q
◎译  名 之后4
( F6 `, Y7 v0 j3 X3 D# ?◎片  名 After Ever Happy / After 4 / После. Глава 40 \$ C/ [. e, D/ {7 N
◎年  代 2022
. C6 d! w1 Y- ^6 \6 P0 P7 _◎产  地 美国7 L7 F; X' ~9 T3 V% E
◎类  别 剧情/爱情
; M: @0 g& S$ q# X$ {" f◎语  言 英语
. v5 O$ Z* m0 u# g# y3 e◎上映日期 2022-09-07(美国): K7 b7 M. F' ^& v
◎IMDb评分  4.5/10 from 4,733 users
  z* o' {' @  ~- ?! n◎IMDb链接  https://www.imdb.com/title/tt13070038/
1 J+ R9 F4 g4 C* B$ [* W& e7 N◎豆瓣评分 4.9/10 from 1,138 users
8 v5 v) w, V3 G) S0 }◎豆瓣链接 https://movie.douban.com/subject/35221423/; j$ D# b  A# H8 A2 E
◎片  长 1 h 35 min! @$ T: \( x& G  x2 n
◎导  演 卡斯蒂利·兰登 Castille Landon
6 ]6 O2 N% n& I4 F◎编  剧 莎伦·索博伊尔 Sharon Soboil3 P* o7 x) N$ A& E% F! z
       安娜·托德 Anna Todd
; r" k! S  k& Z% C) g◎演  员 赫洛·费因斯-提芬 Hero Fiennes Tiffin
) Q$ T7 q3 m6 ?       约瑟芬·兰福德 Josephine Langford
& V: w3 f1 B4 e  b6 Y+ b- v& S  d, d2 i' p       路易丝·隆巴德 Louise Lombard$ \( ]' [2 x1 ^7 Z
       基亚娜·马德拉 Kiana Madeira: j- y4 r8 }# w& R" z% r4 l$ o
       卡特·詹金斯 Carter Jenkins' [0 h. \& E7 F' C9 b& I  \3 c
       罗伯·艾斯特斯 Rob Estes* C9 ~& z, l: E( m" M, S
       钱斯·佩尔多莫 Chance Perdomo) A5 v8 G$ o/ d5 C
       杰克·班戴拉 Jack Bandeira9 m/ C# t1 S* c
       阿塔纳斯·斯雷布雷夫 Atanas Srebrev
8 g$ o' k; N. b0 a9 S% K1 m5 x       沃利扎·比尼夫 Velizar Binev3 X" C* X4 H: X2 ~8 U9 g1 x

6 y# g+ J4 x% G! n' b◎简  介   
2 `$ x" M  I# ]6 s# m, f7 ^& W! |% `6 Y, x2 i# L& D% |3 M- j
  [之后4]讲述一个过往的秘密动摇了Hardin坚不可摧的外表,随后Tessa遭遇了一场悲剧,使他们的关系濒临崩溃。& d4 b9 O4 h3 G# |& [
, g, ?- P- K7 H
  As a shocking truth about a couple's families emerges, the two lovers discover they are not so different from each other. Tessa is no longer the sweet, simple, good girl she was when she met Hardin — any more than he is the cruel, moody boy she fell so hard for.
2 k8 f# T6 v: e! t
Video( M+ Z; ]: K/ S6 _7 O; ~# r, D5 L
ID                                       : 1% g0 H# Y& L0 q* T" V9 `
Format                                   : AVC
: H$ d3 M9 s- @8 OFormat/Info                              : Advanced Video Codec, b/ i' x  v* k7 B1 ]0 V9 f
Format profile                           : [email protected]6 _' _0 [% j* M8 ]
Format settings                          : CABAC / 8 Ref Frames1 A0 {! f' K: Y: M, U9 z
Format settings, CABAC                   : Yes
+ v3 s" C1 {; j& w5 ~0 V$ T  z% XFormat settings, Reference frames        : 8 frames& v5 ?, f4 L9 F+ H) _" v5 l! w
Codec ID                                 : V_MPEG4/ISO/AVC6 z) t. @+ k! h3 |3 }/ T7 g
Duration                                 : 1 h 35 min
" v- J. [3 l& m& ~1 D8 IBit rate                                 : 3 820 kb/s; t. U5 e  y; }0 o; j/ a& V7 z
Width                                    : 1 280 pixels
; n% ?' j% O& a# _4 q: ~Height                                   : 534 pixels. y7 j+ C/ Q' F/ n+ G
Display aspect ratio                     : 2.40:14 O( a  \' J5 `: h) g4 [2 Y" e6 f
Frame rate mode                          : Constant
% }0 l$ ~* p  ~$ ?  v6 u; DFrame rate                               : 23.976 (24000/1001/189150) FPS
' q/ _1 f3 ^5 H; r( x* i7 AColor space                              : YUV
+ X# J- ~- ~# X9 i1 A& W6 C* bChroma subsampling                       : 4:2:00 L! p# v/ S) a1 Y, A# o
Bit depth                                : 8 bits7 M" g) n1 z- I# D* C$ e
Scan type                                : Progressive
$ a/ v# {6 o# e( U. R1 B4 ]Bits/(Pixel*Frame)                       : 0.2335 i+ a+ i1 z( ?1 U
Stream size                              : 2.54 GiB (85%)
/ T  n' |4 }0 H% g, L& j  l$ RWriting library                          : x264 core 164 r3101 b093bbe2 Y* i4 ^" Q" `4 F- F
Encoding settings                        : cabac=1 / ref=8 / deblock=1:-3:-3 / analyse=0x3:0x133 / me=umh / subme=9 / psy=1 / psy_rd=1.00:0.00 / mixed_ref=1 / me_range=16 / chroma_me=1 / trellis=2 / 8x8dct=1 / cqm=0 / deadzone=21,11 / fast_pskip=1 / chroma_qp_offset=-2 / threads=17 / lookahead_threads=1 / sliced_threads=0 / nr=0 / decimate=1 / interlaced=0 / bluray_compat=0 / constrained_intra=0 / bframes=3 / b_pyramid=2 / b_adapt=2 / b_bias=0 / direct=3 / weightb=1 / open_gop=0 / weightp=2 / keyint=250 / keyint_min=23 / scenecut=40 / intra_refresh=0 / rc_lookahead=60 / rc=crf / mbtree=1 / crf=14.0 / qcomp=0.60 / qpmin=0 / qpmax=69 / qpstep=4 / ip_ratio=1.40 / aq=1:1.00& {! N1 W' g. G, Q: X
Default                                  : Yes& u! w, Z) l( w6 z5 y. A6 z
Forced                                   : No
# `) |# }4 C1 S2 a) u9 b
) f* [; p2 L3 T% x0 O* V1 w7 UAudio5 p+ {: @& I, _! b# F
ID                                       : 2
& e1 C1 Z4 `7 I( J! F+ e: FFormat                                   : AC-31 A1 e. b% Z) L8 Y. ~4 ~7 U4 [
Format/Info                              : Audio Coding 3
) @+ U1 n. W1 U* }$ zCommercial name                          : Dolby Digital  q7 E& @* }) P9 f7 t% ^8 A. K
Codec ID                                 : A_AC3) |. @) W6 d* i+ }% a
Duration                                 : 1 h 35 min; p  f/ }$ Y5 O. `1 _
Bit rate mode                            : Constant: d+ _# u3 ]9 v/ \0 x0 P7 v5 {
Bit rate                                 : 640 kb/s1 s9 s8 l' D/ \& q: @+ O
Channel(s)                               : 6 channels0 J0 s, _2 t( O
Channel layout                           : L R C LFE Ls Rs8 ~( f4 B7 U7 ?
Sampling rate                            : 48.0 kHz
/ h- N! X1 s3 S6 T& VFrame rate                               : 31.250 FPS (1536 SPF)4 R6 B& g" p: \3 A
Compression mode                         : Lossy, |5 w3 t- Y3 _' c; B) a* W, o
Stream size                              : 436 MiB (14%)' n) U4 N+ l) `: x# c+ a7 ^
Language                                 : English, _( G2 ?6 s% B: {) C/ J
Service kind                             : Complete Main7 _2 E2 F8 m2 K3 o, N% u
Default                                  : Yes
2 }4 R6 Q+ F5 dForced                                   : No6 G0 @$ i9 E% `( R5 ?% P: F

. A  R, v' |  gText
; @; k: ~% \" w2 T5 ^3 B- |/ BID                                       : 3
$ z/ j: x# ?9 y1 _! Q. UFormat                                   : PGS
0 s0 s. j, j% o' C1 b# `Muxing mode                              : zlib; J* z4 f* `0 j5 A# v4 l
Codec ID                                 : S_HDMV/PGS1 F7 U( h4 X; x0 g9 }2 x/ _
Codec ID/Info                            : Picture based subtitle format used on BDs/HD-DVDs
  _: i/ ~7 W4 \! QDuration                                 : 1 h 34 min
4 k$ y- }) J' C  wBit rate                                 : 35.8 kb/s
. X( e. {/ B! g2 j! o2 XCount of elements                        : 31746 L: Y0 v- Y" d% C9 r" x* v
Stream size                              : 24.1 MiB (1%)
) {- J4 v5 a1 s7 sTitle                                    : English SDH4 Z( W* r9 k8 O* U  y
Language                                 : English2 V1 s* O( Y% H: R% v9 f
Default                                  : No
% w! E5 l- N9 j! gForced                                   : No
6 x8 |8 r. T$ A/ Y
; m5 X2 I. @% W& |4 [! |3 C7 |9 }& ^Menu
2 C- g5 d3 e! V8 z" t! t8 h1 J0 x00:00:00.000                             : en:Chapter 01
' c& ~& p- f3 p$ d00:10:47.689                             : en:Chapter 026 T# q) R5 [. h
00:20:00.199                             : en:Chapter 03  x" }6 F& L8 |, j* @
00:27:41.451                             : en:Chapter 041 F5 p1 U3 X2 M8 P5 f6 \
00:36:13.171                             : en:Chapter 05
1 v4 @* ?6 b0 p% q1 L" |00:46:08.975                             : en:Chapter 06
, T; ?) q9 G" o7 Y6 q1 F. s# @00:55:09.348                             : en:Chapter 07! |7 v% G2 g( k
01:03:45.488                             : en:Chapter 08
7 C+ l' Y, `+ ^, W' F01:10:47.326                             : en:Chapter 09, C1 e$ v6 E1 o# b3 U# k4 r" N
01:19:54.581                             : en:Chapter 107 ]/ f; G" K# A( f
01:28:02.611                             : en:Chapter 11' z& I0 R# m( @; A9 c( T
01:35:14.876                             : en:Chapter 12
8 N4 B% n, {$ t! k& l7 M; C" \+ W
Name: After.Ever.Happy.2022.720p.BluRayCD.x264-PiGNUS 2.98 GB
/ {: }! u! Q1 a7 d7 b  ?
3 Y! k$ ]. \/ N  b; N+ LRelease date: 09-11-2022( t( m4 i7 U5 n" P$ ?4 j
* g& u" z2 _( n7 k$ S3 @  H
IMDB link: https://www.imdb.com/title/tt13070038/ m% @' @- M% W) G/ S! }

/ ^. d2 {) S% GResolution: 1280x534
; |2 ~( A* T' f  W5 H3 D. X" A) z: V$ UAudio: English AC3 6ch 640 kbps
- h: g; s# ]4 U! v% gVideo: 3820 kbps, CRF 14
8 G& P0 d6 |  U9 e9 S1 gSource: 26976 kbps5 g, \0 o; y2 i

8 w# q6 q0 H9 DSubtitles: English SDH
; P- v( `# @5 E1 G$ u0 t8 R
游客,查看本帖隐藏内容请回复 | 加入VIP可免积分免回复 了解详情 | 还不是会员:点击获取邀请码 Invitation Code

本版积分规则

小黑屋|Archiver|4K蓝光论坛

GMT+8, 2022-11-27 00:59

Copyright © Tencent Cloud.

快速回复 返回顶部 返回列表