BluRayCD Forum

 找回密码
 立即注册【分享大片】
查看: 6|回复: 1
收起左侧

[喜剧爱情] 之后4 After Ever Happy 2022 1080p BluRaycd x264-PiGNUS 7.52GB

[复制链接]

1万

主题

1万

帖子

10万

积分

Post Share

金币
171 枚
体力
26702 点

卓越贡献勋章VIP黄金勋章诚信会员勋章

mvods 发表于 前天 05:20 | 显示全部楼层 |阅读模式
' |4 `- X3 \8 {; k( y$ W8 m+ ?
8 }( K2 s; S+ `; C
◎译  名 之后4
3 S/ }3 l9 h7 g. M◎片  名 After Ever Happy / After 4 / После. Глава 4
% V% c" G& N& f1 a1 }◎年  代 2022! W! t/ b: ^7 w9 Y
◎产  地 美国
" D% U' J+ s1 n1 [1 ~. U5 H◎类  别 剧情/爱情( _2 \% {8 ~8 P; \! l* r; v
◎语  言 英语0 ]6 G) s% H* [8 \" k2 I' a
◎上映日期 2022-09-07(美国); O" c) Q0 `$ z8 S
◎IMDb评分  4.5/10 from 4,733 users
! O& X/ u5 r' d3 E+ [; i7 [; G% C2 w◎IMDb链接  https://www.imdb.com/title/tt13070038/2 O7 h0 T; k; d) ~& H  d1 C
◎豆瓣评分 4.9/10 from 1,138 users
+ p! ~7 Z# i$ C" T2 x  O0 n◎豆瓣链接 https://movie.douban.com/subject/35221423/) d8 A/ ?# |& S
◎片  长 1 h 35 min
0 N2 Q) A8 b# Z3 _, e! h4 g◎导  演 卡斯蒂利·兰登 Castille Landon
. E5 g2 O: n) f5 ^3 ]5 S. M' f◎编  剧 莎伦·索博伊尔 Sharon Soboil
  M# W7 q. _& B* w, B. S, O       安娜·托德 Anna Todd
* C5 c& l  t- y& r◎演  员 赫洛·费因斯-提芬 Hero Fiennes Tiffin  u( h/ w7 z3 x) M7 k
       约瑟芬·兰福德 Josephine Langford1 L& T8 {5 ~1 E" }
       路易丝·隆巴德 Louise Lombard( D7 Y4 C; Y" L
       基亚娜·马德拉 Kiana Madeira
* z- ^8 S6 k* z: z! c9 z  M. |       卡特·詹金斯 Carter Jenkins
& _) Q% h" N' s6 i3 Z( h0 n! X5 |       罗伯·艾斯特斯 Rob Estes
% K3 @) _& y& Z' B       钱斯·佩尔多莫 Chance Perdomo' V7 a; d; M" w8 m" ]. [4 Q
       杰克·班戴拉 Jack Bandeira
/ k/ e3 U0 E; ]: k       阿塔纳斯·斯雷布雷夫 Atanas Srebrev. G& _) [  t6 j, u; G$ y
       沃利扎·比尼夫 Velizar Binev
" w3 D) N* J4 q  K* |6 [4 P) m3 j* D' Y1 z5 W+ V* ?5 V# i
◎简  介   ' X! E+ H- n, T6 T
' K$ \* k# m, t) ]8 b) `  n
  [之后4]讲述一个过往的秘密动摇了Hardin坚不可摧的外表,随后Tessa遭遇了一场悲剧,使他们的关系濒临崩溃。* ]6 [& x' ~* [1 h5 }' _
) @  N% A6 i4 K' t( {9 d
  As a shocking truth about a couple's families emerges, the two lovers discover they are not so different from each other. Tessa is no longer the sweet, simple, good girl she was when she met Hardin — any more than he is the cruel, moody boy she fell so hard for.- o' s) A6 r0 H% `, F6 ]
Video2 ^; E- o  l' i
ID                                       : 1
; T' I( a% s  |7 `5 GFormat                                   : AVC* N/ V- d# C* j( R' f
Format/Info                              : Advanced Video Codec6 c" A* n( G3 x( F1 v2 Y" Q  w
Format profile                           : [email protected]6 |, t: J  T* K% h7 L; c
Format settings                          : CABAC / 5 Ref Frames% Y" c4 |% i  p1 y. |: B
Format settings, CABAC                   : Yes
% a$ i$ v  n9 `, rFormat settings, Reference frames        : 5 frames
+ a3 _' X. I2 d$ cCodec ID                                 : V_MPEG4/ISO/AVC
0 O* B# z# \, x- l4 Z) e5 ?- tDuration                                 : 1 h 35 min( [6 z! i( R. |) y+ |
Bit rate                                 : 7 938 kb/s
/ @: e' U& O4 l0 p  B$ Q* GWidth                                    : 1 920 pixels
+ U6 c  e0 X9 e2 {, \8 k! b4 YHeight                                   : 800 pixels
* r8 ^2 }, Y7 ]5 ?8 I; c3 o% eDisplay aspect ratio                     : 2.40:1
; Y* [; N- j0 d3 G9 ], H2 JFrame rate mode                          : Constant2 @# k7 @6 \- ^7 R
Frame rate                               : 23.976 (24000/1001/189150) FPS9 N! L1 `7 I8 U. H( {5 y, \1 M2 `9 y
Color space                              : YUV7 N4 w8 U# Z( M# r3 `( C3 W! B1 p
Chroma subsampling                       : 4:2:0% [" A" B2 P3 W8 v
Bit depth                                : 8 bits/ o" W3 `/ G& W+ C
Scan type                                : Progressive8 ?& f" @: X2 V0 ]# L
Bits/(Pixel*Frame)                       : 0.216
8 C8 ?& N: V/ U/ c$ q2 F. G" WStream size                              : 5.28 GiB (70%)4 x; {1 C  e  n2 a8 G4 n- n5 C
Writing library                          : x264 core 164 r3101 b093bbe
6 ~7 d' C# p4 r' V, G/ eEncoding settings                        : cabac=1 / ref=5 / deblock=1:-3:-3 / analyse=0x3:0x133 / me=umh / subme=9 / psy=1 / psy_rd=1.00:0.00 / mixed_ref=1 / me_range=16 / chroma_me=1 / trellis=2 / 8x8dct=1 / cqm=0 / deadzone=21,11 / fast_pskip=1 / chroma_qp_offset=-2 / threads=24 / lookahead_threads=2 / sliced_threads=0 / nr=0 / decimate=1 / interlaced=0 / bluray_compat=0 / constrained_intra=0 / bframes=3 / b_pyramid=2 / b_adapt=2 / b_bias=0 / direct=3 / weightb=1 / open_gop=0 / weightp=2 / keyint=250 / keyint_min=23 / scenecut=40 / intra_refresh=0 / rc_lookahead=60 / rc=crf / mbtree=1 / crf=15.0 / qcomp=0.60 / qpmin=0 / qpmax=69 / qpstep=4 / ip_ratio=1.40 / aq=1:1.001 x. F  p* ?3 t& p1 ?  @- Y
Default                                  : Yes
& Y- Y; P# h9 bForced                                   : No! j% ~$ {; L6 X  e. K) o
0 _1 \- w* A" X9 b( o
Audio
* V5 _$ H/ Y  Z5 _! G5 R( m4 X, GID                                       : 2: ~* q: @& m; [4 j
Format                                   : DTS XLL8 N! @7 f/ g# ]
Format/Info                              : Digital Theater Systems
" i4 F- f5 L# e2 ]) c( i+ X6 x' uCommercial name                          : DTS-HD Master Audio% F' K* R# ~/ o( D2 `
Codec ID                                 : A_DTS+ s" p. x$ D. C9 ^
Duration                                 : 1 h 35 min- ]' V# }: o, k- i2 w$ M4 s
Bit rate mode                            : Variable
4 G4 X9 _* a0 oBit rate                                 : 3 340 kb/s
: l( i' G0 U8 E- Z4 U) ]7 pChannel(s)                               : 6 channels' j4 S1 |' z. q2 B7 W6 a" P# s
Channel layout                           : C L R Ls Rs LFE
4 }; v+ p) J  w* x# f$ rSampling rate                            : 48.0 kHz+ p: G9 Q7 P( H% e
Frame rate                               : 93.750 FPS (512 SPF)6 h, q& U. Y/ C2 A$ V  n
Bit depth                                : 24 bits3 M2 X; B# t4 L& M% E; D
Compression mode                         : Lossless
" Q, l/ k3 I: Q/ _5 _Stream size                              : 2.22 GiB (30%)1 U2 p; M& E  Q* C. L
Language                                 : English
! a+ J  L7 U$ |! f) r/ xDefault                                  : Yes
/ U8 R7 `* q8 v4 u7 cForced                                   : No
* x  ^" L3 r; T; ]8 K$ G- o- X# F/ u5 F& W5 \) a9 E
Text
  l& g" V7 H8 LID                                       : 3. _% s* s& t$ S+ W. ^3 N
Format                                   : PGS- U7 j5 w! v% L5 I0 j" o
Muxing mode                              : zlib
/ |6 W$ @/ c. tCodec ID                                 : S_HDMV/PGS: T0 D' E5 ]* }8 d  [. H/ B
Codec ID/Info                            : Picture based subtitle format used on BDs/HD-DVDs
5 T* O/ {0 e  a- m! v* JDuration                                 : 1 h 34 min
, J- T; Y, @8 E6 R1 @# w1 GBit rate                                 : 35.8 kb/s/ `& L8 |6 |8 q7 I- o
Count of elements                        : 3174
$ n8 j6 t* B, g7 i8 nStream size                              : 24.1 MiB (0%)2 g, i& M) u) _0 ?! }
Title                                    : English SDH8 u, |) |1 x1 H, A
Language                                 : English
$ {3 I, |! \2 lDefault                                  : No
. A* O" |' K7 J9 T* n0 aForced                                   : No; G+ W2 }3 E- E% L6 k/ v5 D

, a; `) j. C7 x: }; o! dMenu* R" y* s$ G3 {2 a  Z1 C4 q( C
00:00:00.000                             : en:Chapter 01- m+ T3 Z( E* u, {8 }; H
00:10:47.689                             : en:Chapter 02- f* [& F! ?" J' F1 e  s
00:20:00.199                             : en:Chapter 03$ R! f) j2 z. ~3 x& L
00:27:41.451                             : en:Chapter 04! h, @& R9 a4 t3 Y
00:36:13.171                             : en:Chapter 05
4 d8 [& C) H1 P$ Y8 Q; Y" e, c00:46:08.975                             : en:Chapter 06
( k9 T' A( O& a7 H  V* ]00:55:09.348                             : en:Chapter 07
- b1 Z% }- Z, P* e01:03:45.488                             : en:Chapter 081 ^2 v: y! y9 L2 e' ^
01:10:47.326                             : en:Chapter 09
5 t9 ?( _% g; p+ R8 X  z7 O) D! r01:19:54.581                             : en:Chapter 10
* I% G  c) u/ X7 o$ f/ t01:28:02.611                             : en:Chapter 11
& E/ M' m# K8 z% T$ s; M01:35:14.876                             : en:Chapter 12. y: t0 Y7 t. G8 J

! @3 e& F$ W3 T* A" uName: After.Ever.Happy.2022.1080p.BluRayCD.x264-PiGNUS 7.52 GB6 R! P) l; Q* E  l4 @; m

- _! V9 Q1 |8 V; X4 J4 URelease date: 09-11-2022
$ J- Z2 V+ t& C, B/ q) R# g$ z2 w' i) X) [7 d
IMDB link: https://www.imdb.com/title/tt13070038: R8 @+ D: ?) s( P  j3 i7 w6 b
# w6 d* c, i6 J) N9 P, |
Resolution: 1920x800
! R5 v4 h5 k( a( v' I( \Audio: English DTS-HD Master 6ch 3340 kbps
& S, Z! I" W2 y1 ZVideo: 7938 kbps, CRF 158 r: U/ Q1 f3 `' E: J
Source: 26976 kbps  y) b; Q7 F" _8 |2 k  V$ v
& A2 T/ r* s1 K! F2 ?+ _
Subtitles: English SDH
+ v. m) K& B( {4 u
游客,查看本帖隐藏内容请回复 | 加入VIP可免积分免回复 了解详情 | 还不是会员:点击获取邀请码 Invitation Code

31

主题

2540

帖子

1万

积分

Sponsor

金币
1794 枚
体力
6817 点
QQ
shiji1973 发表于 昨天 08:30 | 显示全部楼层
沙发是抢的而不是占的!
, Y0 X2 y  _2 }/ u6 T. }, {% Q5 vBlu-ray Film Forum: I will always support you!
  I4 W' j' ~7 w) ?. b1 r3 Y& g

本版积分规则

小黑屋|Archiver|4K蓝光论坛

GMT+8, 2022-11-26 23:06

Copyright © Tencent Cloud.

快速回复 返回顶部 返回列表