BluRayCD Forum

 找回密码
 立即注册【分享大片】
查看: 16|回复: 2
收起左侧

[2160P极清] 之后4 [4K高清版] After Ever Happy 2022 2160p WEB-DL x265 10bit SDR DD5.1-NOGRP 8.17GB

[复制链接]

1万

主题

1万

帖子

10万

积分

Post Share

金币
171 枚
体力
26702 点

卓越贡献勋章VIP黄金勋章诚信会员勋章

mvods 发表于 3 天前 | 显示全部楼层 |阅读模式
0 D8 e- b2 l0 L9 J9 |
, z' [8 c8 _3 G2 u
◎译  名 之后4
6 O, _+ V4 y: b4 v& A& a  m◎片  名 After Ever Happy / After 4 / После. Глава 4" J( m+ g1 |& C1 w
◎年  代 2022
5 u1 Y* U8 O& b+ r2 i2 k3 ^, `◎产  地 美国
9 S* {4 p4 A; w+ Y/ t( q" l◎类  别 剧情/爱情
  \1 y8 e* ~8 C% [/ U$ ?1 a% ?) D◎语  言 英语
. @/ K6 h2 H- T5 H& C( C◎上映日期 2022-09-07(美国)4 ?1 D, e, s+ W  C7 F7 A
◎IMDb评分  4.5/10 from 4,733 users; _" s* ]( Y4 H6 [5 P( z  }5 O& R
◎IMDb链接  https://www.imdb.com/title/tt13070038/
* H6 h- ]' A( A6 T◎豆瓣评分 4.9/10 from 1,138 users, M, P- N, h: E: M
◎豆瓣链接 https://movie.douban.com/subject/35221423/
& d9 q7 U  G1 A2 n" {◎片  长 1 h 35 min
# L( H5 c5 b$ F% |  j( F5 H% n' c◎导  演 卡斯蒂利·兰登 Castille Landon
- U3 s9 [) k. `. i4 R◎编  剧 莎伦·索博伊尔 Sharon Soboil
1 z6 \& U: I* c) \& j( U3 D7 }       安娜·托德 Anna Todd
% N  c$ X1 g) i◎演  员 赫洛·费因斯-提芬 Hero Fiennes Tiffin& ~+ F5 t$ f- e
       约瑟芬·兰福德 Josephine Langford% P. s( {& a- @) u) h" `& Y3 P8 ^
       路易丝·隆巴德 Louise Lombard8 @2 n; V# v- u' ~
       基亚娜·马德拉 Kiana Madeira
! h' i8 q9 U, G5 A% x       卡特·詹金斯 Carter Jenkins
1 A$ Y1 ^$ Z) p       罗伯·艾斯特斯 Rob Estes
* }: _8 C) a2 [1 C) h1 a       钱斯·佩尔多莫 Chance Perdomo
+ h0 F& F4 Z' A& ^- ~       杰克·班戴拉 Jack Bandeira0 p) M. X1 N$ }5 q: Z! ?
       阿塔纳斯·斯雷布雷夫 Atanas Srebrev
! `. I% c+ i' Z       沃利扎·比尼夫 Velizar Binev
4 ]8 \3 a* f7 M$ W
) o  I- o) l7 E+ R◎简  介   
4 H7 m1 V8 ]; r
( \/ T% K. ?* S  [之后4]讲述一个过往的秘密动摇了Hardin坚不可摧的外表,随后Tessa遭遇了一场悲剧,使他们的关系濒临崩溃。
. `# E: V' k/ K# U: G
% E& L' t8 J8 r) N- Q' r6 H  As a shocking truth about a couple's families emerges, the two lovers discover they are not so different from each other. Tessa is no longer the sweet, simple, good girl she was when she met Hardin — any more than he is the cruel, moody boy she fell so hard for.4 L( |1 b" a& U3 m
After.Ever.Happy.2022.2160p.WEB-DL.x265.10bit.SDR.DD5.1-NOGRP 8.17 GB
9 Q" t9 S% d4 K: X" u  l+ a/ M5 A# j) W8 k8 k& @
Video
( x# j* T) z$ z$ F: ]ID                                       : 1
1 w1 X8 w; P8 g3 fFormat                                   : HEVC
; `6 j( D" L: }6 |" E" J; dFormat/Info                              : High Efficiency Video Coding7 B/ c. [: |# g  V! W# G( ]" Z
Format profile                           : Main [email protected]@High# `) i3 O, w; c& X! [
Codec ID                                 : V_MPEGH/ISO/HEVC
1 Y- S( B2 N4 ~Duration                                 : 1 h 35 min7 u% B2 a# u) p8 B
Bit rate                                 : 11.9 Mb/s
) ?, z3 H1 {4 t% J) i& lWidth                                    : 3 832 pixels
9 s. v, J$ q* N4 c- MHeight                                   : 1 596 pixels2 v0 q2 O# T1 {
Display aspect ratio                     : 2.40:1+ j# S( |5 v  d7 l: s
Frame rate mode                          : Constant
4 ]) E# y: E0 t3 _, ]/ KFrame rate                               : 23.976 FPS
% }+ _8 n. g6 g2 s9 J( WColor space                              : YUV. l: A% S7 i# B0 w
Chroma subsampling                       : 4:2:0
5 x# {8 K# L" D  n2 ?Bit depth                                : 10 bits
# |: m. s7 t& ]; a0 F( c/ C+ G4 ZBits/(Pixel*Frame)                       : 0.081" M. x' l, `) J; V+ D
Stream size                              : 7.92 GiB (97%): [: x8 ]4 V0 ^9 y4 n& W/ X1 K
Default                                  : No4 \7 w3 V) q( z/ A7 d5 d
Forced                                   : No
. g' T! B3 E- U# z( ~4 jColor range                              : Limited
  \6 b. V8 W* g& iColor primaries                          : BT.709
7 m; G$ ~0 J- CTransfer characteristics                 : BT.709
) Z3 K7 v0 y; ~  [* p: U1 T! nMatrix coefficients                      : BT.709
: C: Z  Z' H  R, N$ z: e. w
: h* F0 ^6 u- ]% KAudio
* E8 l5 j* @/ q' r+ GID                                       : 23 h, v8 [. V5 Y( M0 G
Format                                   : AC-3" E% T# c2 j* m, X. @  L7 u
Format/Info                              : Audio Coding 3- S, z! d% s" m* X
Commercial name                          : Dolby Digital
, z. x& i6 i' KCodec ID                                 : A_AC3
' ^/ s/ s6 @7 H2 F1 ]" y+ PDuration                                 : 1 h 35 min
5 D* R7 T" \- c2 {1 `: e9 o8 H3 XBit rate mode                            : Constant
( k# l' r; j( y. d5 F- o+ f. @# C1 iBit rate                                 : 384 kb/s
: k  R( @3 S8 QChannel(s)                               : 6 channels. w4 T: t- l0 ~2 s% U
Channel layout                           : L R C LFE Ls Rs
9 M- Z) _4 ?" cSampling rate                            : 48.0 kHz
( M* _  d! o# n# o: ?Frame rate                               : 31.250 FPS (1536 SPF)
" i: h7 U* w8 ?* P; g2 JCompression mode                         : Lossy( B4 y0 L7 `$ |( i( G9 l  l
Stream size                              : 262 MiB (3%)
6 {) y/ D9 B4 Z3 k+ tLanguage                                 : English
% A+ l: Z2 L: E$ h  v# IService kind                             : Complete Main7 r% e5 q5 k6 I' A
Default                                  : No
. p; J( C: |% J! g7 n$ M; F; CForced                                   : No
5 {9 p. H  P3 V( \5 S* X* e& d# t; v$ S; S  u( Y5 J& ]
Text
) r  `6 L( B8 e4 u3 pID                                       : 3/ x# M% Q# Q$ D4 P  z% A4 x! Q" H
Format                                   : UTF-8* n6 l6 n& i- G7 X" a
Codec ID                                 : S_TEXT/UTF8
5 D( b7 Z; H# _" B- |) r" nCodec ID/Info                            : UTF-8 Plain Text. `% e# ]# ~, t' w& F
Duration                                 : 1 h 32 min* F( R. f; d: z% ]
Bit rate                                 : 62 b/s+ H& W4 e. I9 Q8 v  R6 b  j$ @
Frame rate                               : 0.253 FPS
- Y; R: i# f' D7 Z0 BCount of elements                        : 1411
" t& \1 g) t6 \9 bStream size                              : 42.7 KiB (0%), O/ c* |" H. L  j; ~# O$ r! H0 l
Language                                 : English
3 g5 K  N3 u, s, C% c* BDefault                                  : No
% L" L+ H9 \# ]0 O6 U- Q6 ^  [Forced                                   : No

' V2 B6 ], v1 P2 s, `1 l
游客,查看本帖隐藏内容请回复 | 加入VIP可免积分免回复 了解详情 | 还不是会员:点击获取邀请码 Invitation Code

0

主题

626

帖子

2593

积分

Sponsor

金币
102 枚
体力
1235 点
sebarstean 发表于 前天 16:20 | 显示全部楼层
每天都来蓝光论坛看看,我爱蓝光电影。
  D0 U4 u8 H+ lBlu-ray Film Forum: I will always support you!0 h! m8 {, X; u( o+ a, o

2

主题

191

帖子

994

积分

Sponsor

金币
6 枚
体力
620 点
yunzhongge 发表于 昨天 07:07 | 显示全部楼层
Bluraycd又有新电影发布了,激动中……!
2 C* r( S0 d) Z$ E) f/ W7 c, B) @Blu-ray Film Forum: I will always support you!
) X* m, P) w  W) p7 }
找新电影 .

本版积分规则

小黑屋|Archiver|4K蓝光论坛

GMT+8, 2022-11-27 00:28

Copyright © Tencent Cloud.

快速回复 返回顶部 返回列表