BluRayCD Forum

 找回密码
 立即注册【分享大片】
查看: 190|回复: 10
收起左侧

[4K极清电影] 速度与激情10 [4K REMUX无损版] Fast X 2023 2160p UHD BluRaycd REMUX DV HDR HEVC TrueHD 7.1 Atmos-TRiToN 60.06GB & 52.05GB

[复制链接]

9080

主题

172

回帖

9万

积分

Post Share

金币
2916 枚
体力
27871 点

卓越贡献勋章

黄金嫖客 发表于 2023-8-5 08:08:56 | 显示全部楼层 |阅读模式
Dom Toretto and his family are targeted by the vengeful son of drug kingpin Hernan Reyes.
* A# Z; D. B* \- [$ I, V& w, ~& O1 N) d
01.jpg
, |8 l  D) s- k' f. }! f
5 j: e# }# O3 Y; @& v: x◎译  名 速度与激情10/狂野时速10(港)/玩命关头X(台)/速激10
+ P# }% I0 N  E1 F2 [& V◎片  名 Fast X / Fast & Furious 10
! X) Z& \( t& m& \◎年  代 2023% [" C5 }+ W. @- ^% [
◎产  地 美国% W8 V8 P0 E. F! N, _  Z, {8 x
◎类  别 动作/悬疑/惊悚/犯罪/冒险
. x& m$ \1 i! l: o2 r◎语  言 英语
2 e" g% }$ Q4 S6 D◎上映日期 2023-05-19(美国)/2023-05-17(中国大陆)
" [7 k* h( g( ]0 ^2 M  p◎IMDb评分  5.9/10 from 84,818 users
! P9 W7 v/ I0 j◎IMDb链接  https://www.imdb.com/title/tt5433140/% ?3 K2 m2 L' b! g" a/ m, x
◎豆瓣评分 6.2/10 from 158,468 users
* X( ]  G  N/ {$ O, k5 m% Z◎豆瓣链接 https://movie.douban.com/subject/26631790/
8 N' n) h9 t8 F6 Q3 ?' S- s◎文件格式 x265 + TrueHD
% N7 _$ h5 i4 L' G" X% j* E◎视频尺寸 3840 x 21604 H/ E" s5 e' i3 W
◎文件大小 1DVD 60.06 GiB & 52.05 GiB
, w' C+ ^4 |1 L◎片  长 2 h 20 min6 C, R: U! {0 C  x* E: J2 `
◎导  演 路易斯·莱特里尔 Louis Leterrier
0 Z4 L/ T' g$ u1 x* S# C; g◎编  剧 丹·马泽 Dan Mazeau
& k$ d! p, n" i       林诣彬 Justin Lin8 e3 c/ n% a/ J- m" r4 {. C
       盖瑞·斯科特·汤普森 Gary Scott Thompson
& x0 g0 a8 e4 L* Y2 ]( |9 f) u◎演  员 范·迪塞尔 Vin Diesel/ r; F$ t8 `4 o! v$ c
       米歇尔·罗德里格兹 Michelle Rodriguez5 o9 d5 Q( h& S! s" H" ^
       杰森·莫玛 Jason Momoa' H0 @- u: R, B3 c% ~* q
       布丽·拉尔森 Brie Larson& S! o- D+ O- w" u) G3 u- l3 u
       查理兹·塞隆 Charlize Theron/ h, u3 w. o4 W, S( p
       杰森·斯坦森 Jason Statham  E' m3 R/ }9 [
       姜成镐 Sung Kang8 D* Y8 x0 _1 S( T: f/ M
       泰瑞斯·吉布森 Tyrese Gibson
+ q+ I( x( ~7 n; R       卢达克里斯 Ludacris
0 P6 c$ C* O7 ^& S# l1 P. w  c       娜塔莉·伊曼纽尔 Nathalie Emmanuel
8 T; i+ ^7 V8 |       乔丹娜·布鲁斯特 Jordana Brewster
5 k! \" ]. z& a/ C: z- z       海伦·米伦 Helen Mirren8 ~" I% b8 U5 t* D
       约翰·塞纳 John Cena
  g2 U. A2 \' g# b1 [       利奥·阿贝洛·佩里 Leo Abelo Perry
4 B+ P, }2 o" U6 I0 h' S       阿兰·里奇森 Alan Ritchson; K! f& T2 R' g; }; z
       丽塔·莫雷诺 Rita Moreno9 h# m6 A- m5 O% M. q7 [  D
       斯科特·伊斯特伍德 Scott Eastwood( w& F6 g$ M1 J, B7 H
       丹妮拉·曼希沃 Daniela Melchior( y9 d9 W" z6 G7 y# |7 k
       梅朵·沃克 Meadow Walker
" M; W" m- E9 y! ^' F/ @! t       皮特·戴维森 Pete Davidson, m% F2 M' g& V/ j! A
       小路易斯·达·席尔瓦 Luis Da Silva Jr.) d8 M5 z! l  J1 x$ U+ q! w
       盖尔·加朵 Gal Gadot) R0 ~, R/ r4 f0 J) s% x3 o
       道恩·强森 Dwayne Johnson( P4 }3 L( I7 L2 d- o
       卡迪·B Cardi B4 o' s6 ^! l5 {8 a0 I6 [5 ~
       迈克尔·鲁克 Michael Rooker
+ y1 p6 \' a9 c# v# @9 I6 Z       安珀·西耶娜 Amber Sienna& p# m' n( A; Y- ]# w" k
       贾斯汀·皮尔斯 Justin Price# w% W7 ^2 j& O- u. }) X- x
       丹·马泰乌奇 Dan Matteucci
, O- X0 W9 V& F8 r* `' K8 i       亚历山大·陈 Alexandre Chen
6 D- Q3 A$ `0 n  y; W& M' ~$ Z       米拉吉·格尔比克 Miraj Grbic
( i) {& u8 k- Y       小约翰·韦斯特 John West Jr.
4 c- [4 L- m" l" r9 ~4 [3 g* Y, `6 e; ]6 n9 o
◎简  介   3 B$ @) k0 Z0 J' y3 ^5 Y4 _0 J* E

( c1 G9 ]7 _1 ^2 p- D9 g% l; t  在完成了无数任务,克服了各种不可能的困难之后,唐老大(范·迪塞尔 Vin Diesel 饰)和他的家族以智慧、勇气和速度过五关斩六将,打败了一路上的所有敌人。如今,他们面对的是一名危险至极的对手:这个从过往阴影中浮出水面的具有致命威胁的人物,誓要报偿血海深仇,决心破坏这个家族,彻底摧毁唐老大所热爱的一切及其至亲至爱之人。
' i1 m( \: v( s2 I" [" ]8 ^( [. ?/ ~1 Y5 y0 }8 \
  From the L.A. underground to the catacombs of Rome, from Rio to Tokyo, and from Europe all the way to Antarctica, the Fast & Furious 10-Movie Collection puts you in the driver’s seat for a high-speed thrill ride that only cinema’s most explosive franchise can deliver. Join Vin Diesel, Paul Walker, Dwayne Johnson, Michelle Rodriguez, Jason Momoa, and an all-star cast on an incredible worldwide journey filled with unforgettable characters and endless suspense as Dom Toretto leads his outlaw crew into dangerous face-offs with deadly enemies before finally facing a foe whose devious plot could be the beginning of the end for the Fast & Furious family.
8 G7 c+ \8 S! ^, V! p% I# y) _1 z2 L7 s' Q% s/ q
Fast.X.2023.2160p.UHD.BluRayCD.REMUX.DV.HDR.HEVC.TrueHD.7.1.Atmos-TRiToN 60.06 GB; k4 V$ N( j3 P9 L) r& g

! _" W# _7 q8 [7 E7 k+ x7 Z0 W2 ~Release.....: Fast X 2023 2160p UHD BluRaycd REMUX DV HDR HEVC Atmos-TRiToN7 I. |$ M0 f6 F/ S
Video.......: MPEG-H HEVC Video / 6080 + 50946 kbps / 2160p / 23.976 fps / 16:9 / Main 10 @ Level 5.1 @ High / 10 bits / Dolby Vision + HDR10 / BT.2020
; Q+ g1 c- S0 _* ~1 _6 G3 [Audio#1.....: English / Dolby TrueHD/Atmos Audio / 7.1 / 48 kHz / 3205 kbps / 24-bit& s% x& L- {" {
Audio#2.....: English / Compatibility Track / Dolby Digital Audio / 5.1 / 48 kHz / 448 kbps: m$ f, j  A+ N' |1 s
Audio#3.....: English / Commentary by Director Louis Leterrier9 \2 L7 i# ~) o! r$ J1 A0 r/ [
Source......: Fast X 2023 UHD Blu-ray 2160p HEVC Atmos TrueHD 7.1-ltzww@CHDBits (Thanks!)
3 {- G9 r( y1 M  m" {Notes#1.....: MakeMKV was used to extract the Dolby Vision video stream, eac3to for the rest
' s: P9 [2 K: X, J! l; [4 U             Fallback to HDR10 if your device does not support Dolby Vision6 S/ _; ]$ E0 X' r) z8 O$ h+ E3 Y1 c
             Hardcoded subtitles for the foreign spoken parts
Fast.X.2023.2160p.REMUX.Dolby.Vision.And.HDR10.ENG.And.ESP.LATINO.Multi.Sub.DDP5.1.DV.x265.MP4-BEN 52.05 GB9 v' x! ?& H. H6 D

2 O* C) l) {0 V; FFormat                                   : MPEG-43 z* `  h+ U) I3 ~3 @$ s
Format profile                           : Base Media
  H" D" H$ O+ D4 a, i, L; O/ xCodec ID                                 : isom (isom/dby1/iso2/mp41)9 ^% V* h3 J* l( o0 Y
File size                                : 52.0 GiB
0 H+ q' J' J' f% J8 BDuration                                 : 2 h 20 min
$ V( C: m& I" S7 k4 IOverall bit rate mode                    : Variable
. p7 {6 i7 h" ]! Z0 O) f( n* L5 ^Overall bit rate                         : 52.9 Mb/s; [3 y: V  |4 G+ v
Frame rate                               : 23.976 FPS  o! r/ K3 ^- u0 v4 M, v
Movie name                               : Fast.X.2023.2160p.REMUX.Dolby.Vision[Ben The Men]
; ^5 W6 g; K9 {) l( k2 hEncoded date                             : 2023-08-04 11:58:28 UTC7 t+ G8 E) @7 g+ ^- ]! T
Tagged date                              : 2023-08-04 11:58:28 UTC" A. f" W* ^0 y8 b" `$ Q+ D8 k
Writing application                      : Lavf60.10.100
; r% R2 `6 ?6 K( h& D
6 |) j7 i# r9 j6 A3 E& n3 G& N. mVideo5 y, P1 k8 [7 P# z: L2 T
ID                                       : 17 K& _3 p; U' Q; _0 f
Format                                   : HEVC
* v3 l; }5 r5 c' k. x# r8 RFormat/Info                              : High Efficiency Video Coding5 b3 F4 f5 L* y  u% @: a
Format profile                           : Main 10@L5.1@High  X8 ~# p9 {6 N% g/ y# U5 i
HDR format                               : Dolby Vision, Version 1.0, dvhe.08.06, BL+RPU, HDR10 compatible / SMPTE ST 2086, HDR10 compatible5 L- ]$ v- p! Q1 M
Codec ID                                 : hev1
% L- u  i  ~! P; ECodec ID/Info                            : High Efficiency Video Coding( h6 o  u$ _. F7 p0 e' v' P
Duration                                 : 2 h 20 min7 c; X9 e" @! W2 i2 r& h9 @0 @
Source duration                          : 2 h 20 min+ A1 n: w  B, _4 u+ v% n/ A* a, }
Bit rate                                 : 51.0 Mb/s
* \0 f) d7 X8 m# jWidth                                    : 3 840 pixels
5 @$ w' j. v8 G3 A/ sHeight                                   : 2 160 pixels0 J5 Y. A. I' r2 o4 S
Display aspect ratio                     : 16:9
  [+ y" t# l/ x, W" f# c' W, A" UFrame rate mode                          : Variable
& K  o' }/ {  i+ O1 I7 LFrame rate                               : 23.976 (24000/1001) FPS
3 r2 ]4 ^/ A6 |# q0 r  _9 AMinimum frame rate                       : 23.810 FPS
& `% w2 {& A: a4 q6 J: x6 wMaximum frame rate                       : 1 000.000 FPS
! Y  G* O: j8 Q% j$ wColor space                              : YUV
+ l( l+ D' ?& o( [  CChroma subsampling                       : 4:2:0 (Type 2)+ f2 h! h0 A- v' a  d1 M4 b
Bit depth                                : 10 bits* v; o% Y/ i4 O8 S& F+ _
Bits/(Pixel*Frame)                       : 0.256; R+ p  ^) I* ]4 G$ E  z' Y
Stream size                              : 50.2 GiB (96%). H" n- z7 Z5 L
Source stream size                       : 50.2 GiB (96%)
* {! o. W' \4 O% m- C; LEncoded date                             : 2023-08-04 11:58:28 UTC8 @$ ]* _' W7 O" o* O
Tagged date                              : 2023-08-04 11:58:28 UTC
* u( ?# m4 T, S! s( H5 BColor range                              : Limited
( w4 U. C9 I) j6 BColor primaries                          : BT.2020
; m0 ]0 w' k0 VTransfer characteristics                 : PQ, v) [: i% g7 X# H" c- L) Y  t
Matrix coefficients                      : BT.2020 non-constant
1 {: O8 o& ?- k6 Z9 s, }1 iMastering display color primaries        : Display P3
7 }. s# ~' ^- @Mastering display luminance              : min: 0.0010 cd/m2, max: 1000 cd/m2
% g7 C, e* X$ R) q# O7 q/ kMaximum Content Light Level              : 1000 cd/m2
( O1 y- T7 T8 _  Y! k2 j7 aMaximum Frame-Average Light Level        : 498 cd/m23 U- ]! p7 E  a
mdhd_Duration                            : 8450441
9 k( y8 t* q( m: VCodec configuration box                  : hvcC+dvvC
0 O9 z9 P; w" _7 K- C% p
' L8 a% G! a4 ^2 K0 eAudio #1
4 D6 R; K2 [$ z* Q2 S6 `4 y% |, ]ID                                       : 2
, t- W/ ~7 W7 L' r+ U' Q6 {5 ~Format                                   : E-AC-3
- W* k' O6 X' T( X3 G8 KFormat/Info                              : Enhanced AC-3
% z9 _! J1 U: o, E) L! j8 A6 UCommercial name                          : Dolby Digital Plus
: R% j+ V" V; C6 f2 ^  n7 jCodec ID                                 : ec-3
; L( {8 h- g% r5 \Duration                                 : 2 h 20 min" t$ X$ o9 R5 f
Source duration                          : 2 h 20 min
8 H: y, G, M. `9 b& Z8 \2 M0 T4 L1 o8 ?Source_Duration_LastFrame                : -20 ms/ H* L3 `9 B/ ]7 f8 q, z$ ?
Bit rate mode                            : Constant
4 n* j/ a" x$ O0 O8 JBit rate                                 : 960 kb/s
8 y$ g& b, p; f' AChannel(s)                               : 6 channels% H; |5 E# k& \. L
Channel layout                           : L R C LFE Ls Rs
# V3 Z* b  e7 S9 ~& n. fSampling rate                            : 48.0 kHz  D4 e) C4 ]" h, G' x# k8 P: ^
Frame rate                               : 31.250 FPS (1536 SPF)/ ^7 ~2 j! H" V- M6 q9 M
Compression mode                         : Lossy! e) ?( G+ {" ?+ h$ F7 {4 W+ ~
Stream size                              : 967 MiB (2%)  f1 S  k7 ^. C7 R6 {
Source stream size                       : 967 MiB (2%)
5 c6 i( Y, d+ A& [Language                                 : English5 K4 H9 z; X$ [
Service kind                             : Complete Main
( h$ {7 m4 M5 e5 C& I" Y* lDefault                                  : Yes  S5 k) I" s% K$ Y$ N- F2 R
Alternate group                          : 1$ W" z# Z2 b6 b5 Y& G
Encoded date                             : 2023-08-04 11:58:28 UTC
  l5 Y0 _1 w" }Tagged date                              : 2023-08-04 11:58:28 UTC; A2 n$ l7 v8 W7 N0 o
# g; r) h3 C! x
Audio #2& M6 g8 |  L! O$ ?
ID                                       : 3
- J" t8 D( z& {4 B2 `Format                                   : E-AC-3; E& I) \2 f, U. K! I6 Q
Format/Info                              : Enhanced AC-39 ~: r/ L6 f( ]2 d" g
Commercial name                          : Dolby Digital Plus% L; Z6 F. `0 c6 m% S0 F9 J
Codec ID                                 : ec-3
3 S5 l& n9 y) o$ r* x* oDuration                                 : 2 h 20 min$ u) f$ I1 i7 ?
Source duration                          : 2 h 20 min
  \, ]3 {5 l/ I1 K9 D* EBit rate mode                            : Constant1 S) m0 I5 y  H" t, Y1 s5 v
Bit rate                                 : 960 kb/s
! R. `5 g* f+ l8 L+ H) _' J9 @Channel(s)                               : 6 channels
$ P2 s3 q& Z2 h$ q. j5 nChannel layout                           : L R C LFE Ls Rs3 x6 a' }6 k. @
Sampling rate                            : 48.0 kHz0 `( ~2 c0 x+ u# {+ A, H1 A
Frame rate                               : 31.250 FPS (1536 SPF)7 J9 z4 a- S1 B. }; C! P- k
Compression mode                         : Lossy
1 H' z  C6 @! O% iStream size                              : 967 MiB (2%)* G8 f8 E' X, B: r, i  ?% d5 j. L' V
Source stream size                       : 967 MiB (2%)
1 a# L8 r4 }- @% DLanguage                                 : Spanish6 B5 R& a  ^# y% F+ G9 y
Service kind                             : Complete Main
# @0 E" \3 {$ \7 p9 N( D8 ?Default                                  : No
1 l* Z: c% E* F/ `* t& @" ~Alternate group                          : 1
! C' p. z5 M7 Q, v- a& @8 ]/ {Encoded date                             : 2023-08-04 11:58:28 UTC
% U' l8 F) S4 Q: `Tagged date                              : 2023-08-04 11:58:28 UTC
. \% L) N3 a& J) U8 J
游客,查看本帖隐藏内容请回复 | 加入VIP可免积分免回复 了解详情 | 还不是会员:点击获取邀请码 Invitation Code

0

主题

150

回帖

1229

积分

Sponsor

金币
74 枚
体力
795 点
QQ
dxymp 发表于 2023-8-5 09:38:20 | 显示全部楼层
红红火火恍恍惚惚或或或或或

0

主题

1134

回帖

6010

积分

Sponsor

金币
125 枚
体力
3550 点
xpg050811 发表于 2023-8-5 12:43:15 | 显示全部楼层
啥也不说了,楼主就是给力!
1 r# `: X$ _( _) AThank you for sharing such a good resource polite reply, very sorry for myself!0 I# t5 k# N3 w

0

主题

2518

回帖

8837

积分

Sponsor

金币
203 枚
体力
3850 点
QQ
fangfang789 发表于 2023-8-6 15:36:58 | 显示全部楼层
每天都来蓝光论坛看看,我爱蓝光电影。/ A8 b* _/ [1 I1 H3 s$ R+ @% R
After reading the posts have nothing to do I Amoy posts!
$ `& R0 R! S1 Y; C

0

主题

74

回帖

2095

积分

知名人士

金币
15 枚
体力
1399 点
seamal 发表于 2023-8-6 15:37:56 | 显示全部楼层
Fast X 4K, finally! Good job!

0

主题

1456

回帖

5543

积分

Sponsor

金币
266 枚
体力
2353 点
lfvvzc 发表于 2023-8-6 17:35:55 | 显示全部楼层
啥也不说了,楼主就是给力!
$ T6 A/ S; H+ |% ?; g9 HThe decisive Replies sink is I get the sinking feeling great sense of accomplishment!. y% Q3 A* _. N4 y! _# U4 X

0

主题

833

回帖

4002

积分

Sponsor

金币
595 枚
体力
1709 点
sawas 发表于 2023-8-8 05:07:13 | 显示全部楼层
That was awesome!

0

主题

760

回帖

3379

积分

Sponsor

金币
78 枚
体力
1775 点
sebarstean 发表于 2023-8-8 17:26:14 | 显示全部楼层
每天都来蓝光论坛看看,我爱蓝光电影。
0 p. [) v- b# h: q' l% k祝愿蓝光社区越办越好!I wish Blu-ray communities better and better!
! U: w1 Y! d5 l: C

0

主题

171

回帖

1720

积分

Sponsor

金币
1 枚
体力
1388 点
xiaoyun1985 发表于 2023-8-9 22:00:25 | 显示全部楼层
有什么不同呢??

283

主题

536

回帖

5091

积分

Sponsor

金币
175 枚
体力
3226 点
zhangwenbin 发表于 2023-8-10 15:48:18 | 显示全部楼层
速度与激情10 [4K REMUX无损版] Fast X 2023 2160p UHD BluRaycd REMUX DV HDR HEVC TrueHD 7.1 Atmos-TRiToN 60.06GB & 52.05GB0 Q4 d5 F) V5 h( [+ v9 W
https://forum.bluraycd.com/thread-63209-1-1.html  b; R1 \3 h5 e
(出处: BluRayCD Forum)
7 ]; D6 H! `* o& X
蓝光论坛里

本版积分规则

小黑屋|手机版|Archiver|4K蓝光论坛

GMT+8, 2024-5-23 13:28

Copyright © 2001-2021, Gadaddy Cloud.

快速回复 返回顶部 返回列表