BluRayCD Forum

 找回密码
 立即注册【分享大片】
查看: 29|回复: 0
收起左侧

[动作战争] 速度与激情10/狂野时速10/玩命关头X/速激10 Fast X 2023 BluRaycd 1080p 10bit x265 DDP7.1-WiCK 10.15GB

[复制链接]

1万

主题

387

回帖

13万

积分

Post Share

金币
4370 枚
体力
32983 点

卓越贡献勋章VIP蓝光勋章诚信会员勋章

mvods 发表于 2023-8-7 22:49:31 | 显示全部楼层 |阅读模式

" U4 c9 W; U, B. r( [' F9 O- e
) c( a7 E# J# o% T' V0 ^' ~2 t◎译  名 速度与激情10/狂野时速10(港)/玩命关头X(台)/速激10
; B  o$ Q' Q1 M$ v. Y+ v◎片  名 Fast X / Fast & Furious 100 X* W* V. g# e8 h- u9 G
◎年  代 2023
2 O. D$ K$ C, w& e* M$ ]) V& s( Q! h◎产  地 美国
; p4 |# ]: G) u8 g◎类  别 动作/悬疑/惊悚/犯罪/冒险( j7 M2 e- B8 ?
◎语  言 英语9 \7 {! S5 H0 D0 ]- b. R. N
◎上映日期 2023-05-17(中国大陆)/2023-05-19(美国). |" Y" n& A: u4 @" A
◎IMDb评分  5.9/10 from 85,699 users
7 k- Y/ Z( Z' p- c9 [' d1 P) s* s◎IMDb链接  https://www.imdb.com/title/tt5433140/
& F3 \6 T. j8 [5 D8 a/ K◎豆瓣评分 6.2/10 from 159,222 users7 u! ?+ Y! `" C
◎豆瓣链接 https://movie.douban.com/subject/26631790/
8 c$ [  M% _) m/ N. i◎片  长 2 h 20 min
, G( H6 I+ P" G6 V◎导  演 路易斯·莱特里尔 Louis Leterrier
0 v- A! R5 p* k0 Q0 B3 R( }  r◎编  剧 丹·马泽 Dan Mazeau" \4 X  T1 J6 K4 x4 }+ R
       林诣彬 Justin Lin' r' ^5 Y( _9 L# W' ]1 |' O+ }" ?- \
       盖瑞·斯科特·汤普森 Gary Scott Thompson
  E/ }. T  D. c0 F9 L& W◎动作特技 弗朗哥·玛利亚·萨拉蒙 Franco Maria Salamon7 S- ]. V. n: K1 G# t7 n. H# O
◎演  员 范·迪塞尔 Vin Diesel | 饰 多米尼克·拖雷托唐老大 Dominic Toretto0 p' t- @' A; u5 b% s0 [7 u
       米歇尔·罗德里格兹 Michelle Rodriguez | 饰 莱蒂 Letty Ortiz' ^2 e. z7 ~3 B) c" ]: k
       杰森·莫玛 Jason Momoa | 饰 但丁 Dante& }5 D8 f( f5 X% S( r# ?
       布丽·拉尔森 Brie Larson | 饰 泰丝 Tess
" I( K# N9 w: w) _* A       查理兹·塞隆 Charlize Theron | 饰 塞弗 Cipher- n+ X9 W& t! |: W
       杰森·斯坦森 Jason Statham | 饰 德卡·肖 Deckard Shaw2 T% G$ ~" V" n
       姜成镐 Sung Kang | 饰 韩 Han
( _( o# X* y* x' r       泰瑞斯·吉布森 Tyrese Gibson | 饰 罗曼 Roman
  I, ?9 U4 [: H0 M" W8 D1 ^" N9 \" _       卢达克里斯 Ludacris | 饰 泰尔吉 Tej
4 a& g8 W0 A/ ^+ O, z+ e9 T/ _9 x       娜塔莉·伊曼纽尔 Nathalie Emmanuel | 饰 拉姆齐 Ramsey
5 u+ i: C, f- w+ `% i+ @0 {       乔丹娜·布鲁斯特 Jordana Brewster | 饰 米娅 Mia Toretto9 m( \/ v: \# g) P' k
       海伦·米伦 Helen Mirren | 饰 昆尼·肖 Queenie
. V& {3 f$ @; w( z' A" w- H8 E) u       约翰·塞纳 John Cena | 饰 雅各布 Jacob Toretto
& P) X+ b4 D% f" H( |8 W       利奥·阿贝洛·佩里 Leo Abelo Perry | 饰 布莱恩 Brian Marcos7 }9 s. l" h( G# Q! M% x5 y
       阿兰·里奇森 Alan Ritchson | 饰 埃姆斯 Aimes
6 V. I* T7 J+ g( s& Y3 W- p       丽塔·莫雷诺 Rita Moreno | 饰 Abuela Toretto8 O& I; h2 u  ^! B; e) j2 G$ u2 }
       斯科特·伊斯特伍德 Scott Eastwood | 饰 Little Nobody
9 T1 B' J: Y  E       丹妮拉·曼希沃 Daniela Melchior | 饰 Isabel
' u2 `/ Q0 q" u       梅朵·沃克 Meadow Walker$ X1 l4 X8 w' o. z5 g4 D* k3 N' c
       皮特·戴维森 Pete Davidson, z& Y( U' m/ r8 J& I" B4 d6 `
       小路易斯·达·席尔瓦 Luis Da Silva Jr. | 饰 Diogo" H( U# b1 H7 T( R; Q$ w( e
       盖尔·加朵 Gal Gadot | 饰 吉赛尔 Gisele
3 Y3 T& C  i2 `3 Q9 E       道恩·强森 Dwayne Johnson | 饰 卢克·霍布斯 Luke Hobbs
7 q$ b; b  `% c; P       卡迪·B Cardi B | 饰 Leysa
2 t7 @; R8 D( |3 |$ h       迈克尔·鲁克 Michael Rooker | 饰 Buddy  n& m" L4 M0 c" I' L4 i9 M' P+ f
       安珀·西耶娜 Amber Sienna | 饰 Party Girl# ~7 W: [: m/ w4 Q4 S# b9 t
       贾斯汀·皮尔斯 Justin Price | 饰 Swat
5 ~. x0 |/ E# n; n       丹·马泰乌奇 Dan Matteucci | 饰 Driver% V% T3 |' @8 h
       亚历山大·陈 Alexandre Chen | 配 Portuguese Characters
0 E- e% q* I8 W" V  I+ a. N$ s       米拉吉·格尔比克 Miraj Grbic
1 {8 ^4 A, u* L8 h. w. R4 A/ Q       小约翰·韦斯特 John West Jr.0 J2 N* p$ {& j0 \: S
◎制  片  人 尼尔·H·莫瑞兹 Neal H. Moritz
3 W1 o, ^% l9 X; ]( R  O: }◎摄  影 斯蒂芬·F·温顿 Stephen F. Windon& p0 `( J8 x- i$ }
◎服  装 萨尼娅·米尔科维奇·海斯 Sanja Milkovic Hays
4 p- i. D- O- n  ?3 t" a( \  T7 J7 z. z5 p* x1 v6 {5 o
◎简  介 6 L/ @$ h3 f1 @

% c2 n( q5 P9 ]% W0 O/ B& A  在完成了无数任务,克服了各种不可能的困难之后,唐老大(范·迪塞尔 Vin Diesel 饰)和他的家族以智慧、勇气和速度过五关斩六将,打败了一路上的所有敌人。如今,他们面对的是一名危险至极的对手:这个从过往阴影中浮出水面的具有致命威胁的人物,誓要报偿血海深仇,决心破坏这个家族,彻底摧毁唐老大所热爱的一切及其至亲至爱之人。
3 f/ i2 X3 s% Y5 g
2 n& l# z5 m+ n: P1 W* n  Dom Toretto and his family are targeted by the vengeful son of drug kingpin Hernan Reyes.  H4 J; Q8 h/ o4 [
Fast.X.2023.BluRayCD.1080p.10bit.x265.DDP7.1-WiCK 10.15 GB& g) ^7 Z( k- o6 y
+ J' r0 A; O$ }1 c$ H
MEDIA iNFO
4 w% @! L6 Z1 d5 }: [General" R4 b5 v+ A% i
Unique ID                   : 102356220530781561392870269087496494120 (0x4D01174C86D0ADEFC832817875FB5C28)' \! }/ @) Y( Q  Q/ O) q
Complete name               : E:\Fast.X.2023.Blu-Ray.1080p.10bit.x265.DDP.7.1-WiCK.mkv& z. R4 J/ I7 {1 r/ w, D  H. V
Format                      : Matroska
, j5 q$ P" X+ g( u7 d2 f5 zFormat version              : Version 43 q% v) G2 t$ S2 T6 |
File size                   : 10.2 GiB: N) J( W/ l. C1 [* k5 D2 Y
Duration                    : 2 h 20 min; ~8 o7 S. y& m
Overall bit rate            : 10.3 Mb/s
. Y3 X# w/ N! D# r  ?! a5 c9 EFrame rate                  : 23.976 FPS
  q, O0 ~; [+ I: l5 _Movie name                  : Fast X (2023)" a) B9 i! Y" {/ G: C7 }* D( K
Encoded date                : 2023-08-04 08:01:49 UTC! }2 ]$ K8 w7 u) f) H- t
Writing application         : mkvmerge v78.0 ('Running') 64-bit
2 G$ B4 E" Q' }3 ]Writing library             : libebml v1.4.4 + libmatroska v1.7.17 P( f0 h  g4 {9 ^9 @2 n8 w2 Z
3 G; l- e2 Y4 o4 \7 H5 V& A5 \# i
Video
; z. e" I/ S, [- ~! Y4 WID                          : 1
3 ]. ]; [2 K+ h$ ~Format                      : HEVC; _/ p% ~- v" `
Format/Info                 : High Efficiency Video Coding
' H) w  ?* X/ k3 J3 [Format profile              : Main 10@L4@Main
% Q9 s8 r8 n6 t( Y4 pCodec ID                    : V_MPEGH/ISO/HEVC
1 I( M1 R  F: F! m  }Duration                    : 2 h 20 min
; S! m+ ]8 T2 fBit rate                    : 8 764 kb/s
' n2 P, v, ?# x/ h) x" T- wWidth                       : 1 920 pixels
3 B- i( W5 J4 E' r9 tHeight                      : 808 pixels! E5 ?" g# r) N8 T1 B
Display aspect ratio        : 2.40:1
- |! [* A3 `1 G+ W5 L5 s9 PFrame rate mode             : Constant
8 J! i& d+ I! {Frame rate                  : 23.976 (24000/1001) FPS$ D& M. v+ |5 o7 y3 K, E3 z  K
Color space                 : YUV
- q. G# H. j& \. gChroma subsampling          : 4:2:0
7 A4 v$ c3 k; E: M, A# _' {7 [Bit depth                   : 10 bits! b* _2 N4 Y; |6 K: Q( D1 n
Bits/(Pixel*Frame)          : 0.2368 [9 c$ U; h& A, y0 f
Stream size                 : 8.62 GiB (85%)
, ~! ~' e% a# Z0 o5 o0 B; TWriting library             : x265 3.5+104+15-ba4e7a2cb:[Windows][MSVC 1936][64 bit] 10bit
0 j/ Y* z7 O7 K+ zEncoding settings           : cpuid=1111039 / frame-threads=3 / numa-pools=12 / wpp / no-pmode / no-pme / no-psnr / no-ssim / log-level=2 / input-csp=1 / input-res=1920x808 / interlace=0 / total-frames=202608 / level-idc=0 / high-tier=1 / uhd-bd=0 / ref=4 / no-allow-non-conformance / no-repeat-headers / annexb / no-aud / no-eob / no-eos / no-hrd / info / hash=0 / temporal-layers=0 / open-gop / min-keyint=23 / keyint=250 / gop-lookahead=0 / bframes=8 / b-adapt=2 / b-pyramid / bframe-bias=0 / rc-lookahead=80 / lookahead-slices=5 / scenecut=40 / no-hist-scenecut / radl=0 / no-splice / no-intra-refresh / ctu=64 / min-cu-size=8 / no-rect / no-amp / max-tu-size=32 / tu-inter-depth=1 / tu-intra-depth=1 / limit-tu=0 / rdoq-level=0 / dynamic-rd=0.00 / no-ssim-rd / signhide / no-tskip / nr-intra=0 / nr-inter=0 / no-constrained-intra / no-strong-intra-smoothing / max-merge=5 / limit-refs=1 / no-limit-modes / me=3 / subme=7 / merange=57 / temporal-mvp / no-frame-dup / no-hme / weightp / no-weightb / no-analyze-src-pics / deblock=0:0 / sao / no-sao-non-deblock / rd=3 / selective-sao=4 / early-skip / no-rskip / no-fast-intra / no-tskip-fast / no-cu-lossless / b-intra / no-splitrd-skip / rdpenalty=0 / psy-rd=2.00 / psy-rdoq=0.00 / no-rd-refine / no-lossless / cbqpoffs=0 / crqpoffs=0 / rc=crf / crf=14.5 / qcomp=0.60 / qpstep=4 / stats-write=0 / stats-read=0 / ipratio=1.40 / pbratio=1.30 / aq-mode=3 / aq-strength=1.00 / aq-bias-strength=1.00 / cutree / zone-count=0 / no-strict-cbr / qg-size=32 / no-rc-grain / qpmax=69 / qpmin=0 / no-const-vbv / sar=0 / overscan=0 / videoformat=5 / range=0 / colorprim=2 / transfer=2 / colormatrix=2 / chromaloc=0 / display-window=0 / cll=0,0 / min-luma=0 / max-luma=1023 / log2-max-poc-lsb=8 / vui-timing-info / vui-hrd-info / slices=1 / no-opt-qp-pps / no-opt-ref-list-length-pps / no-multi-pass-opt-rps / scenecut-bias=0.05 / no-opt-cu-delta-qp / no-aq-motion / no-hdr10 / no-hdr10-opt / no-dhdr10-opt / no-idr-recovery-sei / analysis-reuse-level=0 / analysis-save-reuse-level=0 / analysis-load-reuse-level=0 / scale-factor=0 / refine-intra=0 / refine-inter=0 / refine-mv=1 / refine-ctu-distortion=0 / no-limit-sao / ctu-info=0 / no-lowpass-dct / refine-analysis-type=0 / copy-pic=1 / max-ausize-factor=1.0 / no-dynamic-refine / no-single-sei / no-hevc-aq / no-svt / no-field / qp-adaptation-range=1.00 / scenecut-aware-qp=0conformance-window-offsets / right=0 / bottom=0 / decoder-max-rate=0 / no-vbv-live-multi-pass / no-mcstf / no-sbrc
4 T0 j$ N5 x) `9 {1 k1 I. xLanguage                    : English
, }( o) I9 I% c) U5 pDefault                     : Yes
# j% F! n, g+ OForced                      : No4 G# ^" r( R: Z/ }5 j" t* b
) j( |3 H* U  `4 i5 S
Audio4 z  z% A) L" y, I! C
ID                          : 2  W: y; p5 B0 _$ m) t; x: l+ \; a# s
Format                      : E-AC-32 t* k% U8 C- d( S
Format/Info                 : Enhanced AC-3
; \. b0 A, K( V0 h3 _7 iCommercial name             : Dolby Digital Plus
; R3 q8 ]0 \* |7 p  s9 ?Format profile              : Blu-ray Disc$ ~" ~$ c4 y: [* @% I
Format settings             : Dolby Surround EX5 @4 r& i+ z) v. J+ U
Codec ID                    : A_EAC3
: z6 g# b3 J& o! f- x* Y8 mDuration                    : 2 h 20 min
9 Q( `& {+ m. p, [5 o: ?Bit rate mode               : Constant: _1 \3 b# a9 F9 d, ^4 n4 ^+ v7 q5 G
Bit rate                    : 1 536 kb/s
" t8 w2 X3 p) e' U6 x' FChannel(s)                  : 8 channels! M# Q, Q! {: S4 E
Channel layout              : L R C LFE Ls Rs Lb Rb$ Y* M+ Z- X. {( H/ o( Q7 t; ~1 G5 A
Sampling rate               : 48.0 kHz# n( D1 k" P4 ?9 c
Frame rate                  : 31.250 FPS (1536 SPF)+ z& t8 l9 G) t+ p4 {& }. h
Compression mode            : Lossy
( }$ O: e3 ]% H3 uStream size                 : 1.51 GiB (15%)9 B; R+ g' r" i' p3 @+ g# `: h2 b  O
Language                    : English
8 |2 @/ d* {, d" B% wService kind                : Complete Main) ~6 z7 N: z8 G$ a
Default                     : Yes
% r& ^1 y+ c9 W- `Forced                      : No
7 Z/ y9 O  {/ K. X. g
, C1 J! J$ U5 V! ?Text #1, ~6 G( i: G/ @# `, q9 }  i! J
ID                          : 39 D4 R) X0 F# A2 Y
Format                      : PGS
2 Z3 g/ W/ V2 Z1 I& x' P+ c7 ^Muxing mode                 : zlib
+ u! m# [$ Q! r3 N0 ^Codec ID                    : S_HDMV/PGS: {/ r4 Z0 U3 f9 n4 j
Codec ID/Info               : Picture based subtitle format used on BDs/HD-DVDs
5 E1 Z9 v) d* `! FDuration                    : 1 min 2 s: t' p6 U- t# L! J0 `
Bit rate                    : 95.5 kb/s
) b" {  G# o) G/ h: `1 uFrame rate                  : 0.932 FPS1 s& f4 ]/ h- |& I; |5 M
Count of elements           : 58
( q9 }0 D: v: L& g% Z3 a# m6 @0 {Stream size                 : 725 KiB (0%)' f8 G* [: Z+ |! w% r4 w5 [
Title                       : English (SDH)
. p1 v' _# r7 V/ ~Language                    : English* r9 d6 i/ T& {" @2 a% }' _! I
Default                     : No0 A% F: Y5 `, x0 _4 }5 S$ a4 s
Forced                      : No6 ^3 [+ W; `9 e6 S& y' A( |) y5 E

+ D: a- X7 a( L- fText #2
- H2 B; q: r0 |4 E3 V' _ID                          : 4
% V: ?# B& [# H/ fFormat                      : PGS7 z. P; a& s8 j. _
Muxing mode                 : zlib
/ m: a, m% b( j: RCodec ID                    : S_HDMV/PGS
1 v  R0 Y% n( B" |% ?Codec ID/Info               : Picture based subtitle format used on BDs/HD-DVDs! i" {; `5 D3 l, x4 A0 s
Duration                    : 2 h 14 min
# v2 b2 g& U6 kBit rate                    : 41.6 kb/s7 \  w8 V" Y0 p4 R9 x, n
Frame rate                  : 0.508 FPS
) v3 l5 r' J8 s: L' ^6 |Count of elements           : 4112) U0 H+ T  }  F
Stream size                 : 40.2 MiB (0%)8 F. c3 W+ S4 \' t- f
Title                       : English (SDH)
/ T; S: C3 h1 _1 [0 {0 K; t* RLanguage                    : English
  j5 G; I2 g5 G! RDefault                     : No
! x/ z- i2 }! \9 s# f1 E% S3 TForced                      : No/ k: I8 M- d9 I$ `" u# d( i$ [
" {, e. \7 I% i: ]& n6 j
Menu
4 _! s. g3 F1 Z- P00:00:00.000                : en:Chapter 1
" C/ S7 h2 A: }' G& a00:06:30.056                : en:Chapter 2
, [% \8 Q1 w7 V  g00:15:47.238                : en:Chapter 3
  t8 G7 Y2 P/ ~( M) m% h00:23:09.555                : en:Chapter 48 W8 g, w: }) Z# k3 @3 w0 P
00:32:54.890                : en:Chapter 5( z; e* E" O, ?& K; ^: V! T
00:40:21.002                : en:Chapter 64 T. y5 ^% Z2 b! L" h# }
00:46:43.676                : en:Chapter 7& z+ j6 {" U0 U# e/ Q9 t) ~) Z* a, \
00:50:51.048                : en:Chapter 8
( t( Q$ A9 w" L! F00:57:37.412                : en:Chapter 9
1 d! @# T+ h5 G01:07:34.550                : en:Chapter 10) O. q: b! @7 j, R+ r; P6 H/ n0 \, q
01:14:01.312                : en:Chapter 11
! Y/ l' ?5 d* P- D6 {: F5 s01:19:54.707                : en:Chapter 12
) K9 H" Q- F4 v4 O% [) P: K& z01:28:26.051                : en:Chapter 13# X' C2 Y) i! a' ?
01:32:36.050                : en:Chapter 149 c3 x7 \9 P; J; }1 X
01:38:26.484                : en:Chapter 159 r" G1 e4 F' H% X8 e& ]1 N' R
01:45:49.969                : en:Chapter 16) N/ U' a# n. l, @
01:49:08.459                : en:Chapter 17
6 H8 E0 s( g9 B2 p" }01:53:51.283                : en:Chapter 18# U4 p+ h8 ?9 a0 p: O" r
02:00:17.710                : en:Chapter 19
) a" E+ g6 q/ ^6 c: X5 @$ J  V02:07:25.304                : en:Chapter 20
  1. RELEASE iNFO5 w8 z' n& t6 P% E$ I6 ?% R1 {! `
  2. SOURCE........: Fast.X.2023.1080p.Blu-ray.REMUX.AVC.TrueHD.Atmos.7.1-FraMeStoR(Thanks!)
    3 E1 \0 i% c% \0 u
  3. ENCODER.......: WiCK5 [# O, \5 u* }' U' s
  4. RELEASE DATE..: 2023-08-04 08:01:49 UTC0 _8 D' `0 v" k) L# h- _0 o
  5. RELEASE SIZE..: 10.2 GiB
    8 o/ I4 J2 m- J) z
  6. + [5 g7 @& N  p' i* T* A
  7. x265 LOG:
    8 M- n4 e4 [3 x+ D7 I2 Z/ U
  8. x265 [INFO]: frame I:   3681, Avg QP:11.12  kb/s: 39268.81
    3 @2 `, V$ ^3 Q4 |8 w0 B' X; l
  9. x265 [INFO]: frame P:  56245, Avg QP:13.07  kb/s: 17073.65
    1 c* W. q( C6 Y6 ^: C: K7 w
  10. x265 [INFO]: frame B: 142682, Avg QP:18.34  kb/s: 4699.243 n+ t: B' T: d! S
  11. x265 [INFO]: Weighted P-Frames: Y:3.3% UV:2.6%9 K, P) O6 y) U
  12. encoded 202608 frames in 128316.42s (1.58 fps), 8762.50 kb/s, Avg QP:16.75
    % L; V$ h( C" |$ I. c; X
  13. ' _! i& ?. Z( D, g# ~
  14. NOTES:; m* q% S6 n( b% B5 L, ]
  15. * DDP 7.1 is Encoded using DEE.
    5 `# g- o' o, F
  16. * All High Frequency Noises Have Been Removed & Freezed in Background.
    * v) y$ d; Z: P  @/ J4 H
  17. * Encoded in CRF 14.5 @ Very Slow Preset.% i! m$ @( {. ], Z
  18. * Enjoy! FEEL THE QUALITY.
复制代码
OTHER'S Sample% J; F; S9 r3 l9 U4 a9 K/ r
" l: G6 Q7 p4 f9 d( `: n7 P3 V
WiCK's Sample" J9 O) T% p% t+ w! C

# s2 T( {, B+ I' e! ]& I
游客,查看本帖隐藏内容请回复 | 加入VIP可免积分免回复 了解详情 | 还不是会员:点击获取邀请码 Invitation Code

本版积分规则

小黑屋|手机版|Archiver|4K蓝光论坛

GMT+8, 2024-5-23 13:49

Copyright © 2001-2021, Gadaddy Cloud.

快速回复 返回顶部 返回列表