BluRayCD Forum

 找回密码
 立即注册【分享大片】

QQ登录

只需一步,快速开始

查看: 12|回复: 0
收起左侧

[科教记录] 星球大战外传:侠盗一号 [花絮碟] Rogue One 2016 BONUS DISC 1080p BluRaycd x264 DD2.0-FGT 5.65GB

[复制链接]

3658

主题

4021

帖子

3万

积分

Post Share

金币
6560 枚
体力
5994 点

卓越贡献勋章

mvods 发表于 2020-4-25 19:41:02 | 显示全部楼层 |阅读模式
2 w: e/ t& F" ~5 s9 s2 v0 m

: E0 Y5 X  c  N9 D: n◎译  名 星球大战外传:侠盗一号/侠盗一号/星战外传1/侠盗一号:星球大战外传/星球大战:侠盗一号/罗格一号
+ f. }* O; Q& s7 ?◎片  名 Rogue One: A Star Wars Story8 [: V1 @- F1 k5 T5 W4 w/ V  q
◎年  代 2016/ e- _6 K, l3 S) J! u$ e
◎国  家 美国
! P, y. Q5 A* ^◎类  别 动作/科幻/冒险8 z/ T2 M  `9 O0 R2 A' ?
◎语  言 英语: z9 E- x9 ^; i3 I% H8 P( W, u
◎上映日期 2016-12-16(美国)/2017-01-06(中国大陆)7 I" Q9 B* `; l: |" L7 X8 }
◎IMDb评分 8.0/10 from 263,544 users& V* t1 a$ T8 m) \+ y$ z( X
◎IMDb链接 http://www.imdb.com/title/tt3748528/
& I; d$ W: Q: D' B9 s/ n3 d◎豆瓣评分 7.3/10 from 82,356 users
( O' ]4 S6 |. [% C% b◎豆瓣链接 https://movie.douban.com/subject/25894431/- m$ @1 p/ j: M' o$ [& f
◎片  长 1h 8mn& B7 B4 l: L' s
◎导  演 加里斯·爱德华斯 Gareth Edwards8 P: ?5 @  s7 ]; j
◎主  演 费莉西蒂·琼斯 Felicity Jones* @5 {3 j/ n6 m* Z
      迭戈·鲁纳 Diego Luna4 J3 D. `/ i8 K/ U2 X
      甄子丹 Donnie Yen- V, _0 o$ M: Y" O
      本·门德尔森 Ben Mendelsohn
1 l% c0 B# {$ J# S) y. e' ~      麦斯·米科尔森 Mads Mikkelsen* r1 _0 Z" x6 F! _' P- p+ R* w+ W! ^- u
      艾伦·图代克 Alan Tudyk7 a- f% E) C$ p+ Q( A1 U
      福里斯特·惠特克 Forest Whitaker
. ?; P0 G5 j9 Z; o. _% [      姜文 Wen Jiang: Q% N8 h8 n9 {: I5 D# B% U, w
      里兹·阿迈德 Riz Ahmed" f" q( }2 G% _, \2 i2 E& _( x
      乔纳森·阿里斯 Jonathan Aris/ s8 s/ S; U4 W- ]3 ~
      尤妮斯·奥卢米德 Eunice Olumide
- f3 z6 |: I" z+ p+ U      克莱尔·陈 Claire Tran
* `  i; `* L4 \" ^+ Q4 J. c      吉米·斯密茨 Jimmy Smits* @4 S) ^) c2 t) \3 p( I9 e
      沃维克·戴维斯 Warwick Davis: R$ q4 D4 K3 |4 h6 G; L& c; Y
      马克·普雷斯顿 Mark Preston7 C5 P7 \6 }6 Q1 L
      吉娜薇·欧瑞丽 Genevieve O'Reilly4 L% V  x7 J8 k$ C
      詹姆斯·厄尔·琼斯 James Earl Jones" |5 Y# @# x9 a! i
# o- F: `: h- E- V+ j5 M
◎简  介7 r  n2 {/ ?' V1 o+ p0 c

0 z! G4 ?2 g; }! }  这是一个战火频燃、纷争不断的动荡时代,一群有志之士集结在一起,计划盗走帝国大规模杀伤性武器“死星”的设计图。这个在《星球大战》系列里非常著名的重点事件 ,让一群平凡普通人结成了同盟,决定为世界的改变做出贡献;而在绝密行动的进行中,他们也逐渐成长为顶天立地的英雄。
  E; u: O& \' W% |# K& h& @8 u# J! M7 U; L7 A
◎获奖情况; B, ~! u3 }) r+ P+ d
" \8 z* @$ N4 o; z2 m: v( k
  第89届奥斯卡金像奖  (2017)
- B- u) G& ?2 h% }" {  最佳视觉效果(提名) 尼尔·科博尔德 / Hal T. Hickel / Mohen Leo / 约翰·诺尔3 W( c2 l8 X! X/ ]. J' G' P
  最佳混音(提名) 克里斯托弗·斯卡拉博西奥 / Stuart Wilson / David Parker
* i) O! h8 ]5 ]8 F
1 T7 f  G; A* J  第70届英国电影学院奖  (2017)
5 _5 u. B3 B1 a  电影奖 最佳化妆/发型(提名)
# R/ c3 O2 n. ^+ ^  电影奖 最佳特殊视觉效果(提名)
8 |0 M5 C8 h* D
$ P1 ~3 R! l; H4 E) A5 W  第21届美国艺术指导工会奖  (2017)
# i3 [  i% p8 E! }; d" w  电影奖 最佳幻想电影艺术指导(提名)
/ x: E: P* x1 ]) B& ~+ X9 }0 b9 R
; D$ I2 a) r, h6 C) _, }  第19届美国服装设计工会奖  (2017)* s6 }6 e, [5 m( M& ^$ G
  奇幻题材电影最佳服装设计(提名)3 H) W+ d- g, g& H3 n
- a9 o; H- A1 D2 j
  第15届美国视觉效果协会奖  (2017)6 C, W8 Y0 H# F- [
  最佳特效电影视觉效果(提名)
, n) X4 p/ N; B: n: j  Y8 k  最佳真人电影CG动画角色(提名)( f8 d) x$ A7 K$ g8 f
  最佳真人电影CG背景(提名)) B+ C" t( t* l2 k# }0 V1 p: o
  最佳电影虚拟摄影(提名)
& d$ J9 x) @" E# l2 d  最佳电影模型(提名)
" }( w6 E1 H, Q! Z& `  最佳真人电影模拟动画效果(提名)
* e4 C) l8 E3 o/ z0 Q
* d8 B2 l6 M9 G# h! u: H6 O  第53届美国声音效果协会奖  (2017)
. s8 A+ M4 E  d9 j" y  真人电影最佳音效(提名)
* M- |' J2 _$ J- Y# k' k& _# U
Video( a2 s2 E. v8 E$ X  s) B. J( o0 W
ID                                       : 18 M' i- }  d$ Y, \
Format                                   : AVC8 x/ Z) }2 N: m/ g& j1 F/ E# Z% s
Format/Info                              : Advanced Video Codec7 l# Z0 k3 a' h2 E6 H. o0 n" z
Format profile                           : High@L4.1! Q9 f3 D" e/ v4 t; |
Format settings, CABAC                   : Yes5 n: N$ |/ S1 k" r; W& x3 O; l
Format settings, ReFrames                : 4 frames
. o; ~3 [# n$ B7 U5 v  ZCodec ID                                 : V_MPEG4/ISO/AVC! L# I0 W. {7 W3 f' ?+ q
Duration                                 : 1h 8mn
( _+ Q& \+ \# N" [) HBit rate                                 : 11.5 Mbps" g+ M5 s& j0 N1 t
Width                                    : 1 920 pixels) X' R5 p5 |* y/ D% S7 I
Height                                   : 800 pixels
$ K5 M0 b6 O+ d3 F3 _3 x' S% xDisplay aspect ratio                     : 2.40:1; x6 n5 N" E  X( P1 C# l
Frame rate mode                          : Constant
7 g$ g8 a, b/ C5 Z' C- aFrame rate                               : 23.976 (24000/1001) fps5 e  V6 e! F3 y; B$ y
Color space                              : YUV
8 P5 d) {0 z. E# P& Q9 q; O5 dChroma subsampling                       : 4:2:0
0 q3 l8 q" z# [0 K! i# v" W; uBit depth                                : 8 bits+ b. D6 f1 b* M1 Z" m6 H
Scan type                                : Progressive
( R0 S8 g" G# MBits/(Pixel*Frame)                       : 0.312/ n3 ?# S5 N  P# L
Stream size                              : 5.39 GiB (95%)
) S8 ]9 ^. y! d* `: W7 `! [+ [0 p1 M+ KTitle                                    : Rogue.One.2016.BONUS.DISC.1080p.BluRayCD.x264.DD2.0-FGT
+ l3 I0 N! m1 K2 f5 `, t1 l, V% sWriting library                          : x264 core 148 r2601 a0cd7d3* b8 x, I/ O1 }2 P% G( E
Encoding settings                        : cabac=1 / ref=4 / deblock=1:-2:-2 / analyse=0x3:0x113 / me=umh / subme=7 / psy=1 / psy_rd=1.00:0.15 / mixed_ref=1 / me_range=16 / chroma_me=1 / trellis=1 / 8x8dct=1 / cqm=0 / deadzone=21,11 / fast_pskip=1 / chroma_qp_offset=-3 / threads=40 / lookahead_threads=3 / sliced_threads=0 / nr=0 / decimate=1 / interlaced=0 / bluray_compat=0 / constrained_intra=0 / bframes=3 / b_pyramid=2 / b_adapt=2 / b_bias=0 / direct=3 / weightb=1 / open_gop=0 / weightp=2 / keyint=250 / keyint_min=25 / scenecut=40 / intra_refresh=0 / rc_lookahead=50 / rc=abr / mbtree=1 / bitrate=11500 / ratetol=1.0 / qcomp=0.60 / qpmin=0 / qpmax=69 / qpstep=4 / vbv_maxrate=31250 / vbv_bufsize=31250 / nal_hrd=none / filler=0 / ip_ratio=1.40 / aq=1:1.00
, S- C1 V) ]  X( K+ ~. eLanguage                                 : English
* ~# e) E5 }- J  j, o4 a2 _2 D4 z" e! `Default                                  : Yes
0 ^/ @( o/ j  q# A* r! q( a4 SForced                                   : No
: Q: Z! A' E4 O* R2 F' w1 u& m" A9 ?
Audio; H* l& o3 y1 o1 {6 F; ^. L; K
ID                                       : 2
2 j2 c) n% E( a% g% tFormat                                   : AC-3" i) H# t; S5 J5 N- l
Format/Info                              : Audio Coding 3
! K- p) e5 G9 @, c0 e4 bMode extension                           : CM (complete main)$ C, H$ A1 b$ Y2 E: x
Format settings, Endianness              : Big- j( _% M4 `; O
Codec ID                                 : A_AC3. l5 d  H% `; c- d$ l( b: G
Duration                                 : 1h 8mn- X8 D( P' z# C1 f9 Y7 H" _" b
Bit rate mode                            : Constant8 Q4 P0 E) a# k( U# b) P6 h9 l
Bit rate                                 : 320 Kbps8 X+ v" P) i. ]# p! |6 y
Channel(s)                               : 2 channels9 @# D* ^5 e3 ^$ O0 u$ F% e. z
Channel positions                        : Front: L R
9 j* @. A$ F& q0 [9 \Sampling rate                            : 48.0 KHz
6 K3 h3 p0 ~3 T) B- lFrame rate                               : 31.250 fps (1536 spf)
6 x& ]3 ?$ e9 e) \: l- TCompression mode                         : Lossy' ]; l  b9 x+ P- g9 `& |- e
Stream size                              : 158 MiB (3%)8 R) T9 c) r! d# x$ {% O9 }, [5 {
Title                                    : Rogue.One.2016.BONUS.DISC.1080p.BluRaycd.x264.DD2.0-FGT1 H: C  G) F9 W9 e- D- r
Language                                 : English
! Z$ ^1 k, ]/ |, }) c3 kDefault                                  : Yes
! ^+ Y$ v$ N) V2 N' z& vForced                                   : No3 S9 q1 v- Y0 c6 m$ G/ {

8 b# b, {7 `, j5 ?$ B4 u- nText2 J6 R" F* W4 F, @9 M' z# m
ID                                       : 3
: i, r2 W4 C6 s! lFormat                                   : UTF-8
* {4 S$ Z8 J, W$ ~7 m$ E1 I9 WCodec ID                                 : S_TEXT/UTF89 S' w7 W/ {% M; W5 d
Codec ID/Info                            : UTF-8 Plain Text
4 M" Q% Y0 J; `$ X1 D# BTitle                                    : Rogue.One.2016.BONUS.DISC.1080p.BluRaycd.x264.DD2.0-FGT$ R2 K2 w( H7 ]% ?. J
Language                                 : English* D8 g! m8 n' h7 W. }
Default                                  : Yes3 C$ W5 L# k. B/ N# @) p, D
Forced                                   : No
4 I! D' Z' ^2 ~7 ?! Q% `% S6 `: S7 W% a% ~; u) t
Menu
& l8 K; X# C7 S# M. \4 y3 ^00:00:00.000                             : en:Chapter 01  |/ r  d/ a) {: R2 Z# j
00:09:00.540                             : en:Chapter 021 ^" A# i- T  x: f7 o
00:15:16.916                             : en:Chapter 032 v4 n' C* k+ J
00:19:31.128                             : en:Chapter 04/ n( h* M5 {4 D% {. z
00:27:14.591                             : en:Chapter 05
3 ~. p( t+ J* l00:33:34.971                             : en:Chapter 06
4 m$ v  y3 S  e! d4 H- s6 O00:42:10.486                             : en:Chapter 078 X1 ^; p* N# F2 {0 }( k, j
00:50:28.984                             : en:Chapter 08
& ~) R* m/ C  K+ G$ j  U00:58:53.488                             : en:Chapter 09
) x- q- L- G1 A& g, B+ e5 j+ F01:04:42.795                             : en:Chapter 10

: s) U$ v# W0 A0 L
游客,查看本帖隐藏内容请回复 | 加入VIP贵宾组可免积分免回复下载 立即了解 | 还不是会员:点击获取邀请码 Invitation Code

本版积分规则

小黑屋|Archiver|蓝光电影资源网

GMT+8, 2020-7-16 22:04

快速回复 返回顶部 返回列表