BluRayCD Forum

 找回密码
 立即注册【分享大片】

QQ登录

只需一步,快速开始

查看: 18|回复: 1
收起左侧

[科教记录] 星球大战外传:侠盗一号 [花絮碟] Rogue One 2016 BONUS DISC 720p BluRaycd x264 DD2.0-FGT 2.78GB

[复制链接]

3658

主题

4021

帖子

3万

积分

Post Share

金币
6560 枚
体力
5994 点

卓越贡献勋章

mvods 发表于 2020-4-25 19:46:51 | 显示全部楼层 |阅读模式
01.jpg
5 [  l" u! k5 g8 V+ A' d% p1 |5 I5 n2 v2 o" y1 o% v8 b
◎译  名 星球大战外传:侠盗一号/侠盗一号/星战外传1/侠盗一号:星球大战外传/星球大战:侠盗一号/罗格一号
; R: J1 W6 h7 V  S9 \◎片  名 Rogue One: A Star Wars Story
& S+ e4 f1 _. E9 v% g◎年  代 2016
# _8 w/ t) @0 N, T◎国  家 美国
1 k1 A- U7 h7 D. i6 s; G/ \◎类  别 动作/科幻/冒险
; n$ ?7 C$ I2 t3 }◎语  言 英语
$ l; `) `1 @/ c. Q5 \1 x4 Z* o◎上映日期 2016-12-16(美国)/2017-01-06(中国大陆)' S- Z2 S9 Y. B
◎IMDb评分 8.0/10 from 263,544 users) ?! U# b* a( i# Z3 C  {
◎IMDb链接 http://www.imdb.com/title/tt3748528/
$ @" N4 U4 b9 k" j. z, K◎豆瓣评分 7.3/10 from 82,356 users
0 n! y7 D: ^. @◎豆瓣链接 https://movie.douban.com/subject/25894431/
( c2 g; k9 x. m4 v% m◎片  长 1h 8mn
& K8 ?! F/ u3 E◎导  演 加里斯·爱德华斯 Gareth Edwards
( Q. C4 _' u4 e8 f' g0 F& r! t◎主  演 费莉西蒂·琼斯 Felicity Jones
8 A9 Q6 E: Z7 \8 ]      迭戈·鲁纳 Diego Luna
1 `4 b5 i1 S. I' t# p. u      甄子丹 Donnie Yen
; N. |* {7 k; e7 L7 I- n      本·门德尔森 Ben Mendelsohn/ q4 P/ \; K3 E/ Q. o) L9 l6 ]2 y
      麦斯·米科尔森 Mads Mikkelsen6 K& N) U) m. ^6 T: |
      艾伦·图代克 Alan Tudyk8 K: I% x1 J1 [1 I
      福里斯特·惠特克 Forest Whitaker) p: t/ {4 X# I# X3 I3 Y' M
      姜文 Wen Jiang
7 M1 D7 j4 U2 \; r% f" a, l3 U4 E- r6 z      里兹·阿迈德 Riz Ahmed& E" U5 c- G+ R, Z/ t# ], ^
      乔纳森·阿里斯 Jonathan Aris
7 x/ S4 c. Y: a: l! y      尤妮斯·奥卢米德 Eunice Olumide
+ H) V* Q5 \/ K5 R& _* F      克莱尔·陈 Claire Tran
! P+ ]% a6 m8 ~' d  x+ ^      吉米·斯密茨 Jimmy Smits& Y, _, I# Y: A
      沃维克·戴维斯 Warwick Davis: I- {+ {4 J( O: v2 c) r+ q
      马克·普雷斯顿 Mark Preston
3 f! f% Q; P- Q$ b+ _6 Y      吉娜薇·欧瑞丽 Genevieve O'Reilly  Z* A# N! [4 m# S2 b0 }+ q3 F+ O
      詹姆斯·厄尔·琼斯 James Earl Jones
# n9 C9 K$ ?+ T- b$ s& [8 F& g$ k# O" u! t9 k- w  K# r2 x
◎简  介
* e3 v+ S! r1 Y
2 ?, k+ W. P: M) x  这是一个战火频燃、纷争不断的动荡时代,一群有志之士集结在一起,计划盗走帝国大规模杀伤性武器“死星”的设计图。这个在《星球大战》系列里非常著名的重点事件 ,让一群平凡普通人结成了同盟,决定为世界的改变做出贡献;而在绝密行动的进行中,他们也逐渐成长为顶天立地的英雄。
; w0 ~' l. }! ~% q+ L3 G% F5 b
Video
# r0 q& P" W8 d! G" HID                                       : 1; k9 I# y8 m0 l+ r: d
Format                                   : AVC
1 F4 Y% y4 {5 h1 l& q* ^Format/Info                              : Advanced Video Codec2 z) f5 m3 M- ~
Format profile                           : High@L4.1% n8 z, |+ R( W4 R' N
Format settings, CABAC                   : Yes
% s4 \7 C# i  W  Y* l  e5 S' TFormat settings, ReFrames                : 4 frames8 g' I" b4 `0 y
Codec ID                                 : V_MPEG4/ISO/AVC+ @5 a0 ?, _( b- ~4 v* ?
Duration                                 : 1h 8mn( C3 O+ W: G# O5 w0 q2 H
Bit rate                                 : 5 500 Kbps
, V* q1 v; X( {' T" y8 lWidth                                    : 1 280 pixels
2 M3 e  h  U/ d) ^3 YHeight                                   : 534 pixels
" P! a6 d* I# @! S/ R: PDisplay aspect ratio                     : 2.40:1* @9 n* ^7 x1 B5 I1 p
Original display aspect ratio            : 2.40:1- Q2 P; e" R  Q
Frame rate mode                          : Constant
$ z; b9 b5 q! \& k+ H) YFrame rate                               : 23.976 (24000/1001) fps6 u; `4 s  ^* h$ \7 g& B4 @* M
Color space                              : YUV
, t! g$ w6 N* d! s- N) `9 h% _" NChroma subsampling                       : 4:2:0: C* w) t0 A1 {  w4 j
Bit depth                                : 8 bits9 h$ k0 y7 c- @- _5 f
Scan type                                : Progressive
$ n# J1 s6 b! E; [" V$ s; `& ^Bits/(Pixel*Frame)                       : 0.336! ?' C+ v5 ~; @7 K$ h& {! o
Stream size                              : 2.57 GiB (92%)0 y  i9 C! y( t4 i0 y
Title                                    : Rogue.One.2016.BONUS.DISC.720p.BluRayCD.x264.DD2.0-FGT
, a5 [! k( K* A! k: lWriting library                          : x264 core 148 r2601 a0cd7d3! Y, m; t  B  F& s) I
Encoding settings                        : cabac=1 / ref=4 / deblock=1:-2:-2 / analyse=0x3:0x113 / me=umh / subme=7 / psy=1 / psy_rd=1.00:0.15 / mixed_ref=1 / me_range=16 / chroma_me=1 / trellis=1 / 8x8dct=1 / cqm=0 / deadzone=21,11 / fast_pskip=1 / chroma_qp_offset=-3 / threads=40 / lookahead_threads=3 / sliced_threads=0 / nr=0 / decimate=1 / interlaced=0 / bluray_compat=0 / constrained_intra=0 / bframes=3 / b_pyramid=2 / b_adapt=2 / b_bias=0 / direct=3 / weightb=1 / open_gop=0 / weightp=2 / keyint=250 / keyint_min=25 / scenecut=40 / intra_refresh=0 / rc_lookahead=50 / rc=abr / mbtree=1 / bitrate=5500 / ratetol=1.0 / qcomp=0.60 / qpmin=0 / qpmax=69 / qpstep=4 / vbv_maxrate=31250 / vbv_bufsize=31250 / nal_hrd=none / filler=0 / ip_ratio=1.40 / aq=1:1.00
9 e0 U  I  G0 O7 p: E! x0 I0 ~) t& RLanguage                                 : English
  _8 D, ?7 K" g9 y' m1 U8 `Default                                  : Yes% j: X; M) D4 q; Q
Forced                                   : No
* b; K0 O/ c' Q/ A: f: o! t% _) j0 ]1 J( c8 ^
Audio" d) z0 M" O: }+ x* w1 `0 g& h* W' _3 H
ID                                       : 2
3 v, ?+ X5 [; L" WFormat                                   : AC-3
' K- G% o+ \- hFormat/Info                              : Audio Coding 3
$ ~# E6 p4 O% O0 ~! a3 D) Y" j; b/ XMode extension                           : CM (complete main)
4 p6 W7 C7 q9 ?/ H$ j: }Format settings, Endianness              : Big
6 I" C6 i, \% i4 G1 e/ s3 bCodec ID                                 : A_AC3
2 `/ I( g$ {& U1 PDuration                                 : 1h 8mn
% a. S( S$ D3 R0 y4 m9 s3 PBit rate mode                            : Constant
% |' ^$ n' b" `. t! qBit rate                                 : 320 Kbps
( k6 ^% a( a2 X/ P0 [. B4 lChannel(s)                               : 2 channels
4 a% L& Z/ L0 F( l2 S# DChannel positions                        : Front: L R$ t+ {0 U. R0 i. H! X/ K
Sampling rate                            : 48.0 KHz
$ R+ h: I+ g6 @. Z' I( CFrame rate                               : 31.250 fps (1536 spf)
) B2 _6 X* c# _; x3 rCompression mode                         : Lossy8 h  O* v. L7 e
Stream size                              : 158 MiB (6%); P. i+ G3 K0 Q5 X6 t% X9 ^
Title                                    : Rogue.One.2016.BONUS.DISC.720p.BluRaycd.x264.DD2.0-FGT) }: [' Y, l8 M( F( T4 I4 K$ Q
Language                                 : English; ]" w: M" m6 o  ^( r
Default                                  : Yes
# ^3 u& D2 M' ~# c" u7 w! ?, ZForced                                   : No
' s$ j1 H8 d# \4 C* i" \7 @% [8 _# a' N7 z6 X( M
Text1 I! w* X& ^1 q/ ]% s! p' v( s9 K
ID                                       : 3
) l+ t- ^& [% Q' RFormat                                   : UTF-8& Y8 l: ^0 u3 M* S( N5 |
Codec ID                                 : S_TEXT/UTF8" C. Z, l+ q; j' r5 Q+ T
Codec ID/Info                            : UTF-8 Plain Text* d. N1 e8 F  h( C0 Q# \* k
Language                                 : English: }" P- \0 d% A
Default                                  : Yes& f" j' D" X& i* f/ R
Forced                                   : No
2 @/ ^& h, A; \! Z5 w
) K3 N: N# T9 e! T) _8 Q% B/ \Menu
% W3 X* d) g3 @( Z5 u! @7 _00:00:00.000                             : en:Chapter 01
& k3 d. V/ K  I4 O0 v00:09:00.540                             : en:Chapter 02
& d2 F# |" b& t% ^4 T00:15:16.916                             : en:Chapter 03
2 I6 W; J- n9 k' g( T00:19:31.128                             : en:Chapter 04
7 F$ g7 U3 W+ |- X+ t00:27:14.591                             : en:Chapter 058 v& ^  H6 a& {" t1 K
00:33:34.971                             : en:Chapter 06
; b/ X# r" o* e+ G4 L. m* Z00:42:10.486                             : en:Chapter 07
! P+ Q8 [/ i- q, b" _$ {4 s00:50:28.984                             : en:Chapter 08
+ g3 e' O# v9 ^. ]00:58:53.488                             : en:Chapter 090 M7 q' y4 Z# I2 N7 B% K# `/ B; U, b
01:04:42.795                             : en:Chapter 10
9 `) `% y, W9 z' p0 Z' Q; `$ m
游客,查看本帖隐藏内容请回复 | 加入VIP贵宾组可免积分免回复下载 立即了解 | 还不是会员:点击获取邀请码 Invitation Code

2

主题

644

帖子

2763

积分

Sponsor

金币
598 枚
体力
951 点
tto138 发表于 2020-4-26 19:18:56 | 显示全部楼层
每天都来蓝光论坛看看,我爱蓝光电影。
9 A' Z' _6 R+ m6 T8 }要想蓝光电影论坛发展好,资源多,就靠你我他!To the development of Blu-ray movies forum, resources and more depend on you and me!
* ]/ X" m1 ]; o' v6 b6 q/ {

本版积分规则

小黑屋|Archiver|蓝光电影资源网

GMT+8, 2020-7-16 21:32

快速回复 返回顶部 返回列表