BluRayCD Forum

 找回密码
 立即注册【分享大片】

QQ登录

只需一步,快速开始

查看: 13|回复: 0
收起左侧

[2160P极清] 野性的呼唤/荒野的呼唤 [4K HDR高码版] The Call of the Wild 2020 2160p UHD BluRaycd X265 10bit HDR TrueHD 7.1 Atmos-TERMiNAL 15.74GB

[复制链接]

4335

主题

4496

帖子

5万

积分

Post Share

金币
8062 枚
体力
16227 点

卓越贡献勋章

黄金嫖客 发表于 2020-5-19 22:21:46 | 显示全部楼层 |阅读模式

, y) d/ X. W& D$ Y
5 E& R' k+ i3 u) H◎片  名 The Call of the Wild
2 V- l# D( x) K! f8 t◎译  名 野性的呼唤/荒野的呼唤/极地守护犬(港/台)/绝境长征
& D, T7 q0 g8 u! i  R. b( V! c" X◎年  代 2020& y# ^8 b0 f! F- M( o! j
◎产  地 美国/加拿大/ e# `! Q. g5 K) x/ r$ C
◎类  别 剧情/冒险( r* J. x0 g) G& y
◎语  言 英语/法语
7 K) L+ w! g( Z◎上映日期 2020(中国大陆)/2020-02-21(美国)$ E5 n4 t- v5 Y3 W0 X) r
◎IMDb评分 6.8/10 from 21,424 users
1 t( j2 \8 I: M1 n0 J) f+ M◎IMDb链接 https://www.imdb.com/title/tt7504726/
$ S  q% ~. k4 J. t% H2 C% M5 s◎豆瓣评分 7.1/10 from 12,119 users
. s1 I" s5 ?( E+ Q. y/ M( J◎豆瓣链接 https://movie.douban.com/subject/27199324/- c* W6 V0 \' ]9 R* A
◎片  长 1 h 39 min! s/ t6 `5 T7 [$ t1 n
◎导  演 克里斯·桑德斯 Chris Sanders: d" ~# v( c  A/ ?# o  S
◎编  剧 迈克尔·格林 Michael Green
6 z. C5 |7 Y, S* o3 h; A; I* M       杰克·伦敦 Jack London
- J/ p  ^  ?' `* y/ K◎主  演 哈里森·福特 Harrison Ford
; J. V4 h5 T, H- L- M) U) f' O6 O# [       丹·史蒂文斯 Dan Stevens
' \. t* b. M! h       凯伦·吉兰 Karen Gillan
  ]" t; |0 W: w) U  {  i       布莱德利·惠特福德 Bradley Whitford
  K. S# P6 M0 P6 s4 x! r       珍·路易莎·凯利 Jean Louisa Kelly
7 J8 A4 R: h8 v       泰瑞·诺塔里 Terry Notary
4 f$ V7 {1 e. _5 I6 \       卡卡琪 Cara Gee, O) C8 A* z  `; K
       奥玛·希 Omar Sy
& O+ z6 A, T! E4 U% _       科林·伍德尔 Colin Woodell
' {! r# U0 D  G' Q" S       韦斯·布朗 Wes Brown
; @. ~. G/ h. Z8 J9 V$ U* {       安东尼·莫利纳利 Anthony Molinari
7 O  c( L8 Q  o3 C9 ~       布拉德·格林奎斯特 Brad Greenquist, L: g# K1 l- n+ U$ Z  Z
       亚当·弗格斯 Adam Fergus* B. [  U" k+ U% S# C' \5 w
       阿莱克斯·索洛维茨 Alex Solowitz. s0 p& C$ W  H) Q5 @. b
       卡尔·马金恩 Karl Makinen
, n# u" x9 \; L+ m& T- \) r* ?3 C- P7 E4 H       希瑟·麦克普什 Heather McPhaul0 Y6 R7 Y7 W0 d* ?. a1 K2 s
       哈尔·戴恩 Hal Dion2 E1 B; W# J' x( @0 Q9 m
       G·拉里·巴特勒 G. Larry Butler
. M; ]4 o" f4 v$ p, Z( w       桑蒂尔·亚历克西斯·瓦奎兹 Shantiel Alexis Vazquez
3 r1 R2 G6 O3 A% b4 m3 N6 N       特洛伊·迪林格 Troy Dillinger
8 W0 r: k9 P" O1 d6 q+ m; x1 T8 B: O! Y' m# g7 K* i' ]# y
◎简  介  3 Y# @: m3 w& E( K* o5 C
& |# a; [+ C: Q. b
  影片改编自杰克·伦敦同名小说,导演克里斯·桑德斯([疯狂原始人]),编剧迈克尔·格林[(异形:契约])。该片以克朗岱克淘金热为背景,围绕淘金者约翰·桑顿(福特饰)的历险故事展开。 % N$ h8 F) L( }% j" ^

- ]4 I- M# {+ ^  A sled dog struggles for survival in the Alaskan wild.
  \% G" Y( C/ ~$ \7 Z3 b7 @+ P( }. J# `, S; u( Q, v. E
Video
) T! D3 H) r7 R! E4 R; s" CID                                       : 1
, d2 B+ ^0 z- B; u  vFormat                                   : HEVC
+ f% ~3 |3 S9 q$ p, X0 ~. YFormat/Info                              : High Efficiency Video Coding
5 p0 v2 x" j* E6 `, N$ N2 _& QFormat profile                           : Main 10@L5.1@High: w! K% A# E* ]0 Y/ B
HDR format                               : SMPTE ST 2086, HDR10 compatible
  G+ B. S" m2 r- M, `  uCodec ID                                 : V_MPEGH/ISO/HEVC
- d* U: \. k- i# G& A8 f( aDuration                                 : 1 h 39 min
. ]; U+ |/ O' ~6 O- mBit rate                                 : 13.5 Mb/s
: [% @1 J$ e) M  h% R2 U4 _) HWidth                                    : 3 840 pixels, G4 P3 e$ B" x% v7 o3 N
Height                                   : 1 604 pixels  M9 x# s$ ^( t: Y- _9 i
Display aspect ratio                     : 2.40:1# f; y9 b4 [9 P5 m# X
Frame rate mode                          : Constant
9 Q6 b# \$ z7 \Frame rate                               : 23.976 (24000/1001/37687) FPS9 u5 _7 d! f7 o- e
Color space                              : YUV& V  q  o* `1 D% Z4 }+ M3 M
Chroma subsampling                       : 4:2:0 (Type 2)7 b+ ]; Q& T' V2 |/ Y4 j/ e
Bit depth                                : 10 bits
8 u( B9 b7 {+ S* E3 _5 iBits/(Pixel*Frame)                       : 0.092
2 w6 Q4 {( f; T2 N7 E2 rStream size                              : 9.43 GiB (61%)
2 q" D2 R) s3 r* eWriting library                          : x265 3.3+21-6bb2d88029c2:[Windows][GCC 10.0.1][64 bit] 10bit
2 O! O0 I/ X, c% A# \5 D9 XEncoding settings                        : cpuid=1176575 / frame-threads=5 / numa-pools=36 / wpp / no-pmode / no-pme / no-psnr / no-ssim / log-level=2 / input-csp=1 / input-res=3840x1604 / interlace=0 / total-frames=143404 / level-idc=51 / high-tier=1 / uhd-bd=0 / ref=4 / no-allow-non-conformance / repeat-headers / annexb / aud / hrd / info / hash=0 / no-temporal-layers / open-gop / min-keyint=23 / keyint=250 / gop-lookahead=0 / bframes=4 / b-adapt=2 / b-pyramid / bframe-bias=0 / rc-lookahead=25 / lookahead-slices=4 / scenecut=40 / hist-scenecut=0 / radl=0 / no-splice / no-intra-refresh / ctu=64 / min-cu-size=8 / rect / no-amp / max-tu-size=32 / tu-inter-depth=1 / tu-intra-depth=1 / limit-tu=0 / rdoq-level=2 / dynamic-rd=0.00 / no-ssim-rd / signhide / no-tskip / nr-intra=0 / nr-inter=0 / no-constrained-intra / strong-intra-smoothing / max-merge=3 / limit-refs=3 / limit-modes / me=3 / subme=3 / merange=57 / temporal-mvp / no-frame-dup / no-hme / weightp / no-weightb / no-analyze-src-pics / deblock=-3:-3 / no-sao / no-sao-non-deblock / rd=4 / selective-sao=0 / no-early-skip / rskip / no-fast-intra / no-tskip-fast / no-cu-lossless / no-b-intra / no-splitrd-skip / rdpenalty=0 / psy-rd=2.00 / psy-rdoq=1.00 / no-rd-refine / no-lossless / cbqpoffs=0 / crqpoffs=0 / rc=crf / crf=14.0 / qcomp=0.60 / qpstep=4 / stats-write=0 / stats-read=0 / vbv-maxrate=160000 / vbv-bufsize=160000 / vbv-init=0.9 / crf-max=0.0 / crf-min=0.0 / ipratio=1.40 / pbratio=1.30 / aq-mode=2 / aq-strength=1.00 / cutree / zone-count=0 / no-strict-cbr / qg-size=32 / no-rc-grain / qpmax=69 / qpmin=0 / no-const-vbv / sar=1 / overscan=0 / videoformat=5 / range=0 / colorprim=9 / transfer=16 / colormatrix=9 / chromaloc=1 / chromaloc-top=2 / chromaloc-bottom=2 / display-window=0 / master-display=G(8500,39850)B(6550,2300)R(35400,14600)WP(15635,16450)L(10000000,1) / cll=0,0 / min-luma=0 / max-luma=1023 / log2-max-poc-lsb=8 / vui-timing-info / vui-hrd-info / slices=1 / no-opt-qp-pps / no-opt-ref-list-length-pps / no-multi-pass-opt-rps / scenecut-bias=0.05 / hist-threshold=0.01 / no-opt-cu-delta-qp / no-aq-motion / hdr10 / hdr10-opt / no-dhdr10-opt / no-idr-recovery-sei / analysis-reuse-level=0 / analysis-save-reuse-level=0 / analysis-load-reuse-level=0 / scale-factor=0 / refine-intra=0 / refine-inter=0 / refine-mv=1 / refine-ctu-distortion=0 / no-limit-sao / ctu-info=0 / no-lowpass-dct / refine-analysis-type=0 / copy-pic=1 / max-ausize-factor=1.0 / no-dynamic-refine / no-single-sei / no-hevc-aq / no-svt / no-field / qp-adaptation-range=1.00 / no-scenecut-aware-qpconformance-window-offsets / right=0 / bottom=0 / decoder-max-rate=0
3 T; d" E* I4 y$ ~9 GDefault                                  : Yes
, i2 K4 V, N/ |5 S$ iForced                                   : No
' {! E8 F; T, _& uColor range                              : Limited
7 F* M9 c/ G  W3 z1 CColor primaries                          : BT.2020+ Y- G1 O# g# U6 e/ Y8 O
Transfer characteristics                 : PQ8 C' T9 \* Z5 U  @
Matrix coefficients                      : BT.2020 non-constant
6 S6 P4 S+ \( ?) @8 C( J- |9 ~Mastering display color primaries        : BT.2020
) [, s$ W. |9 A) ]7 cMastering display luminance              : min: 0.0001 cd/m2, max: 1000 cd/m2
! n9 z4 N7 L1 Y7 U0 W8 z, k3 Z5 u# T3 r+ c- C" Y4 }
Audio #1
* G$ r! ]$ @" T7 m% W" FID                                       : 2+ {; l) J+ ]7 y7 t# X; L
Format                                   : MLP FBA 16-ch3 i7 i6 v7 y* n. c# V: @+ Z
Format/Info                              : Meridian Lossless Packing FBA with 16-channel presentation$ V8 u* H" l5 E1 V
Commercial name                          : Dolby TrueHD with Dolby Atmos7 j+ \3 X- G+ S1 b+ @
Codec ID                                 : A_TRUEHD
% {. r+ Z4 `0 U6 Q" UDuration                                 : 1 h 39 min1 Q# @  y8 n3 U* r: x
Bit rate mode                            : Variable, |  u% u9 ]9 }0 Q% ]
Bit rate                                 : 8 045 kb/s" [8 v: A3 M' ?/ u+ V
Maximum bit rate                         : 12.5 Mb/s0 U  c& h9 G% S% {0 M; Z
Channel(s)                               : 8 channels  a0 j' l  y( Q8 O8 u
Channel layout                           : L R C LFE Ls Rs Lb Rb0 Q& H/ Y5 Z! \, M% |
Sampling rate                            : 48.0 kHz! H4 B# h/ a$ m, n1 s5 p0 S  e
Frame rate                               : 1 200.000 FPS (40 SPF)
0 _& N- W1 `4 XCompression mode                         : Lossless
; |) J* _+ t- U7 h' Y9 U/ rStream size                              : 5.60 GiB (36%)0 m3 T! B- c- I* g
Language                                 : English
% V2 r4 B( \& O# FDefault                                  : Yes5 u' H% j6 e. h: ^0 N* T
Forced                                   : No9 I" L; I; ^. {0 b9 e) `" p7 C4 H' R
Number of dynamic objects                : 13
3 W" \8 y+ v0 \' T& lBed channel count                        : 1 channel
# F/ L' h" H3 qBed channel configuration                : LFE3 T" f+ D: C9 P& D2 }; j: a  Z
7 h' W. _# v) Q) K- y! I% |; L+ C* y
Audio #2) ^5 [6 q$ W% s# X
ID                                       : 3
, q; {1 N% i; V2 I3 [" g9 c  ]Format                                   : AC-34 d% B' m) L2 B$ P
Format/Info                              : Audio Coding 3
6 F7 N- s- C# gCommercial name                          : Dolby Digital
! y. |% z) p- [. P  M# NCodec ID                                 : A_AC36 J4 v1 z/ |$ X6 T; Z
Duration                                 : 1 h 39 min9 s9 b5 J( w: M/ S% a
Bit rate mode                            : Constant9 U; G& u% m# E/ g
Bit rate                                 : 640 kb/s
5 T0 {  t- z" v- WChannel(s)                               : 6 channels
4 E6 D1 F; L/ G, I0 IChannel layout                           : L R C LFE Ls Rs
" L1 \; b( u4 G3 _& @+ qSampling rate                            : 48.0 kHz6 g9 t: k3 L% d8 ]$ ^$ @# p" `
Frame rate                               : 31.250 FPS (1536 SPF)
2 e; ~8 r/ e/ a+ c) U9 QBit depth                                : 16 bits
, `+ d% ?- B( w' LCompression mode                         : Lossy- [5 `1 f2 X7 U4 [+ ~4 O: l
Stream size                              : 456 MiB (3%)6 H( j$ Y3 n/ ?1 k
Language                                 : English
7 h" C& b' b! S: ^/ a% C" IService kind                             : Complete Main( M3 a* ?7 _2 e2 Q8 K; u
Default                                  : No
4 ]2 g& N8 Y5 Y0 pForced                                   : No7 _0 L, Z9 n; r: b

0 s4 m6 I8 V3 u% Q' LText #1; h6 c% Q/ O; E. Z: z) H, j
ID                                       : 4
: }% {7 |; N# t$ TFormat                                   : PGS' b' i5 [* B1 }% L
Muxing mode                              : zlib
% u% z, p* Y4 B* d" nCodec ID                                 : S_HDMV/PGS/ O: u6 W9 w. Q/ X( k
Codec ID/Info                            : Picture based subtitle format used on BDs/HD-DVDs+ f5 y7 }. g5 j. n" Q6 q
Duration                                 : 1 h 34 min% E+ x9 R% t. _2 R6 B0 Q
Bit rate                                 : 26.7 kb/s
, u& i, t, T- A1 ^# u. g* mCount of elements                        : 2500. _$ W0 N, m+ G$ x/ \
Stream size                              : 18.1 MiB (0%). t7 u+ N2 x) a& T) `
Title                                    : English SDH3 D. J+ U: k) {1 ^& n$ O/ K6 Z
Language                                 : English
, A- n( d$ ]! @! J$ Y6 ^9 M) T$ zDefault                                  : No, \3 D- |! x, g& u
Forced                                   : No5 t, A* T3 g! V: S! a3 O

" N7 a& ~# I& s+ U  IText #2# U$ h* t% X' u: L, h: c$ \3 q. J
ID                                       : 5
  j# T! _. I$ Q4 Z: `' S5 C1 dFormat                                   : PGS
# \6 Y: X$ e# K, s' z; d* _Muxing mode                              : zlib: d2 r! z% a/ m/ c' z
Codec ID                                 : S_HDMV/PGS2 c( {) r' m$ H( |* \6 y/ U2 q$ u" A
Codec ID/Info                            : Picture based subtitle format used on BDs/HD-DVDs
* H+ y/ a4 a- a% dDuration                                 : 1 h 38 min
2 G- ?% p; v# VBit rate                                 : 12.4 kb/s
, V& _3 t  W  i* S4 U0 G9 D' ~0 }Count of elements                        : 12809 C2 a) \9 o; m1 Z3 b
Stream size                              : 8.77 MiB (0%)
, w1 q' h' u8 M/ {3 T3 X: U8 kTitle                                    : French/ d0 _/ s+ e8 A# Q* E; r  r) y! V
Language                                 : French
( i) U% W/ D! ADefault                                  : No
8 N5 t& C7 z2 M4 o/ K# MForced                                   : No0 `3 j. h7 Y5 `9 g1 X8 x, y
% N* c0 e, D' a- ]0 z
Text #3
. M/ E8 V3 w; N* }% [; w" SID                                       : 6  Y& B2 n  w- w  ^4 j# \
Format                                   : PGS
) T- _3 I9 e% `9 [- Q4 LMuxing mode                              : zlib
" y& E5 u. i" E* d1 C( DCodec ID                                 : S_HDMV/PGS
  ]0 x5 s7 k6 W7 oCodec ID/Info                            : Picture based subtitle format used on BDs/HD-DVDs
: k) o- T8 ~/ y/ [; b6 L( QDuration                                 : 1 h 39 min: b  t6 z; m' e/ J# c3 L$ F
Bit rate                                 : 15.7 kb/s1 X. f# t: B" _8 W0 X
Count of elements                        : 1568
% ?: I/ z6 V* S1 c% ]! [: B* mStream size                              : 11.1 MiB (0%)
# V9 T0 g, V: P" Y  `( m0 TTitle                                    : French3 `6 E9 `4 s/ S$ R) T( _9 u
Language                                 : French9 V5 r, {, N" f
Default                                  : No$ a8 d. J# g/ a, D: v
Forced                                   : No
  R5 ]( g( _/ k: i, C3 r: [$ [3 U, j1 X# U; c: ?8 |% ^
Text #4! Q5 Z. l/ ^/ m: ?+ D* F) i* Z
ID                                       : 70 x. J+ w3 ]* N7 e& k0 X9 k6 F! P5 \. [
Format                                   : PGS
+ ^% o: H. p+ K0 F+ L, H% YMuxing mode                              : zlib  R. K4 Q4 m$ @! B1 g& Y
Codec ID                                 : S_HDMV/PGS
0 \) O) d# h) r4 cCodec ID/Info                            : Picture based subtitle format used on BDs/HD-DVDs) |# \7 P9 C2 x. W0 G7 E
Duration                                 : 1 h 38 min0 K' v3 ]4 h9 \: z% z! R
Bit rate                                 : 14.3 kb/s
5 s; C: D: k5 Q: l1 a. TCount of elements                        : 1536
  K6 j0 R( D$ _; l9 GStream size                              : 10.1 MiB (0%)
: C+ V  [: Q9 x1 q# |; M$ DTitle                                    : Spanish4 d' f( n9 L8 o6 r  ^! S) r
Language                                 : Spanish
2 ^, y. l( V, I% F$ B/ r7 _& V9 kDefault                                  : No
5 r$ ]1 Z: B3 ^9 |2 ?Forced                                   : No  ^: W* {! @) d/ P- l, [

5 p. {- ?* r+ s' o; K# UText #5
/ v" D' L; M  FID                                       : 87 U2 Q: d: m& |# ^
Format                                   : PGS
) \6 _2 I" I) \( e; @- Y* H" tMuxing mode                              : zlib" G8 v% w  D8 f; p1 T; o! Z
Codec ID                                 : S_HDMV/PGS
* `1 v8 w4 w  `% N; {Codec ID/Info                            : Picture based subtitle format used on BDs/HD-DVDs
5 y( _2 n. F$ H- d4 q: l+ eDuration                                 : 1 h 38 min5 S. `6 j  ~& f
Bit rate                                 : 15.7 kb/s
+ i9 G  U$ Q3 Q& n/ [6 G! YCount of elements                        : 1452* A) u+ t' P9 |5 e7 W) o
Stream size                              : 11.1 MiB (0%)! Z2 z2 |$ H# @' o
Title                                    : German. w3 W3 w1 H8 z
Language                                 : German! d3 H5 V; |* \8 Z2 L1 L$ U, G6 V
Default                                  : No
* ?" V7 }- K7 w6 z/ `Forced                                   : No
2 b7 Y! z& ?7 O( _3 @0 f+ ^$ l: U2 y& x  i- z
Text #6
$ ~2 @" k. A, \' C& f- {0 gID                                       : 9
$ O$ x1 ?8 w% p* n  B' s6 QFormat                                   : PGS
6 m* J/ a& \+ v8 K. `Muxing mode                              : zlib5 d/ }+ [* ~& J6 y1 n9 d0 u
Codec ID                                 : S_HDMV/PGS! r) ~* v, y+ {
Codec ID/Info                            : Picture based subtitle format used on BDs/HD-DVDs/ n, D5 Z1 G6 e$ @
Duration                                 : 1 h 38 min9 X& ^$ _) \; U0 D1 X
Bit rate                                 : 12.4 kb/s5 T! W* O3 C! Z( D* f2 A
Count of elements                        : 1308
) d' G5 I1 q: QStream size                              : 8.76 MiB (0%)
7 Y: q) A: T) j( o  K7 D; LTitle                                    : Japanese
# R4 Q8 u. [- r: D; J$ a* CLanguage                                 : Japanese7 l) z- k# U6 k0 K% m" y# g
Default                                  : No
# i0 i, n! {* ~3 ^Forced                                   : No) o2 U2 s5 I; n* W  F

' j0 x& g7 y1 x$ xText #7
/ I0 E5 a, w. [/ C; H3 s0 {ID                                       : 10
1 Q- ^. v' R  f$ s" P! RFormat                                   : PGS' e3 t1 `4 j2 Z- O. F
Muxing mode                              : zlib
" k* D4 _8 h" I/ o' {- m/ fCodec ID                                 : S_HDMV/PGS. x! ~/ d" x4 f. ]
Codec ID/Info                            : Picture based subtitle format used on BDs/HD-DVDs
( r: q5 P6 M2 {3 a2 a3 d5 L) O! M& pDuration                                 : 4 s 755 ms9 R* c1 \( {% n7 M
Bit rate                                 : 20.7 kb/s  F% e7 ?1 d+ ?
Count of elements                        : 2$ Y1 V, A; l; f/ q
Stream size                              : 12.0 KiB (0%)
; N8 t$ q; L% V5 w, J$ H" V5 gTitle                                    : French# o) M9 V! c; v: _% z9 K
Language                                 : French
3 }( ]- z/ z9 {: D! V+ ODefault                                  : No
% w" X0 {9 L8 ~8 }2 j7 x1 d' [8 yForced                                   : No! M6 |6 F" V" {5 y9 ]1 i* \

! P/ s# J- c. N( \' P" q3 f% eText #8( M9 J) U! U8 x/ Z  G5 g5 ?
ID                                       : 11
6 W! Q# Q! I# }2 A7 p( x: E4 K3 \Format                                   : PGS
4 a; r9 w+ X+ Z2 A( S1 ?Muxing mode                              : zlib( ~1 ]* m8 x# h+ q5 z  P! G
Codec ID                                 : S_HDMV/PGS$ k8 c4 K5 b6 A) Q# c
Codec ID/Info                            : Picture based subtitle format used on BDs/HD-DVDs
4 _9 [% n: J6 F2 p5 g. u- ^& j0 vDuration                                 : 1 h 32 min2 v  h1 O4 J: V
Bit rate                                 : 340 b/s  \7 {8 C: a) c: H
Count of elements                        : 34
1 T  {+ _/ T5 \7 d+ u  ~+ `Stream size                              : 231 KiB (0%)4 P* n- i2 l( ?- Q3 ^
Title                                    : French
6 v4 p. R# C9 R! w% a' |/ ?Language                                 : French
1 |. M* S  H0 |Default                                  : No
+ g. E. o& k/ y, B9 q; O( IForced                                   : No
7 w) S$ U7 j! v. n8 p% u* Q- m! v3 F
Text #9' e; Z# \7 z* j$ f+ Y. E8 T
ID                                       : 12
# P8 [( N1 Q% @8 z7 F  o* |Format                                   : PGS
1 P: b1 n3 w9 j' M  s% C( M0 `, _# HMuxing mode                              : zlib7 V0 j/ K* H! w8 G! K6 t( z5 q
Codec ID                                 : S_HDMV/PGS& e2 R7 m+ ?8 ~0 n3 T) d4 m6 W" g
Codec ID/Info                            : Picture based subtitle format used on BDs/HD-DVDs. z4 H' F2 |1 L
Duration                                 : 4 s 754 ms
6 e* i7 [: ?  ]( cBit rate                                 : 24.4 kb/s
' a% q6 M3 G% R9 `3 ACount of elements                        : 2
0 e2 [, t0 i, {: J, L0 xStream size                              : 14.2 KiB (0%)
4 c( c" f! G" ^+ @. ^' jTitle                                    : Spanish8 U" V0 V% o* }7 w% h4 s
Language                                 : Spanish! V& `# t3 U% k) F9 u
Default                                  : No
' r1 }2 X& p' @3 A* ^8 G/ y! BForced                                   : No
! Z) D0 i% y. T2 }, ^6 r
# p" M& B. v6 `4 ^Text #10
+ O1 w9 J; j; c" vID                                       : 13. p+ v) n9 v  e7 Z2 x
Format                                   : PGS
, N" B4 G7 Q% W6 u( n, [) o# [Muxing mode                              : zlib, }6 p2 o1 h1 ?1 X3 L9 l8 g
Codec ID                                 : S_HDMV/PGS
; ~* D  k+ o: y( [! QCodec ID/Info                            : Picture based subtitle format used on BDs/HD-DVDs
) J( m$ J/ ~) h9 w8 WDuration                                 : 4 s 754 ms
: C4 }3 B7 ~" m* i+ b: T  HBit rate                                 : 24.4 kb/s
: I- |$ D' q0 q! E3 ACount of elements                        : 2
9 ], W2 j- s1 c$ c6 {* j% ?Stream size                              : 14.2 KiB (0%)
2 R0 F+ S* g8 ^Title                                    : Spanish( s' V5 Q1 a; |* ^& N) I
Language                                 : Spanish9 V2 y  c  v: J' a
Default                                  : No& }/ S; g8 T1 ]" s
Forced                                   : No: l& \9 {; _9 y+ H
! W) X3 ~9 f1 ^0 }
Text #118 o! w. i  _. q1 b5 F
ID                                       : 142 g- A8 s$ U) `, Q0 |
Format                                   : PGS
1 h! J& G, H$ G8 TMuxing mode                              : zlib- Q% M2 V' Q& ]- a0 o; u
Codec ID                                 : S_HDMV/PGS
1 I3 _- Z3 F, O4 k0 f/ b- u& }Codec ID/Info                            : Picture based subtitle format used on BDs/HD-DVDs
& i, D; J2 R* Q# i- h2 e3 fDuration                                 : 4 s 755 ms+ }8 x/ s& I* v1 y
Bit rate                                 : 21.7 kb/s: T# S% B* r& y
Count of elements                        : 2+ z7 Q) I% X) j
Stream size                              : 12.6 KiB (0%)
4 S9 X7 l9 ]0 _( WTitle                                    : German
$ z2 i- r, i2 C. j5 i9 M+ BLanguage                                 : German/ E& c: r4 X6 S
Default                                  : No, j) Z2 w' p" c
Forced                                   : No' D0 |( j+ K  N/ ~# a1 w  g" _
% Q$ P( T- X$ K9 c' d, x1 r  ~
Menu, a) u- G3 n" R: {- z
00:00:00.000                             : en:Chapter 017 p9 B+ j4 T% c
00:03:35.549                             : en:Chapter 02
$ T: Q4 B/ e* g& c/ E00:05:58.275                             : en:Chapter 033 r5 x" ]6 m; Y. H5 D
00:10:31.005                             : en:Chapter 041 _" O% z3 ^' L2 N7 T& ]* c  p
00:15:49.365                             : en:Chapter 050 {6 X* j* r4 L8 a/ b! @
00:19:03.517                             : en:Chapter 06
7 m2 X; l2 P6 S( Q00:23:29.199                             : en:Chapter 07. s  \/ K9 D5 g& j5 s% J2 V7 O
00:27:28.021                             : en:Chapter 08; `8 b6 M4 H; T; ~( x7 _9 I
00:32:27.487                             : en:Chapter 09
4 R' u8 x! }& d9 I! P00:34:32.195                             : en:Chapter 10
& @7 v8 v! w% p0 C8 v9 t00:41:43.459                             : en:Chapter 11
; u( @3 X5 F6 f. i00:46:14.188                             : en:Chapter 12, Z' o2 I3 |! @- G; p( U2 ]
00:50:07.004                             : en:Chapter 13! {' e: Y$ ^3 x9 e( m! J
00:55:15.229                             : en:Chapter 14
4 X& \9 {7 d! a& C7 ~1 B01:00:30.585                             : en:Chapter 15. l3 G& V7 U2 {; f( J, ?5 }' |
01:04:04.299                             : en:Chapter 164 |4 I, A) u7 ^/ H0 U( }
01:07:46.646                             : en:Chapter 177 d5 \( A$ e& v! Y! m. y- s
01:12:38.229                             : en:Chapter 18
+ Z( Z& z" \, R4 `' h01:17:02.618                             : en:Chapter 19
( M6 F/ l9 ^& ]2 o7 {. E# L! [) Z01:19:24.885                             : en:Chapter 201 J) I) Y( r0 u; m5 |+ Q# V
01:23:06.773                             : en:Chapter 21
+ s% _9 A' O8 f/ y/ r; g3 @01:26:20.884                             : en:Chapter 22
! o0 O: O! t+ X! L3 a7 L01:29:25.860                             : en:Chapter 23+ q5 \( K( {7 x' l  U8 F- D
01:32:22.287                             : en:Chapter 24
7 m; G2 y8 K+ ]6 `* v
游客,查看本帖隐藏内容请回复 | 加入VIP贵宾组可免积分免回复下载 立即了解 | 还不是会员:点击获取邀请码 Invitation Code

本版积分规则

小黑屋|Archiver|蓝光电影资源网

GMT+8, 2020-7-16 21:39

快速回复 返回顶部 返回列表