BluRayCD Forum

 找回密码
 立即注册【分享大片】

QQ登录

只需一步,快速开始

查看: 51|回复: 2
收起左侧

[2160P极清] 野性的呼唤/绝境长征 [4K SDR高码版] The Call of the Wild 2020 2160p BluRaycd x265 10bit & 8bit SDR DTS-HD MA TrueHD 7.1 Atmos-SWTYBLZ 25.72GB & 26.18GB

[复制链接]

4429

主题

4596

帖子

5万

积分

Post Share

金币
8352 枚
体力
16454 点

卓越贡献勋章

黄金嫖客 发表于 2020-5-19 22:29:12 | 显示全部楼层 |阅读模式
  r0 C! e; R; _

# w+ a8 o4 U! o◎片  名 The Call of the Wild
% @5 s- h% V6 [5 R8 w2 H0 b* k' @◎译  名 野性的呼唤/荒野的呼唤/绝境长征/极地守护犬(港/台)! c  o2 _% F4 I
◎年  代 2020
6 k. x) t! _  t0 W8 h◎产  地 美国/加拿大4 p8 @( c0 D# Z- J( Z4 ?) Z
◎类  别 剧情/冒险+ r  P. m( P1 n, U, ^$ {$ L3 U' c1 S/ ]
◎语  言 英语/法语9 D/ x% `( T' m, t
◎上映日期 2020(中国大陆)/2020-02-21(美国)
9 I; U9 Q" x+ d9 b5 Q' Z◎IMDb评分 6.8/10 from 21,424 users- P, @0 \4 n) K
◎IMDb链接 https://www.imdb.com/title/tt7504726/# p# c6 }) @: o& u  C
◎豆瓣评分 7.1/10 from 12,119 users! H0 ]; M' a4 G; Q4 q
◎豆瓣链接 https://movie.douban.com/subject/27199324/
, l& q) O$ E% f% y: f3 F* t0 L◎片  长 1 h 39 min
: L3 I- ~0 k9 O◎导  演 克里斯·桑德斯 Chris Sanders! H. I2 B, T  d( E. v
◎编  剧 迈克尔·格林 Michael Green
1 Y+ L2 U7 X, m2 q. p       杰克·伦敦 Jack London3 Z2 G" U2 E* D, z: T/ I5 V
◎主  演 哈里森·福特 Harrison Ford
' O( f4 F9 G  f) U( T! r       丹·史蒂文斯 Dan Stevens2 U' R. }' U" }5 G+ z' y
       凯伦·吉兰 Karen Gillan
3 B  B% F4 F% s) S: E       布莱德利·惠特福德 Bradley Whitford
5 |& u  p+ |, N# L4 ?! T; L       珍·路易莎·凯利 Jean Louisa Kelly; R2 P/ R% U6 F
       泰瑞·诺塔里 Terry Notary
4 g4 \; Z4 \& Q9 {0 n9 P/ x9 D* Y3 k       卡卡琪 Cara Gee9 Y2 ?; f: u# {' O8 Y
       奥玛·希 Omar Sy
/ v# x& q. O* T       科林·伍德尔 Colin Woodell3 N# ~% U7 O- t
       韦斯·布朗 Wes Brown
6 B2 X4 ~* L8 U4 j       安东尼·莫利纳利 Anthony Molinari
4 g3 X% H: U  L2 o+ {       布拉德·格林奎斯特 Brad Greenquist
- O! w! H1 x" v1 X  ?) P       亚当·弗格斯 Adam Fergus0 `2 R% L. z4 i- D8 S- \
       阿莱克斯·索洛维茨 Alex Solowitz
& B6 ?3 S$ u! T, n) H       卡尔·马金恩 Karl Makinen
* G1 q$ A8 y3 M* M& a; S       希瑟·麦克普什 Heather McPhaul1 v7 u8 p4 u0 @/ t8 N& J
       哈尔·戴恩 Hal Dion8 G$ W% |! x5 s/ _8 I8 o  O
       G·拉里·巴特勒 G. Larry Butler* Z5 f. e( {1 M7 b4 M: ^
       桑蒂尔·亚历克西斯·瓦奎兹 Shantiel Alexis Vazquez
: \3 ~% a) C; {4 {0 A       特洛伊·迪林格 Troy Dillinger# R% _- ~/ W. s7 P- F: r6 |  c
3 |; u* }# K/ K" r( I+ B, ?
◎简  介  ) @6 y- K' Q$ u8 M, [

3 F/ k$ T5 C8 h* Y7 L' p! ], J   影片改编自杰克·伦敦同名小说,导演克里斯·桑德斯([疯狂原始人]),编剧迈克尔·格林[(异形:契约])。该片以克朗岱克淘金热为背景,围绕淘金者约翰·桑顿(福特饰)的历险故事展开。 ; ^% t- ?' n4 f6 U1 o2 {
9 o# @& r; l  n! E) F
  A sled dog struggles for survival in the Alaskan wild.& y* O! s# g! b) r, X; l3 z

5 ?9 I; ]; |: E  t- O& J0 {% [% t
SWEATY BALLZ presents
5 p/ t+ r7 x5 ]2 n+ m/ R! u; b) t4 A$ S
The.Call.of.the.Wild.2020.2160p.BluRayCD.x265.10bit.SDR.DTS-HD.MA.TrueHD.7.1.Atmos-SWTYBLZ
9 B6 w# u& k6 U% Y2 gConverted from 10 bit HDR to 10 bit SDR using tripple mixed Hable-Reinhard-JJ per scene+frame analysis algorithm
  Q5 f& Z( ?( A2 CScreenshots are 8bit SDR# k- U; ?: p* h  z( q
% B8 q- J; @( Y" x
Video
. v5 h7 |5 t2 S8 k# ?2 N9 r( gID                                       : 1, f6 J9 v% N- x7 U' n7 B
Format                                   : HEVC
& n- e( G* y$ T7 k) A5 N+ wFormat/Info                              : High Efficiency Video Coding
1 c# r! x6 E8 v7 a# {" U5 Q  @Format profile                           : Main 10@L5.1@High1 [# g% }& Q5 s' o- T: ^9 v  G! [
Codec ID                                 : V_MPEGH/ISO/HEVC
  |! y$ w# J: m" O9 ?8 vDuration                                 : 1 h 39 min. f7 N% N; R2 S: ]2 A
Bit rate                                 : 23.9 Mb/s
6 |, R7 d* J. h5 f' xWidth                                    : 3 840 pixels4 {& f5 Y6 r1 S
Height                                   : 1 606 pixels( m, A1 a; z/ m" a2 M+ Z8 k; |
Display aspect ratio                     : 2.40:1! z0 Y! W6 R8 [/ t
Frame rate mode                          : Constant
' n, E( k8 l; q9 w" C+ f0 J& EFrame rate                               : 23.976 (24000/1001/37687) FPS
% ?9 b8 F) V: Q+ [6 P0 N6 QColor space                              : YUV
3 r! z# I& H, A, p) l/ W4 F5 [Chroma subsampling                       : 4:2:0
  E" I/ E, M3 B9 q9 cBit depth                                : 10 bits
7 N1 A/ S4 `5 I$ }Bits/(Pixel*Frame)                       : 0.162
6 t/ H7 s  x- J5 _# I! wStream size                              : 16.7 GiB (65%)
' v6 l1 c- `/ U5 l- mTitle                                    : The.Call.of.the.Wild.2020.2160p.BluRaycd.x265.10bit.SDR.DTS-HD.MA.TrueHD.7.1.Atmos-SWTYBLZ
$ ]. K8 G5 @3 c7 K, K' [7 `  z% vWriting library                          : x265 3.0+1-ed72af837053:[Windows][GCC 8.2.0][64 bit] 10bit
- l# p' T  K# B* H. SEncoding settings                        : cpuid=1111039 / frame-threads=6 / numa-pools=40 / wpp / no-pmode / no-pme / no-psnr / no-ssim / log-level=2 / input-csp=1 / input-res=3840x1606 / interlace=0 / total-frames=143404 / level-idc=51 / high-tier=1 / uhd-bd=0 / ref=3 / no-allow-non-conformance / repeat-headers / annexb / aud / hrd / info / hash=0 / no-temporal-layers / no-open-gop / min-keyint=1 / keyint=24 / gop-lookahead=0 / bframes=4 / b-adapt=2 / b-pyramid / bframe-bias=0 / rc-lookahead=25 / lookahead-slices=4 / scenecut=40 / radl=0 / no-splice /  no-intra-refresh / ctu=64 / min-cu-size=8 / no-rect / no-amp / max-tu-size=32 / tu-inter-depth=1 / tu-intra-depth=1 / limit-tu=0 / rdoq-level=0 / dynamic-rd=0.00 / no-ssim-rd / signhide / no-tskip / nr-intra=0 / nr-inter=0 / no-constrained-intra / strong-intra-smoothing / max-merge=2 / limit-refs=3 / no-limit-modes / me=1 / subme=2 / merange=57 / temporal-mvp / weightp / no-weightb / no-analyze-src-pics / deblock=0:0 / no-sao / no-sao-non-deblock / rd=3 / no-early-skip / rskip / no-fast-intra / no-tskip-fast / no-cu-lossless / no-b-intra / no-splitrd-skip / rdpenalty=0 / psy-rd=2.00 / psy-rdoq=0.00 / no-rd-refine / no-lossless / cbqpoffs=0 / crqpoffs=0 / rc=crf / crf=16.0 / qcomp=0.60 / qpstep=4 / stats-write=0 / stats-read=0 / vbv-maxrate=160000 / vbv-bufsize=160000 / vbv-init=0.9 / crf-max=0.0 / crf-min=0.0 / ipratio=1.40 / pbratio=1.30 / aq-mode=1 / aq-strength=1.00 / cutree / zone-count=0 / no-strict-cbr / qg-size=32 / no-rc-grain / qpmax=69 / qpmin=0 / no-const-vbv / sar=1 / overscan=0 / videoformat=5 / range=0 / colorprim=2 / transfer=2 / colormatrix=2 / chromaloc=0 / display-window=0 / max-cll=0,0 / min-luma=0 / max-luma=1023 / log2-max-poc-lsb=8 / vui-timing-info / vui-hrd-info / slices=1 / opt-qp-pps / opt-ref-list-length-pps / no-multi-pass-opt-rps / scenecut-bias=0.05 / no-opt-cu-delta-qp / no-aq-motion / no-hdr / no-hdr-opt / no-dhdr10-opt / no-idr-recovery-sei / analysis-reuse-level=5 / scale-factor=0 / refine-intra=0 / refine-inter=0 / refine-mv=0 / refine-ctu-distortion=0 / no-limit-sao / ctu-info=0 / no-lowpass-dct / refine-analysis-type=0 / copy-pic=1 / max-ausize-factor=1.0 / no-dynamic-refine / no-single-sei / no-hevc-aq / qp-adaptation-range=1.006 I( o4 C8 [% M6 y" d. x; W) ^
Default                                  : Yes
2 M& z; F: h$ @! X/ d! g  ?Forced                                   : No
) t( G) o. `) R8 G% Q; x5 ~
1 N" V$ G0 I( DAudio #1
7 Q' r, R8 y" X5 Z" o6 Z. lID                                       : 2& C+ {# e8 P  \: Z1 \. G2 i
Format                                   : MLP FBA 16-ch
) n5 t. ]: u1 x0 `Format/Info                              : Meridian Lossless Packing FBA with 16-channel presentation" i3 d  d$ D6 C+ f
Commercial name                          : Dolby TrueHD with Dolby Atmos$ i$ u4 u  _  x# \
Codec ID                                 : A_TRUEHD
& S4 L* v& M( E  u1 `, U' }Duration                                 : 1 h 39 min
/ P: }# ^% E9 T6 B6 EBit rate mode                            : Variable" b% r. w0 O, R3 C9 s1 b9 K
Bit rate                                 : 8 045 kb/s
2 l0 W* q1 \/ V" _/ M5 G( C" g- BMaximum bit rate                         : 12.5 Mb/s! i7 s! V+ K$ n9 _7 ?
Channel(s)                               : 8 channels" |+ |/ o6 I0 z: K6 d
Channel layout                           : L R C LFE Ls Rs Lb Rb5 O. f8 G, N) ^4 N
Sampling rate                            : 48.0 kHz
- E) ?, l9 k  CFrame rate                               : 1 200.000 FPS (40 SPF)
7 e3 A6 L" @' b4 NCompression mode                         : Lossless- m& b$ Q) v; x) b: D
Stream size                              : 5.60 GiB (22%)
4 L6 N, j7 Z. a. h% @7 ITitle                                    : The.Call.of.the.Wild.2020.2160p.BluRaycd.x265.10bit.SDR.DTS-HD.MA.TrueHD.7.1.Atmos-SWTYBLZ* _$ b) ]3 _% q( N  e
Language                                 : English
! [+ A' h, d* h2 Q$ x) FDefault                                  : Yes
1 K% \2 e5 ?% h+ v% N) v) A3 MForced                                   : No
6 c6 T& ?$ v; h; k& H' b' {Number of dynamic objects                : 13, t8 G5 m# S; T
Bed channel count                        : 1 channel2 j! n) I  c0 A% e
Bed channel configuration                : LFE
9 M  z" H; O: H4 m- i' Q
2 _$ Y- r& r" Q$ z$ sAudio #2
- j1 r8 l/ h1 r( L! e$ h! M" \ID                                       : 3; y+ E1 S+ m) a0 U$ |  [( v
Format                                   : DTS XLL
2 O  e; y, X* b* q" V5 _4 o3 y. u3 eFormat/Info                              : Digital Theater Systems% l, n9 w0 g$ r1 g/ f' d
Commercial name                          : DTS-HD Master Audio: L- @* P& b) T; z' ~: H3 ]
Codec ID                                 : A_DTS
/ o# P7 Q) h7 g9 B4 E6 nDuration                                 : 1 h 39 min/ y6 K7 \2 X& l
Bit rate mode                            : Variable
# B# i2 [* \- C) C3 f2 Q! lBit rate                                 : 3 983 kb/s
7 E% d; I9 t5 ^& s3 DChannel(s)                               : 8 channels
0 g  w' u$ y9 E- xChannel layout                           : C L R LFE Lb Rb Lss Rss
$ v2 g# r% Q, P1 g' `8 y, QSampling rate                            : 48.0 kHz# [0 O! v( ]3 T! I
Frame rate                               : 93.750 FPS (512 SPF)
& C3 z4 a2 x* ]+ Q- h+ M+ I- vBit depth                                : 24 bits
# m( b( Z/ T* WCompression mode                         : Lossless
' k. d+ T% c/ qStream size                              : 2.77 GiB (11%)4 N8 r7 d9 y4 ~% q6 O
Title                                    : The.Call.of.the.Wild.2020.2160p.BluRaycd.x265.10bit.SDR.DTS-HD.MA.TrueHD.7.1.Atmos-SWTYBLZ
( W) _! w" R+ e% V$ @: qLanguage                                 : English* R: Z; M2 i0 K; I  l& w
Default                                  : No, v: O' H& B4 P9 f
Forced                                   : No
; u4 ]1 K* _- g0 [3 }8 Y
  C1 s7 A) X+ e, y, X/ H" q, qAudio #3
6 ^; h# D; f( M" tID                                       : 4
& D9 G/ a" L' u0 d2 x- ?Format                                   : AC-3* n$ ]9 s- I6 k/ m1 e
Format/Info                              : Audio Coding 3$ g. n3 R1 _$ K! }: u) i  z/ s
Commercial name                          : Dolby Digital" b  D9 i) d& T( t; L8 e+ A  [
Codec ID                                 : A_AC3
/ _2 W+ F* z5 \: G) X6 f( J) |Duration                                 : 1 h 39 min5 Z: M: u8 M" Z! M: f, S
Bit rate mode                            : Constant7 @7 O" A2 Z1 v1 O0 J$ i
Bit rate                                 : 640 kb/s
. c7 G/ z, J- K: d0 u4 ]9 t2 dChannel(s)                               : 6 channels' r3 a9 q; z7 p% m
Channel layout                           : L R C LFE Ls Rs
& A- _$ t. |6 Q) G' F" m4 }Sampling rate                            : 48.0 kHz
" m! f  x: F- b7 R2 OFrame rate                               : 31.250 FPS (1536 SPF)" j6 T4 O3 g2 q8 _3 Y
Bit depth                                : 16 bits% D4 ~+ e/ j% a: X- C5 R
Compression mode                         : Lossy
5 Z& y/ Q% E9 s/ e2 ^7 zStream size                              : 456 MiB (2%)
- L2 w* e7 U9 rTitle                                    : The.Call.of.the.Wild.2020.2160p.BluRaycd.x265.10bit.SDR.DTS-HD.MA.TrueHD.7.1.Atmos-SWTYBLZ
) \7 m& c+ f3 E# @# DLanguage                                 : English' d- Y  i" y/ b# g; Y. J& T! ]/ g
Service kind                             : Complete Main
2 {/ c3 j8 W: y. NDefault                                  : No0 x$ l) u; V+ ], R6 [: C4 {
Forced                                   : No, A, g- D0 S& s$ A0 s
( Y% B, n" _' v; j6 C6 ?
Text #1! R; a4 b, W" E' J4 T% R
ID                                       : 5
/ L& ~) L, Z1 {6 Y" TFormat                                   : UTF-8
8 y) g) l1 ]& JCodec ID                                 : S_TEXT/UTF8
5 F; g/ v' `2 Y' Y' @7 \% e( ^8 D' TCodec ID/Info                            : UTF-8 Plain Text
; z# H/ b8 a5 U7 Q9 M' y3 ?Duration                                 : 1 h 34 min
! H% y1 f" K. z, o3 L+ X3 d) D, y+ fBit rate                                 : 25 b/s8 D( A/ L8 n7 K
Count of elements                        : 846( k4 ~) `/ t, o! f" `. R" F/ {. n. N
Stream size                              : 17.8 KiB (0%)# {9 ^5 @5 y# q* Q  V( \6 Q
Title                                    : English-SRT
" L; B( f! [1 i: yLanguage                                 : English
! b0 s# X$ ^, k. QDefault                                  : Yes' G% [, M8 j) K* \7 N
Forced                                   : No- X4 d" g. g6 s

, i4 h  c8 O0 a8 uText #2$ E" @' ^- ]4 K/ \4 K! A# J
ID                                       : 6
- _2 y1 u- a% A6 |' }' ^Format                                   : PGS. u5 j1 p  @# t' R+ b, ~
Muxing mode                              : zlib
, t5 p0 ~! l( e  V! F3 wCodec ID                                 : S_HDMV/PGS4 X3 y) K+ l+ _' p
Codec ID/Info                            : Picture based subtitle format used on BDs/HD-DVDs
; c+ i4 u  U0 p* ?. ]Duration                                 : 1 h 34 min
) @1 x4 V% r' |4 V( Q' y' |Bit rate                                 : 26.7 kb/s, C9 s  W6 I, U4 Y1 N& [4 a% b. `! c
Count of elements                        : 2500  o) x% |' W" E
Stream size                              : 18.1 MiB (0%)
& c5 _" c7 v" w; A+ ^7 {: MTitle                                    : English-PGS, m# g- H3 }9 H  k# X9 `
Language                                 : English
  m) e2 b, ?( ?5 @0 l, WDefault                                  : No) m% j1 @2 l( ]& P+ C
Forced                                   : No# f2 j" I  x) @5 v

% n$ G. i& Z, e' ~6 o  o2 h9 aText #3
# p: d1 q# m. H7 J6 n# gID                                       : 7; ~, l, `* q, s" E6 \2 Z
Format                                   : PGS
& R( m- m; t, U: I) n7 P1 [Muxing mode                              : zlib1 e8 P2 Y6 P4 H
Codec ID                                 : S_HDMV/PGS9 Z& Y; _( N4 f: h6 f  I0 a
Codec ID/Info                            : Picture based subtitle format used on BDs/HD-DVDs
$ S. b  y$ C: Y1 x9 mDuration                                 : 1 h 39 min3 z( f! T' Q, c
Bit rate                                 : 15.7 kb/s, A2 Z% e% z% h# T
Count of elements                        : 1568
7 Q# G' A7 [# R. c& u) U9 p3 ^" jStream size                              : 11.1 MiB (0%)
' a7 `" z; k) p3 c& L+ u( M. ?Title                                    : French-PGS
8 v5 [; c6 Y. m8 j. JLanguage                                 : French
* ]6 |; q1 z' V# s# \4 L- TDefault                                  : No; R4 v$ }' g  E! p
Forced                                   : No/ y( x, o  k7 p$ R: O+ Z3 G2 o. Q

2 i" r1 l- G3 m3 x& q" m" {: @Text #4
/ a8 N+ }# V$ K. T0 i  gID                                       : 8
) m2 @4 l' s, Q9 y( bFormat                                   : PGS
' v" ?; u6 d9 c3 B4 {& _- YMuxing mode                              : zlib
5 S) o2 s: ?: b9 d. l  t- V1 {% MCodec ID                                 : S_HDMV/PGS
" Z& V4 J; V8 i% CCodec ID/Info                            : Picture based subtitle format used on BDs/HD-DVDs
9 Y8 W. D) {1 u- O8 zDuration                                 : 1 h 38 min4 B, z+ G( Z2 A0 e  g; Z: ]
Bit rate                                 : 12.4 kb/s
" h, @- J% k/ p% aCount of elements                        : 12800 g7 J  w( {! p+ o( S3 g
Stream size                              : 8.77 MiB (0%)6 l5 [4 l% e5 u3 b5 s- M& W  p
Title                                    : French-PGS( V+ I6 A" L& [3 {% |4 h9 |
Language                                 : French+ \# i# O* }- C7 n' M) q5 ]
Default                                  : No0 a) ^/ a! a. U
Forced                                   : No
- z- s" k& x; y3 c5 A7 e
/ d4 _  v8 M8 {( U1 Q! l% B6 jText #5
# N* s% P6 _* n. ]ID                                       : 9& K; t% o  U2 J2 o
Format                                   : PGS6 q( b0 c& D5 Y  L
Muxing mode                              : zlib
, Q9 Q6 y. Z( Q5 kCodec ID                                 : S_HDMV/PGS  K5 F! i9 C* H+ D" j: p" o1 ?
Codec ID/Info                            : Picture based subtitle format used on BDs/HD-DVDs
# f; G3 Y1 Y  s7 i# |Duration                                 : 1 h 38 min7 ^$ w9 g. J  l, z' n3 V
Bit rate                                 : 15.7 kb/s
6 `' _: l9 v4 K7 NCount of elements                        : 1452
! h: N4 y+ v* H2 N0 l3 A' KStream size                              : 11.1 MiB (0%)5 \( f0 a. c1 O5 {1 ?- |3 Z
Title                                    : German-PGS
+ Q7 |8 d7 C; vLanguage                                 : German
$ v9 h. ^% u3 j! oDefault                                  : No; m2 B! }& \9 B; ?. x7 p
Forced                                   : No' v6 g3 u' I* m8 l
+ i3 ]5 u4 R1 F! K1 D% C! n
Text #61 \; ~: b3 U4 e8 \. N$ K- N
ID                                       : 10
8 A7 h  L- F5 W3 k- z1 z% x8 F2 OFormat                                   : PGS
  H* K2 ]$ [+ d1 M8 {: YMuxing mode                              : zlib
' ~' L3 N5 j" F; `Codec ID                                 : S_HDMV/PGS
# k; O4 ]1 B8 @  g5 V2 m8 w) ~Codec ID/Info                            : Picture based subtitle format used on BDs/HD-DVDs
0 A5 |7 P' i' wDuration                                 : 1 h 38 min# q$ \# f) H0 x( M
Bit rate                                 : 12.4 kb/s
" ?9 s( g2 g( Z, J5 kCount of elements                        : 1308
4 }6 w4 R: |  yStream size                              : 8.76 MiB (0%)
5 [3 Q. U+ P/ ~. ^Title                                    : Japanese-PGS) W) [; q7 ?$ @! c! f0 X; Q2 @
Language                                 : Japanese
- E% g/ h2 U; M+ RDefault                                  : No
' d! B3 I& j8 d/ [Forced                                   : No* V/ S& g+ M: E

3 _6 Y& t9 [) RText #7
) i9 s4 ]' L1 q( S3 N. iID                                       : 11
7 ?; V( t- r& g6 n/ v1 D% @Format                                   : PGS
' |- ^6 H0 }; F( D8 X# Q3 OMuxing mode                              : zlib/ n$ g! K& [: R( p9 J3 J
Codec ID                                 : S_HDMV/PGS
+ s- K* U, |, g/ n& N$ VCodec ID/Info                            : Picture based subtitle format used on BDs/HD-DVDs
# r. }8 ?/ r  l, S3 |; o/ }2 xDuration                                 : 1 h 38 min& W6 [7 W+ \. o, e! ~8 u' n. Q
Bit rate                                 : 14.3 kb/s
# J* Q' A7 Q. e2 g3 cCount of elements                        : 1536$ f- J6 \+ L& ]1 B% ?8 S" ^
Stream size                              : 10.1 MiB (0%)
# B, N, w, o! _# uTitle                                    : Spanish-PGS
9 e5 U# W2 \! H. ?/ c2 \  jLanguage                                 : Spanish  [3 V: a- M1 o+ a: m, N
Default                                  : No
3 E) r7 @. H, C3 ]! pForced                                   : No
& u% l2 T8 h6 V' Z2 {8 i7 g, D) u7 E% O" o+ O/ Y& B' e
Menu
2 @$ d* g1 b( k- M1 T; [00:00:00.000                             : en:Chapter 10 e! W5 k8 O# k- h, }; c, H
00:03:35.549                             : en:Chapter 2
( K" S. M" e' P  w! Y00:05:58.275                             : en:Chapter 3
1 I9 [7 k9 k, `. N7 }00:10:31.005                             : en:Chapter 4
/ }4 U/ L  S. O9 o4 c* N00:15:49.365                             : en:Chapter 5
. r$ A& t/ z1 O) I' \; D4 K" u00:19:03.517                             : en:Chapter 6+ e1 A# n: v8 D: a( u
00:23:29.199                             : en:Chapter 7. C5 Y( D# Q( d- }, Y. t% V* E7 b
00:27:28.021                             : en:Chapter 8" u# c8 E2 B; r6 [1 Y
00:32:27.487                             : en:Chapter 96 k/ \% H% d2 X0 `# C4 d. Y& L
00:34:32.195                             : en:Chapter 10" _, T1 q/ z! C9 p
00:41:43.459                             : en:Chapter 11
8 t, _3 h0 d7 B& Q# h00:46:14.188                             : en:Chapter 12
1 b# S$ a1 `- Z* f00:50:07.004                             : en:Chapter 131 J# z2 u2 \4 g: \
00:55:15.229                             : en:Chapter 14! K9 u' {/ P7 x  Q! P* A/ y/ {: ~" l
01:00:30.585                             : en:Chapter 15+ u8 D  R5 v/ Y$ m( P6 l1 i) Q
01:04:04.299                             : en:Chapter 16& i+ [& @( x; w2 W
01:07:46.646                             : en:Chapter 17
- P8 {0 f8 ~, z2 }2 Y01:12:38.229                             : en:Chapter 18$ _) M, |3 E/ ^3 M9 C
01:17:02.618                             : en:Chapter 194 s# H" `$ W7 w7 r
01:19:24.885                             : en:Chapter 20  U( z8 v* a. t, i6 o& L: I
01:23:06.773                             : en:Chapter 217 ~3 x( l8 I$ |' m* O# ?( }
01:26:20.884                             : en:Chapter 22; j' ~- m" a7 {! \8 D4 p/ n
01:29:25.860                             : en:Chapter 23
. Z1 h' |+ U& c( ^' @. A3 l! J01:32:22.287                             : en:Chapter 24

7 v/ U2 c5 ~1 a/ F. q
SWEATY BALLZ presents 5 b9 \6 X- q" ?
, U4 U6 v# W9 D1 \) @; b
The.Call.of.the.Wild.2020.2160p.BluRaycd.x264.8bit.SDR.DTS-HD.MA.TrueHD.7.1.Atmos-SWTYBLZ7 R8 ~, ?2 k9 V
Converted from 10 bit HDR to 8 bit SDR using tripple mixed Hable-Reinhard-JJ per scene+frame analysis algorithm
( n1 c5 I$ S' B) ~! T
" p  i+ v4 B  u) G3 PVideo
; P7 i& D3 N7 \8 z2 h. B; hID                                       : 1
. E6 \  C% R, U, M" Q6 K9 fFormat                                   : AVC
8 o! B( N* A! P6 lFormat/Info                              : Advanced Video Codec
. _" [) a) Z. tFormat profile                           : High@L5.1
" ?2 a  Y0 ~% Y7 ~4 }Format settings                          : CABAC / 5 Ref Frames
3 G, x* @5 I' B0 f+ iFormat settings, CABAC                   : Yes4 m" H9 g6 ^: e' \
Format settings, Reference frames        : 5 frames4 I# Q5 O: D+ Z$ G: B+ \
Codec ID                                 : V_MPEG4/ISO/AVC! u  {8 }- x# J3 J$ k( Z
Duration                                 : 1 h 39 min- W! {2 ?) v4 l; C
Bit rate                                 : 24.6 Mb/s
  S0 W; E4 J7 r7 B0 P$ r/ [( gWidth                                    : 3 840 pixels
" b- N" [% Q& `Height                                   : 1 606 pixels
0 i8 z' A$ w' O4 O0 ?$ H& g, bDisplay aspect ratio                     : 2.40:1
; w( W5 G* Y* vFrame rate mode                          : Constant  D/ j( y/ h: B3 B; B
Frame rate                               : 23.976 (24000/1001/37687) FPS2 a  {# |! p' r, `% ~( M' j5 \0 ?
Color space                              : YUV+ ?' ~$ Z+ z9 `& M  p* g
Chroma subsampling                       : 4:2:0
6 {& u% Q. A; t. E2 a. V! fBit depth                                : 8 bits
; S2 p% R1 f! VScan type                                : Progressive
  H& B1 l. B  s* SBits/(Pixel*Frame)                       : 0.166
* ^8 f3 c: r% y) K# b& lStream size                              : 17.1 GiB (66%)1 K8 R" P4 X+ T) T2 f
Title                                    : The.Call.of.the.Wild.2020.2160p.BluRaycd.x264.8bit.SDR.DTS-HD.MA.TrueHD.7.1.Atmos-SWTYBLZ
4 h! U0 \! o0 ]5 iWriting library                          : x264 core 157 r2935 545de2f2 `- f# E! q0 K3 B  M
Encoding settings                        : cabac=1 / ref=5 / deblock=1:-1:-1 / analyse=0x3:0x113 / me=umh / subme=10 / psy=1 / psy_rd=1.00:0.15 / mixed_ref=1 / me_range=48 / chroma_me=1 / trellis=2 / 8x8dct=1 / cqm=0 / deadzone=21,11 / fast_pskip=1 / chroma_qp_offset=-3 / threads=48 / lookahead_threads=4 / sliced_threads=0 / nr=0 / decimate=0 / interlaced=0 / bluray_compat=0 / constrained_intra=0 / bframes=3 / b_pyramid=2 / b_adapt=2 / b_bias=0 / direct=3 / weightb=1 / open_gop=0 / weightp=2 / keyint=250 / keyint_min=23 / scenecut=40 / intra_refresh=0 / rc_lookahead=50 / rc=crf / mbtree=1 / crf=18.0 / qcomp=0.60 / qpmin=0 / qpmax=69 / qpstep=4 / ip_ratio=1.40 / aq=1:1.00  Q! S# ^: h3 Y; X, r
Default                                  : Yes
5 s0 M2 ?$ x2 B! O2 AForced                                   : No7 I/ a$ Y6 e' W5 |$ P% j2 C

1 W0 g3 L) O1 Q; xAudio #14 }* u+ w' I- e4 z7 `
ID                                       : 2) D8 S  s# O: [! n
Format                                   : MLP FBA 16-ch
( }4 _; [" z$ ~Format/Info                              : Meridian Lossless Packing FBA with 16-channel presentation
# f! h% W. Y5 b  D3 _' BCommercial name                          : Dolby TrueHD with Dolby Atmos3 `0 O3 T% R" d* \
Codec ID                                 : A_TRUEHD
# ]6 N% y$ V  _5 M8 c! i* w8 pDuration                                 : 1 h 39 min
" \, W1 [/ ~4 n' DBit rate mode                            : Variable
  D1 z* V/ q( c$ d6 n. eBit rate                                 : 8 045 kb/s: C1 \: k% x6 _% f4 k, [+ u8 K6 g
Maximum bit rate                         : 12.5 Mb/s0 U9 m& Z. n; [1 e
Channel(s)                               : 8 channels- E( s. q8 l6 \; p
Channel layout                           : L R C LFE Ls Rs Lb Rb
9 E6 s: T0 H3 K! }Sampling rate                            : 48.0 kHz
$ `2 E9 I2 f  T% T8 h5 z+ R, xFrame rate                               : 1 200.000 FPS (40 SPF)
) \8 M0 j/ z1 Y/ A) SCompression mode                         : Lossless) Y$ x3 X1 t" E' v+ I: f
Stream size                              : 5.60 GiB (22%)
, @; l- s; j/ c. l- n. a( Q% m9 TTitle                                    : The.Call.of.the.Wild.2020.2160p.BluRaycd.x264.8bit.SDR.DTS-HD.MA.TrueHD.7.1.Atmos-SWTYBLZ! n, W, [( [( A
Language                                 : English+ {7 }6 ^& W8 N/ q% x1 ^
Default                                  : Yes9 ~) j8 K* n6 h" e4 l5 ~2 Z
Forced                                   : No
/ z' Y- h; H; h! r- ?, Q6 MNumber of dynamic objects                : 13
$ x7 x) _5 O0 [# {7 O7 c7 W# a/ TBed channel count                        : 1 channel
; o1 D3 L$ Q# }, m) t. p- F  N" UBed channel configuration                : LFE9 W5 @2 _1 U/ B! j* K

+ ~" s% C; \! i  k" O/ CAudio #2
8 Y+ r/ L7 s- j- x9 rID                                       : 3
2 F8 ]8 c2 k8 ]3 LFormat                                   : DTS XLL, w1 T9 g' z9 R$ A  L
Format/Info                              : Digital Theater Systems8 b5 o( t8 O) H4 o% U5 [  P& I
Commercial name                          : DTS-HD Master Audio& b" v1 o+ y9 I  n6 @
Codec ID                                 : A_DTS3 G- I$ e* X* F2 k- U  D- F
Duration                                 : 1 h 39 min5 h' P$ Q8 k# T; ]' ]1 T
Bit rate mode                            : Variable
/ Y. y  W+ U* I$ T" gBit rate                                 : 3 983 kb/s
2 y: m3 w- l( F+ _# \Channel(s)                               : 8 channels/ g  o% o9 y. c1 M! @5 ^5 e
Channel layout                           : C L R LFE Lb Rb Lss Rss* r3 Y% h1 _! ?
Sampling rate                            : 48.0 kHz; B" E" P( I. M7 Q
Frame rate                               : 93.750 FPS (512 SPF)
' _. }7 A1 x# Q. u4 [! Q9 SBit depth                                : 24 bits* T! M- u7 n- L. i
Compression mode                         : Lossless
& V7 e# |3 s! F" UStream size                              : 2.77 GiB (11%)1 {0 [2 O1 b. J8 |9 p( Y
Title                                    : The.Call.of.the.Wild.2020.2160p.BluRaycd.x264.8bit.SDR.DTS-HD.MA.TrueHD.7.1.Atmos-SWTYBLZ4 w1 ~( G- V' s4 F  n9 p
Language                                 : English
  ?! K6 V* e+ l& V% v" EDefault                                  : No  R! Y9 f. I+ t9 Z7 C/ {0 }8 g
Forced                                   : No
; z% f5 j) X8 c1 p/ c8 x8 t) H% u  H/ C% X! u. d+ Q; q
Audio #3
2 H4 o, o9 U+ O- M2 VID                                       : 4& w9 |3 Y' K0 _: l+ o- n' e- C+ ]
Format                                   : AC-3
( h0 ]* G" e$ i4 dFormat/Info                              : Audio Coding 3
2 V* L7 Q2 Q& _" y$ ZCommercial name                          : Dolby Digital5 B& X, w4 X1 E2 K$ N7 d
Codec ID                                 : A_AC33 h) S  n( p, Y8 [- ~- d. a9 U% P
Duration                                 : 1 h 39 min" k: ^4 G1 i+ R8 `6 ~7 T
Bit rate mode                            : Constant) A& e& F! P7 v; @( C$ q
Bit rate                                 : 640 kb/s
! Z, v2 C/ A% g( T$ X! u  tChannel(s)                               : 6 channels
; l( y. \7 h. j8 P! c/ S7 lChannel layout                           : L R C LFE Ls Rs$ a- K+ O( _. A4 v0 e6 A
Sampling rate                            : 48.0 kHz
! b, c; _& r3 H  b, F8 Q$ }: t% CFrame rate                               : 31.250 FPS (1536 SPF)' @( C3 d% A: T# k; e0 ^: @
Bit depth                                : 16 bits/ F' S- X; B0 a
Compression mode                         : Lossy
) _" I# G; B9 l) _/ Z4 U! z$ rStream size                              : 456 MiB (2%)
* _8 k$ Y% N( o  X: e& [/ WTitle                                    : The.Call.of.the.Wild.2020.2160p.BluRaycd.x264.8bit.SDR.DTS-HD.MA.TrueHD.7.1.Atmos-SWTYBLZ$ l8 T! f1 u. p, \, v5 n* h$ L) [0 M
Language                                 : English
6 `! r. C7 J; @4 g$ oService kind                             : Complete Main* @% \# Y. a, c9 G
Default                                  : No
  F9 L, _5 @  \6 D  D7 n8 \2 U7 QForced                                   : No
' s# p3 i% F! c/ l$ _$ z
" E& i( E; a+ T, b- R( {Text #1  V/ l$ D* y) l* R1 z  h
ID                                       : 5! |8 `" @$ _7 ]$ H$ h" q2 C. V
Format                                   : UTF-8
; {: C8 Y' f% D/ D6 ]Codec ID                                 : S_TEXT/UTF8
# M5 F' H' r: ?6 f* O- ~* F( k* c2 x: QCodec ID/Info                            : UTF-8 Plain Text
& b" U6 i/ Y8 z# iDuration                                 : 1 h 34 min
% z2 M( Y" b# h! W+ uBit rate                                 : 25 b/s2 Y( e" O2 @+ l( p" K" D
Count of elements                        : 846
6 C7 i/ ?5 n+ g4 [7 J! Q, A$ YStream size                              : 17.8 KiB (0%). Y7 o  C! T% I4 c
Title                                    : English-SRT
  o9 v5 }4 m6 D5 x: J, vLanguage                                 : English7 o4 W0 m) J7 k: `' P
Default                                  : Yes) ?2 D4 }, B: y+ y* y" ?3 W
Forced                                   : No
5 v+ r8 G' `$ r  E2 y. M. O) `, j
) S5 k; E1 {/ J' E* Y, oText #2
" |+ c" O, @7 r  a1 NID                                       : 69 R0 `- W5 f$ V& X4 `
Format                                   : PGS
. v5 \; |$ q& L  k) yMuxing mode                              : zlib- e, o7 C/ E; o. p7 Y- Z' w
Codec ID                                 : S_HDMV/PGS: M& m) B* F, h$ x4 |
Codec ID/Info                            : Picture based subtitle format used on BDs/HD-DVDs3 w5 h, j+ b: \1 K
Duration                                 : 1 h 34 min6 p- P5 E& \, g! [/ z- _, v( @6 S
Bit rate                                 : 26.7 kb/s
+ Y, w+ K8 }4 x% A( g9 cCount of elements                        : 2500+ n9 N9 c4 Z! y: E: e5 w2 y
Stream size                              : 18.1 MiB (0%)
9 k: q+ z* M" l% A( g: l  B% y1 BTitle                                    : English-PGS( _- c9 o% o, N# J
Language                                 : English" ?2 w) _& v  j
Default                                  : No
1 [4 w  H8 J$ ?" LForced                                   : No
( v9 w& p: @9 O1 l
$ q" J: v7 U! h8 N, Z* j4 |Text #3
. ^- y- `, I  c/ i' C6 W7 tID                                       : 71 Z7 ?, W: P7 E5 c& v
Format                                   : PGS
! {$ [, N* ]2 \, s" ]% C; cMuxing mode                              : zlib  C. {, Z: P7 `7 l# Y
Codec ID                                 : S_HDMV/PGS6 E- [0 n/ w1 q- s% N, v
Codec ID/Info                            : Picture based subtitle format used on BDs/HD-DVDs3 w' `: B1 G* f. W* L1 z" P
Duration                                 : 1 h 39 min/ N; w0 x; S4 l
Bit rate                                 : 15.7 kb/s
, E$ u- q) q9 p9 J3 g' A' hCount of elements                        : 15687 [1 F, e- S% j* G% s) p. {; @
Stream size                              : 11.1 MiB (0%)
0 Z; X7 n* y/ _  zTitle                                    : French-PGS' |! ^5 V$ t4 L
Language                                 : French
, v) v$ u! u$ J3 mDefault                                  : No5 N/ I/ r, U: b; H
Forced                                   : No, l: N# b  @! _& \; F8 g

2 I- Z7 o3 I6 \( S! \% T2 vText #4
( [1 `1 y: p$ l- |2 C4 m: v! ?ID                                       : 8) r- l+ S: [* R/ F9 R/ o) ^% b
Format                                   : PGS
5 k) Y. [1 F0 hMuxing mode                              : zlib/ u" E& f- F/ w8 \& Q7 t1 ^; o
Codec ID                                 : S_HDMV/PGS: Q, c3 o" q" ?
Codec ID/Info                            : Picture based subtitle format used on BDs/HD-DVDs
/ k- }/ c! l/ l3 i& L5 LDuration                                 : 1 h 38 min
) ^% p: Z3 q" O4 pBit rate                                 : 12.4 kb/s# s: _# E; S5 W  p
Count of elements                        : 1280
6 v4 c. ~/ y7 lStream size                              : 8.77 MiB (0%)' d$ h9 Q7 [$ n8 j4 C
Title                                    : French-PGS5 {. d: a3 K. f* J
Language                                 : French
( K$ Q4 m& n6 qDefault                                  : No
  W, K) n9 f; wForced                                   : No
8 u; K* A5 e2 t9 Q& ~. F. C
* E+ |1 L  L" M9 F# `! Y! }Text #57 y* @- A$ l+ \
ID                                       : 99 K: r2 X, I! \  @
Format                                   : PGS
8 E0 i0 k+ @* \' {% m3 IMuxing mode                              : zlib# I% T6 Y6 M8 S
Codec ID                                 : S_HDMV/PGS
* x4 J0 _0 A+ L  }& VCodec ID/Info                            : Picture based subtitle format used on BDs/HD-DVDs
5 N+ J+ C7 H" r! n" t! T9 o4 yDuration                                 : 1 h 38 min( N7 y7 b/ P0 \, {
Bit rate                                 : 15.7 kb/s: F0 \) k! g; U6 F! |6 D
Count of elements                        : 1452
+ O: R6 u3 u7 \; yStream size                              : 11.1 MiB (0%)$ ]  E( L7 j# q5 I: x
Title                                    : German-PGS# b* z* F3 Q9 |( Z8 R$ `) ~: o
Language                                 : German
% s5 _1 D% D3 ]) dDefault                                  : No
  \4 p, N' `7 l% _" GForced                                   : No
3 u: q; M1 ^2 J) y, e; b* b3 G! y" R/ v" S% l7 F1 g' E7 I+ w1 \3 O, r1 {. ]  @
Text #6$ e4 E. e* y1 D4 a( }# e) }# o
ID                                       : 10
5 Z/ |7 {. t* W/ x! YFormat                                   : PGS3 C, B# g6 s2 n5 i" n3 ]+ @5 O
Muxing mode                              : zlib
6 c) r; X% q( @Codec ID                                 : S_HDMV/PGS+ ~. ^6 L1 G/ R/ P1 ]0 a
Codec ID/Info                            : Picture based subtitle format used on BDs/HD-DVDs
. ^4 p$ P! L7 q( s# GDuration                                 : 1 h 38 min
% T7 d) U/ E- W% LBit rate                                 : 12.4 kb/s
) E" K) \& s) H* jCount of elements                        : 13082 ~  e' I" z, I) W
Stream size                              : 8.76 MiB (0%)
4 z& |% ^" U* e: p3 x: Z5 q" ^Title                                    : Japanese-PGS4 a2 T2 L" M. }! D# I; I0 G2 i* a8 A# ~
Language                                 : Japanese; h3 P: h3 s, R. V7 F0 z8 e
Default                                  : No  k% x1 R, ?/ I) [) T
Forced                                   : No: x; }+ z2 ]5 }9 [

* Y2 M0 `8 O. T6 C9 ^0 pText #78 w+ r7 v$ w( j  i, F& f4 ~  ?
ID                                       : 11
/ B8 _4 h/ x9 \8 e# vFormat                                   : PGS4 g% _& D) u$ y/ l0 l) B4 v; L/ [
Muxing mode                              : zlib7 I- Q2 K' r& ~* R
Codec ID                                 : S_HDMV/PGS+ ]' {0 ]& B) z8 W9 N" ^9 A
Codec ID/Info                            : Picture based subtitle format used on BDs/HD-DVDs
: n' G# Q% K6 p6 s! ^; |Duration                                 : 1 h 38 min
# j# ?, e, B' E* ZBit rate                                 : 14.3 kb/s( e. X! l; {- p. E& [/ I+ D$ ?+ m
Count of elements                        : 1536) ~8 T  i3 E4 ~& ]
Stream size                              : 10.1 MiB (0%)4 \5 y# Z) Q8 c0 c' J5 v4 T9 {( Z
Title                                    : Spanish-PGS: X3 |) a1 b0 S" M
Language                                 : Spanish' }/ J- f* l& V* k( g% W
Default                                  : No
# M. r9 t. E5 u6 CForced                                   : No
: e6 c# x, g+ ?) ^4 F8 T
* q1 H2 c9 h; g. e3 |2 JMenu+ X9 O. m6 f# F( _$ w+ w+ \
00:00:00.000                             : en:Chapter 1% I7 Z+ i! S# ^
00:03:35.549                             : en:Chapter 2
- W% U2 A; v/ y( S00:05:58.275                             : en:Chapter 3
9 O; c) f+ Q, L% q, N' M, V' \00:10:31.005                             : en:Chapter 4! c- S" L3 w, s# t3 ^
00:15:49.365                             : en:Chapter 5
8 D$ b" Y! T8 u) B$ d00:19:03.517                             : en:Chapter 6
; c, n! b5 q" \' Z00:23:29.199                             : en:Chapter 79 o7 |+ J, f9 G+ Z9 g3 E% l1 l
00:27:28.021                             : en:Chapter 8+ h( X1 X* \  P" _0 i* C" `- Y
00:32:27.487                             : en:Chapter 90 x0 U% |0 z$ F: z
00:34:32.195                             : en:Chapter 10
' P- X: ^2 ^, m8 {00:41:43.459                             : en:Chapter 11
( a0 Z4 |* i. Z/ x% Q8 \+ d- I/ J00:46:14.188                             : en:Chapter 128 \4 {5 p3 V5 @  [( u
00:50:07.004                             : en:Chapter 13
4 R! V' ?' T6 ?  I5 T& @9 E$ L00:55:15.229                             : en:Chapter 142 _* S" H9 H: o1 {) K2 _1 n) q
01:00:30.585                             : en:Chapter 15
" T/ V) h5 D, g- e01:04:04.299                             : en:Chapter 165 ~0 G* U1 A/ X: u1 t
01:07:46.646                             : en:Chapter 17
: X  t$ l3 k2 U7 N5 U9 S01:12:38.229                             : en:Chapter 189 p1 R5 @$ f' w7 M9 h9 t  m
01:17:02.618                             : en:Chapter 19- E! f# r( ]% ]7 c8 m  j+ R
01:19:24.885                             : en:Chapter 20
7 K( B+ m' |% \' l& J6 |3 T+ C4 Q01:23:06.773                             : en:Chapter 21' q9 [+ `  s/ `, z, i0 W( r0 L
01:26:20.884                             : en:Chapter 22
% X2 U) _9 p  z% x, M$ e01:29:25.860                             : en:Chapter 23
9 W: \7 a7 l# f: d7 @; S8 y01:32:22.287                             : en:Chapter 24
' t2 Y$ V& x1 c8 b0 a
游客,查看本帖隐藏内容请回复 | 加入VIP贵宾组可免积分免回复下载 立即了解 | 还不是会员:点击获取邀请码 Invitation Code

13

主题

1241

帖子

6647

积分

Sponsor

金币
867 枚
体力
3311 点
QQ
shiji1973 发表于 2020-5-21 11:57:11 | 显示全部楼层
感谢分享精彩电影

4

主题

133

帖子

822

积分

Sponsor

金币
174 枚
体力
410 点
QQ
hellangelcx 发表于 2020-6-2 15:45:20 | 显示全部楼层
每天都来蓝光论坛看看,我爱蓝光电影。. h5 E6 h5 m5 T6 W: w9 f; L
Blu-ray Film Forum: I will always support you!" `* y* N) O/ }
蓝光论坛里 ...

本版积分规则

小黑屋|Archiver|蓝光电影资源网

GMT+8, 2020-8-12 22:50

快速回复 返回顶部 返回列表