BluRayCD Forum

 找回密码
 立即注册【分享大片】
查看: 205|回复: 11
收起左侧

[科幻恐怖] 漫威英雄之黑寡妇 Black Widow 2021 1080p DSNP WEBRip DDP5.1 Atmos x264-CM 7.45GB

[复制链接]

7662

主题

8041

帖子

8万

积分

Post Share

金币
18287 枚
体力
15244 点

卓越贡献勋章

mvods 发表于 2021-7-10 01:36:36 | 显示全部楼层 |阅读模式

$ {" F0 }0 X8 i" Q* o/ W; f% n, i' J! H& y$ @$ ?
◎译  名 黑寡妇* ~, P& q+ F9 _! K8 h. l
◎片  名 Black Widow / The Black Widow. }. c5 h' _. V' Y
◎年  代 2021
1 k5 Y) G; m/ U◎产  地 美国
5 j/ y4 h# c; l; ~# r+ H9 b0 u◎类  别 动作/科幻/冒险, f& ]; N; `5 Q( D% Z4 r( g0 ~
◎语  言 英语
8 i* V4 V& K; l: I◎上映日期 2021(中国大陆)/2021-07-07(中国香港)/2021-07-09(美国/美国网络)
" N" B0 h+ _: m◎IMDb评分  7.4/10 from 12,134 users
  c! P$ X) k( S8 j4 I( ]$ N8 z" h1 e* n◎IMDb链接  https://www.imdb.com/title/tt3480822/
( B7 x3 ], i3 O% y$ E0 u. Y7 a; q◎豆瓣评分 0/10 from 0 users (尚未上映)
6 x2 e- w0 R5 j0 P& C3 H/ B◎豆瓣链接 https://movie.douban.com/subject/25828589/2 L3 _' Q/ t) A- D5 g
◎片  长 2 h 13 min
1 n, J; w9 u) @( ?0 n2 F5 b- V7 V1 C8 L◎导  演 凯特·绍特兰 Cate Shortland
0 C$ O9 y8 ^- |5 J& [◎编  剧 雅克·舍费尔 Jac Schaeffer % V+ C5 o  F; t( [3 `5 X# p; ]
       内德·本森 Ned Benson
# B8 |9 s, z" I5 M! q5 e; _       埃里克·皮尔森 Eric Pearson 8 d! \9 i- W+ C; [
       斯坦·李 Stan Lee
" Z: l% C) s% f* B       唐·赫克 Don Heck : f0 K. C& |& _0 Z' E9 B+ ~# i
       唐·里科 Don Rico
" w! Z: B4 c2 r1 {◎主  演 斯嘉丽·约翰逊 Scarlett Johansson
$ M, i/ Y4 M/ ?9 \4 v       弗洛伦丝·皮尤 Florence Pugh2 B. j# T9 E& q
       蕾切尔·薇兹 Rachel Weisz. }* `" @3 ^, c. q7 o8 m& s3 O$ c
       大卫·哈伯 David Harbour$ {& X& N5 h, P6 m% ^- Y
       威廉·赫特 William Hurt3 \6 q/ P$ C4 n  U  N0 x
       雷·温斯顿 Ray Winstone
5 G/ ^* H6 e, J  H& o% {" e* Y       奥利维尔·里希特斯 Olivier Richters) V$ w" M; G7 E/ G: }" D
       O·T·法格本 O.T. Fagbenle7 c& L7 M- M2 j! Y0 }" [
       艾尔·安德森 Ever Anderson4 _8 K2 r2 Z2 A3 b7 R
       米歇尔·李 Michelle Lee1 B- r% G" ?. u/ i3 z  _
       拉娜·布隆代尔 Nanna Blondell/ Z% z5 L7 `, L8 n  e% X6 j* r6 b
       维奥莱特·麦格劳 Violet McGraw  W. x4 P* H' V# [; T# M0 X
       赖恩·基拉·阿姆斯特朗 Ryan Kiera Armstrong
  R7 L) }" n' W9 n& U       约恩·巴特勒 Ione Butler& z4 ?6 p& f3 `3 L) N0 J* ~
       乔治亚·柯蒂斯 Georgia Curtis5 K2 G  F1 ]  o! p) M
       泰·赫尔利 Ty Hurley
9 x* c' x8 T9 M& ?# {# w, c% ]* Z# o       安得烈·拜伦 Andrew Byron$ c+ x0 O) m" x8 w. D
       乔基姆·斯卡利 Joakim Skarli  g* Q# P! G  q" O3 v+ i; ?
       史蒂芬·萨姆森 Stephen Samson3 J0 M2 d+ ~+ ^! w% M( p
       亚当·普里克特 Adam Prickett! ^; o4 `* ]9 a
       马里安·洛伦西克 Marian Lorencik
, y; O( h) ^* X% ?; _$ N       Liani Samuel1 D( b' l: D$ R" n5 C7 ?
       C.C. Smiff* q3 |' Y0 V1 v6 a
       Lewis Young+ _* o, \1 @6 ~' F0 M

, K9 a) m" {* F. b◎标  签 斯嘉丽·约翰逊 | 漫威 | 很期待黑寡妇独立电影出现 | 超级英雄 | marvel | 科幻 | 美国 | ScarlettJohansson8 e3 S" Y/ k  T" S, V) x' [+ @

' [6 C- C4 j! [( z: S; z◎简  介    - @$ O2 ~  S% d5 Q9 C. i
* j2 `6 y( E( u$ q
  一部充满动作戏的间谍惊悚片。娜塔莎·罗曼诺夫/黑寡妇遭遇与她的过去相关的一场危险阴谋,将直面自己那些更为黑暗的经历。一股不惜一切要击倒她的力量袭来,娜塔莎必须面对自己在成为复仇者的很久之前那作为间谍的过往,和曾远离的破碎关系。- ]# e4 ^6 q; Q% ]# j+ ?
0 n5 t& d6 r( B( l- _
  A film about Natasha Romanoff in her quests between the films Civil War and Infinity War.
7 }6 s1 V9 z% m8 S+ a
$ ?, c& p) B1 K◎获奖情况. O' x$ ?; }# r0 @1 i+ v% j

* p8 O& s( N6 a. E+ C, g4 o  第7届豆瓣电影年度榜单 (2020)8 U# B: F/ w7 c
  最值得期待的外语电影
$ ?  a0 t) y$ W8 o  0 Z. I7 u+ s6 T* Q  A  Z$ ]3 ^
  第6届豆瓣电影年度榜单 (2019)& F0 l; w: a& [& y. a, H- [! z2 ]
  最值得期待的外语电影( A. s# b2 ]5 K% R: Q
Video6 F+ E6 ~: l; ?2 _& s* @4 n
ID                                       : 1& O5 m% ?7 |( c  X  W2 |% X$ C
Format                                   : AVC% u: @4 c  C- T, l% s8 U& \0 m( j
Format/Info                              : Advanced Video Codec, K" B6 {6 h0 M5 m  x* B
Format profile                           : [email protected]3 S' k/ l9 q+ j! c# L4 ]
Format settings                          : CABAC / 4 Ref Frames
$ ~- m7 N3 B% h7 [2 A0 IFormat settings, CABAC                   : Yes
3 E! }- `7 ?/ M+ zFormat settings, Reference frames        : 4 frames- q( R: o" ^$ W1 e( {/ q
Codec ID                                 : V_MPEG4/ISO/AVC
/ n6 z) ~0 \* G" ?* HDuration                                 : 2 h 13 min6 U2 K6 H- u- n$ {3 P5 M
Bit rate mode                            : Variable4 |' G9 r/ {/ c9 G4 O
Bit rate                                 : 7 203 kb/s5 V' f2 v* B1 B
Maximum bit rate                         : 12.7 Mb/s
) Z7 o7 S2 J- QWidth                                    : 1 920 pixels, H& |- U, [" [* ^- u8 s
Height                                   : 1 080 pixels
- |; r$ I: N- f& b  B2 ^Display aspect ratio                     : 16:9$ F* I' v8 H$ ^6 ^
Frame rate mode                          : Constant. z0 M8 S5 s" l. |: U% {
Frame rate                               : 23.976 (24000/1001/189150) FPS0 z  O% h% {, Y* i- n$ o% C3 b1 G
Color space                              : YUV3 F3 K4 ?' V& P) ]' s
Chroma subsampling                       : 4:2:0
- \8 z7 L2 ~1 U9 ZBit depth                                : 8 bits
* w& ~7 [( x' R' ?4 _Scan type                                : Progressive& ~8 C  ?3 _% S% ~) X2 {; }, k2 J- Q
Bits/(Pixel*Frame)                       : 0.145
! @* U8 T: q( k5 nStream size                              : 6.73 GiB (90%)
* b) ^% v, t( u! Y; z: iDefault                                  : Yes6 ~  f- d  m) _" y: _
Forced                                   : No5 p0 r+ w% b8 W  I
Color range                              : Limited! @  g- f2 a6 s  ]( \
Color primaries                          : BT.709, ?/ X3 N, I$ A( n" u/ X
Transfer characteristics                 : BT.709
& v! L3 G# }1 {$ }8 |Matrix coefficients                      : BT.709
+ D% j8 d! ]) b- D/ Y7 j; \: ?2 k5 O
Audio. `& x+ s) i- `
ID                                       : 2
% ?9 Y/ d; a  VFormat                                   : E-AC-3 JOC
+ Q( b" N! b3 Z5 [Format/Info                              : Enhanced AC-3 with Joint Object Coding
1 U( Y, q. ]3 k5 h- oCommercial name                          : Dolby Digital Plus with Dolby Atmos; W) l6 j8 d2 u* q. u# W5 T) ~3 C
Codec ID                                 : A_EAC3
: _, ?4 ^5 ^) K; ~Duration                                 : 2 h 13 min, X7 Q) l8 t& v
Bit rate mode                            : Constant
+ B+ a; V: x7 ^& LBit rate                                 : 768 kb/s/ {, E3 \2 E$ J8 z" H* o
Channel(s)                               : 6 channels5 S' L5 B% l1 s8 }8 S7 Z; {  Z* P/ I
Channel layout                           : L R C LFE Ls Rs
. d2 T; p# F, W, JSampling rate                            : 48.0 kHz: ~; |0 `3 l$ H# f9 A2 W3 T7 `
Frame rate                               : 31.250 FPS (1536 SPF)% G6 b9 I+ e, l% S" D
Compression mode                         : Lossy- v' A: K* C2 {$ H# K7 t/ q
Stream size                              : 735 MiB (10%)
* ?4 T1 f2 }( E) J' YTitle                                    : English
2 m/ q' Y9 ~: g3 f' A' O- `Language                                 : English
* n. i- R9 y* t1 Y8 B' V' kService kind                             : Complete Main2 H; l" ]) F1 t) D9 J
Default                                  : No
& k+ o: v) m  c! uForced                                   : No
, R# p3 n& [4 e  ^, h, UComplexity index                         : 16
7 W3 x5 n8 \- RNumber of dynamic objects                : 15! F3 G) x  a/ D5 I2 e8 r
Bed channel count                        : 1 channel, g+ M, ^( B# d: `4 x
Bed channel configuration                : LFE$ g# B& p( c$ c- @
) B" M9 y) k8 j' a7 |% W  I
Text #12 U) Q1 p+ r- x4 B) a2 L
ID                                       : 3) I8 u% i) @8 u( N* \5 H: P- F! }+ Q" M
Format                                   : UTF-8$ D4 @! m& J) w/ i; Y4 p: g
Codec ID                                 : S_TEXT/UTF8
, E* v, H- G" `! E$ H- eCodec ID/Info                            : UTF-8 Plain Text
7 b( T1 W4 R4 o+ T1 LDuration                                 : 2 h 12 min
& r0 W" P. Y- B3 N( Z6 c( ZBit rate                                 : 34 b/s
! E* l: v0 I  |5 T8 u3 E; [& mCount of elements                        : 1299# D' v- x/ u) ?! N" n
Stream size                              : 33.8 KiB (0%)
- E3 t' J% ~4 A% ^  dTitle                                    : Norwegian! _7 _$ |& N" L. w% b
Language                                 : Norwegian
2 s- @/ j- U5 \. {Default                                  : No
" I( K$ K9 |3 w6 s+ ~2 pForced                                   : No
8 Z; b4 f" v' `+ {8 h  V2 c% y, x4 z7 g; z4 m0 Y( F- O
Text #23 M# S7 O" r" X+ B
ID                                       : 4; b) a2 ?" Q- H. [; z8 t: h6 C
Format                                   : UTF-8
7 s/ S" W" p, l1 DCodec ID                                 : S_TEXT/UTF8
! H/ z, X! `- `5 v2 pCodec ID/Info                            : UTF-8 Plain Text* r6 X2 K! K$ W( L3 r& X1 A
Duration                                 : 2 h 12 min0 v, E. i  t  e8 D' e
Bit rate                                 : 33 b/s- R& q0 ~7 p1 [$ F
Count of elements                        : 9235 m: S1 X! h: [6 X7 u. {
Stream size                              : 32.4 KiB (0%)' A5 E, z6 V; n2 R9 ~, I: z' N
Title                                    : Danish7 z5 ]$ X1 D. k: l8 K) S
Language                                 : Danish
; P" H% G& P* L7 fDefault                                  : No
7 Z/ u  @7 i4 }7 gForced                                   : No
4 X# w7 m, a) P7 X+ f- a7 ]1 ]1 Z- m
Text #39 S: ?# y/ p. G7 Q
ID                                       : 5
# m6 \- A% q4 |Format                                   : UTF-8
/ G9 _, P$ [/ x& x5 M2 B7 ICodec ID                                 : S_TEXT/UTF8
* x1 i( G0 o( vCodec ID/Info                            : UTF-8 Plain Text
& Y/ [2 r: |& U" b2 Y' m% z. a, ~Duration                                 : 2 h 13 min* ]. n  s; Q( U5 U9 ~
Bit rate                                 : 46 b/s. a: M7 u/ ~8 [3 ?) w. F: [, L
Count of elements                        : 1630
6 F3 n0 K) o3 p: t4 w: ~1 yStream size                              : 45.7 KiB (0%)
; }2 T, f1 \3 @Title                                    : English [SDH]
2 A1 F" j* Y( O% P( o4 f0 s6 DLanguage                                 : English
* w; j; \! p% l1 S  |Default                                  : No( x. N& n/ F, e. k7 r6 D- T- `
Forced                                   : No- v- b% B3 ^* l
: R4 X* j! @0 ]% Y$ E3 ?- }5 V/ a
Text #4* z! Z: C* L* \7 Z/ a' z3 p
ID                                       : 6! b6 v9 M  _5 }9 e
Format                                   : UTF-8
; K. @1 d  i" a9 p! M1 dCodec ID                                 : S_TEXT/UTF8
  s4 n4 s( b$ {- ^Codec ID/Info                            : UTF-8 Plain Text: i, G9 d. `6 v; M# N
Duration                                 : 2 h 12 min3 y  |: |' i6 j% r  h# Y. o1 ?+ W
Bit rate                                 : 35 b/s
5 t* ~$ S0 N' R! SCount of elements                        : 1114* h0 ]& u" d3 ~* c0 K9 N
Stream size                              : 34.9 KiB (0%)
( o# G9 f" R$ t: o# i/ HTitle                                    : Dutch
/ m  M9 z) v+ I$ ?- J( m" i) VLanguage                                 : Dutch# M# H+ p+ c% H9 a. E7 m
Default                                  : No
) L8 O- v4 p9 g7 s7 XForced                                   : No
) e. X1 s: }. ~8 f7 z) b0 X& A/ m4 V% O; B: R
Text #5
, o* a# ~4 J, V  N. |* rID                                       : 72 \( w* n9 b+ h% m
Format                                   : UTF-8
5 |3 c3 k1 Z1 U* Q6 k4 L. a& c3 k7 KCodec ID                                 : S_TEXT/UTF8& i. O' I6 ^' a( |1 G9 b  s! k
Codec ID/Info                            : UTF-8 Plain Text1 H8 w) m4 b4 O4 }5 C) j
Duration                                 : 2 h 12 min0 }1 P. F6 ~" f; X% M
Bit rate                                 : 35 b/s
/ m8 J5 p/ j: M, {( ?9 {7 u$ NCount of elements                        : 1080" Q2 E' [: F) }, M  y! B) I  c# L
Stream size                              : 34.8 KiB (0%)
( a5 o$ v# t" J8 eTitle                                    : Swedish
9 m3 _* e$ D! e0 t4 i$ t& tLanguage                                 : Swedish
, G. }* n  \6 b/ y2 E6 {( w. M  z. F6 s  dDefault                                  : No
4 d& {3 _' d8 K; {7 LForced                                   : No7 b, V1 @0 j6 Q0 L' H. O

0 E6 B* Y3 W* d' b" F7 `, Q6 b) hText #6! g! G; O6 N& f+ n8 s/ J( z
ID                                       : 8
* a- y; ?2 c+ i+ G0 AFormat                                   : UTF-8
) D2 ?- _6 c5 {* Q' gCodec ID                                 : S_TEXT/UTF8
/ K) Z/ F/ H( D) ^8 B2 GCodec ID/Info                            : UTF-8 Plain Text" n0 h7 m2 R. ~5 P
Duration                                 : 2 h 12 min  y2 a* P$ T# _" X4 Q
Bit rate                                 : 39 b/s. }+ J* o: _: P5 z
Count of elements                        : 1306, X( @: E) A- G  U
Stream size                              : 38.8 KiB (0%)
0 T: _/ P9 f8 i' q+ BTitle                                    : English2 r, ?$ P. n3 L* Q" N- f) u
Language                                 : English
9 m( b9 L' W' u2 p1 V7 }Default                                  : No% \( ^* D% n7 r% l* [& d0 K: l
Forced                                   : No
5 Y6 C) N$ ]: z" Z
# n, r- X. ], o" I% N! y1 wText #72 i3 M% @3 ~& M
ID                                       : 9
# z# v8 n0 ?2 j) }- h; zFormat                                   : UTF-8
: ?; Z  `% q% }- FCodec ID                                 : S_TEXT/UTF89 S# x8 m2 O; p
Codec ID/Info                            : UTF-8 Plain Text) P$ q- C5 G, m2 n+ U  q
Duration                                 : 2 h 12 min
4 J& X4 G: _; Z& d. Q2 P$ VBit rate                                 : 39 b/s
' v; Y* Y4 a* C& k( cCount of elements                        : 13002 p* Y5 X; K0 V3 _. T; j% q* j1 P
Stream size                              : 38.3 KiB (0%)5 T7 Z  _5 d* y8 F6 J# [4 h
Title                                    : Finnish
0 m' |" }% B( l( _Language                                 : Finnish$ l$ P2 _& [, {) M$ ~( k
Default                                  : No. U: J( j8 \- f( r
Forced                                   : No( I0 V" @$ k0 B) |# i0 B/ B

, q* ~/ B, y2 ~: fText #8
' q) p  j4 q  U8 fID                                       : 10
. @' J6 i  y; ?/ o% OFormat                                   : UTF-8
0 b; q) d! e4 FCodec ID                                 : S_TEXT/UTF8+ v% F- Y0 ^$ m. D+ m& s
Codec ID/Info                            : UTF-8 Plain Text
8 b! B1 |4 r1 y% G) l7 RDuration                                 : 2 h 12 min6 e2 f; K8 L  c8 \4 z& F  W
Bit rate                                 : 43 b/s" T6 F3 c/ ~, w2 A: D: e0 y
Count of elements                        : 1319
5 f7 W, \3 a" \$ i/ k7 {Stream size                              : 42.7 KiB (0%)( F" m$ q: v& r7 J. G/ G' G0 f/ V
Title                                    : French Canadian9 l! s2 J5 n0 ?3 q& j( F
Language                                 : French! H! n4 R; x! \0 K" p
Default                                  : No
/ ]2 q* \. t6 ?9 Z8 WForced                                   : No
1 m( [  v: ^' q  @; u& U# X9 U6 ?- t. J; i: m! b5 c
Text #9) n3 G, ~8 }) o9 i7 T
ID                                       : 11
7 {1 M4 a  o' ]: ^Format                                   : UTF-88 Q: A: L0 L8 y, a, N/ I
Codec ID                                 : S_TEXT/UTF8
% w+ S. j% Z- ?( G. E$ X. kCodec ID/Info                            : UTF-8 Plain Text
1 g0 n6 [+ ]& L. a, d5 m0 _Duration                                 : 2 h 12 min9 V' O( ^  b5 `8 F8 O1 N
Bit rate                                 : 40 b/s; g$ q1 w1 {) u; ^: K, L* B
Count of elements                        : 12789 p) w# d( {) J6 r
Stream size                              : 39.1 KiB (0%)
) v/ g$ v. j) R. zTitle                                    : Italian- h7 m; @9 C7 y" G4 i  Y: h
Language                                 : Italian
# D" V0 g3 f, @% G" A8 YDefault                                  : No
7 k8 J. y, c% q5 H7 x% R0 oForced                                   : No2 ?9 q1 q  y4 v; n
7 }# u) [4 ?( q+ H6 S' D3 E
Text #10
4 N% M: O* n% o- G/ |8 jID                                       : 12+ L, U6 M% W. F) K! S$ J
Format                                   : UTF-8
. ]$ v( ~! Q# l$ G5 s5 S- J+ o4 DCodec ID                                 : S_TEXT/UTF81 e2 ?' V! z2 t1 }+ Z" Q4 R
Codec ID/Info                            : UTF-8 Plain Text
6 V6 w# J1 W7 F* mDuration                                 : 2 h 12 min+ q2 w0 B4 I- o$ Q1 `
Bit rate                                 : 35 b/s# {. b/ v! g2 b( r
Count of elements                        : 1204
4 Z7 w6 Y6 ]$ [1 QStream size                              : 34.8 KiB (0%): d4 Y8 Z- Z% K+ P; e
Title                                    : German
* K) ~2 S0 H# J0 Y! ^7 P+ _$ [, wLanguage                                 : German
3 P$ I2 ]# A/ _" e: ADefault                                  : No
$ h; E  u2 v: X4 OForced                                   : No
6 N; O. D2 w% V% L" @5 T& k: @3 `# g/ v+ {
Text #11
5 x: N- D# N6 @' QID                                       : 13
3 Z5 Y" d) O" p' o% S! w2 U2 ]! bFormat                                   : UTF-8
7 p# x9 |. @3 i; J# TCodec ID                                 : S_TEXT/UTF8
$ J2 L5 X$ g2 f! e& M3 ~% ?' eCodec ID/Info                            : UTF-8 Plain Text# n4 Z) J( [% M# m3 C: @: V( ?7 H
Duration                                 : 2 h 12 min% x) V0 j& i: w+ H7 E3 l
Bit rate                                 : 39 b/s
" ?- Y0 L( S5 VCount of elements                        : 1297
) o  c# Y/ r1 d3 [, UStream size                              : 38.5 KiB (0%)
* Q- m6 z8 [) nTitle                                    : Brazilian Portuguese+ g4 ?( i7 Y1 u. |
Language                                 : Portuguese$ s! u# J. f# ~& B( P! l& ]
Default                                  : No; g" m( I3 l  l% A1 V, U( R: Y
Forced                                   : No* t- d  z3 r; Y7 j

( [3 m. r% F) @/ S; K7 _Text #12  p- a7 f, {2 J, z+ w8 i
ID                                       : 14
, t% Q0 g& g, y  l  F; J! u' bFormat                                   : UTF-8
2 c7 e  U- X2 C% v$ x2 yCodec ID                                 : S_TEXT/UTF8
7 L) k* P0 W) s% T5 [% v% RCodec ID/Info                            : UTF-8 Plain Text4 ?  W" w( Z+ T) R+ K( E/ K( W/ \2 o
Duration                                 : 2 h 12 min, Z7 A' O/ x5 p9 }+ ?" c# R* g
Bit rate                                 : 38 b/s
& P* r; B1 G1 R% G: F+ i' C, K, ZCount of elements                        : 1273; l: J. {+ q' I$ o& a9 I
Stream size                              : 37.6 KiB (0%), q2 R5 ?9 Z. v# u; u3 }0 Z& v
Title                                    : Portuguese# P# i# [7 {8 h
Language                                 : Portuguese
# y* E0 c8 z7 wDefault                                  : No
/ F% u6 L0 [+ ^( {; G, IForced                                   : No
9 O1 h, n, w$ O' ~: g7 o! v
4 f& s9 z: P; L9 {5 LText #13
; i( _3 {, j9 f7 j6 DID                                       : 15( K& x; g% e( E* ~) r
Format                                   : UTF-8, B9 o# k+ L; f# A9 l3 m
Codec ID                                 : S_TEXT/UTF87 I% l; s! u  `) b0 I1 O
Codec ID/Info                            : UTF-8 Plain Text
3 X7 a' Y+ c$ V/ n6 u, z" K. bDuration                                 : 2 h 12 min
+ x% z2 {8 d% I9 FBit rate                                 : 36 b/s! }& f' R" R( L/ n+ s0 L0 q, w- l
Count of elements                        : 1277& F) r& c7 E8 ]# E' K9 x% B7 q. f
Stream size                              : 35.0 KiB (0%)
4 {( u% V9 X( d4 {0 E; S0 mTitle                                    : European Spanish2 \8 c# d, W" [) w
Language                                 : Spanish, y+ G* G" T( j" ~8 g5 x( J: L
Default                                  : No1 c+ T: Y% z3 O: l. r  x
Forced                                   : No
0 g0 Z3 P: @$ c2 N, b' S' Y  H% j7 J  k
Text #142 O% Q! ^* q" f0 S7 m) K
ID                                       : 16, |/ ]$ {5 h9 X
Format                                   : UTF-8
! y# g& j0 N% P# a' ?Codec ID                                 : S_TEXT/UTF8
- u- t8 k8 M7 P/ ]' ~; oCodec ID/Info                            : UTF-8 Plain Text' V! P2 J3 W7 S* Z5 V
Duration                                 : 2 h 12 min7 `. Z$ \5 }5 r# l
Bit rate                                 : 33 b/s
9 f3 J) S: Z- j: oCount of elements                        : 1256
6 `" A% s$ K& f3 m4 n3 D3 H& HStream size                              : 32.4 KiB (0%)
+ ?- v$ I' j5 j4 B, c% dTitle                                    : French. s" P/ t5 d2 v
Language                                 : French
/ n: b% b9 m! i+ H- p8 w7 eDefault                                  : No* E' |" ~% i  b/ I) x
Forced                                   : No
- y- a) W* e2 D6 u' Y& c) j# h  V) {7 w0 A, [% s$ ]3 x
Text #151 F+ h0 U0 v& r( c4 W
ID                                       : 17
' \' l, l# Q1 q" P5 }Format                                   : UTF-8
3 m5 K% ^5 C: ]' b$ SCodec ID                                 : S_TEXT/UTF8
4 I7 ~1 Z/ I+ F1 nCodec ID/Info                            : UTF-8 Plain Text
$ h: j! f7 X, G9 B# `5 TDuration                                 : 2 h 12 min
2 |5 g: c1 c* z. PBit rate                                 : 32 b/s2 n3 I7 a- w! r2 A
Count of elements                        : 1257
) W; w3 L% N& P7 I* b" R6 B4 [Stream size                              : 31.6 KiB (0%)
  K; ]7 @' t! ~, _, r& Y1 XTitle                                    : Japanese2 G! O# h, D+ [, F3 W% s
Language                                 : Japanese
& e# B$ z8 g3 vDefault                                  : No) r2 ~% w1 R4 Q: b" l: @
Forced                                   : No8 R# a$ @( E1 a. B* n% {) K
" B, K% |3 G+ X% Y' k5 u
Text #16. K4 f& i9 F3 S' n) E( h
ID                                       : 18
4 w: R( e1 f: D/ `3 yFormat                                   : UTF-83 k8 K, A# |. G& v& q
Codec ID                                 : S_TEXT/UTF8$ _" X: l  _9 p( G. s
Codec ID/Info                            : UTF-8 Plain Text
0 K) x2 E, r  m. Q) B& rDuration                                 : 2 h 12 min9 S4 \; L7 d& ^. ?4 C) Y
Bit rate                                 : 40 b/s
9 h1 v& ~3 P: p9 T3 BCount of elements                        : 1301
% D1 ?3 F+ N0 o, xStream size                              : 39.4 KiB (0%)8 P1 {; W( g+ b% }" P
Title                                    : Spanish: U( u  D# X' A1 }( B
Language                                 : Spanish3 I9 f. Q8 N: }0 X* _
Default                                  : No
5 j5 C% o4 {# f. _$ L5 c! xForced                                   : No
7 C8 e2 o( W! _$ W" _
游客,查看本帖隐藏内容请回复 | 加入VIP贵宾可免积分免回复 了解详情 | 还不是会员:点击获取邀请码 Invitation Code

1

主题

92

帖子

558

积分

Sponsor

金币
22 枚
体力
342 点
QQ
qiao7101200 发表于 2021-7-27 21:29:21 | 显示全部楼层
沙发是抢的而不是占的!
1 O& C3 ~- \3 ^6 [) S1 N" SBluraycd.com movie updates really fast, also did not release issued, whether you believe it or not, anyway, I believed!
蓝光论坛里 ...

0

主题

56

帖子

379

积分

Sponsor

金币
58 枚
体力
197 点
xingfu 发表于 2021-9-7 21:28:30 | 显示全部楼层
每天都来蓝光论坛看看,我爱蓝光电影。6 E5 \. C- V! I0 M, A0 E) n# ^7 h
Thank you for sharing such a good resource polite reply, very sorry for myself!
2 \  F2 ?  N, @* M6 h+ p

0

主题

138

帖子

821

积分

Sponsor

金币
52 枚
体力
433 点
zzk980220 发表于 2021-7-10 11:16:24 | 显示全部楼层
啥也不说了,楼主就是给力!
0 G/ I+ y: y- ?9 s) e& Y9 A3 e; ZThank you for sharing such a good resource polite reply, very sorry for myself!2 c0 `. k2 C; E! _0 r8 [5 [2 H; t, B# K/ y

0

主题

43

帖子

518

积分

Sponsor

金币
79 枚
体力
324 点
QQ
longhui16818 发表于 2021-7-10 21:37:56 | 显示全部楼层
楼主辛苦了

0

主题

223

帖子

1072

积分

Sponsor

金币
194 枚
体力
402 点
lfvvzc 发表于 2021-7-13 16:28:48 | 显示全部楼层
Bluraycd又有新电影发布了,激动中……!* }  a/ F' h+ a( L
Blu-ray Film Forum is now my home!# W  K* v: e! k9 z

0

主题

58

帖子

373

积分

Sponsor

金币
82 枚
体力
167 点
beamk 发表于 2021-7-30 20:52:30 | 显示全部楼层
好片好片,谢谢

0

主题

90

帖子

662

积分

Sponsor

金币
195 枚
体力
283 点
aacq 发表于 2021-8-3 22:33:48 | 显示全部楼层
漫威宇宙一期的收官之作,谢谢楼主分享精彩片子

0

主题

81

帖子

332

积分

Sponsor

金币
1 枚
体力
144 点
秋天0091 发表于 2021-8-4 21:21:49 | 显示全部楼层
下载不了啊!

0

主题

53

帖子

193

积分

Sponsor

金币
8 枚
体力
80 点
fuji9226 发表于 2021-8-12 12:05:28 | 显示全部楼层
感谢楼主的分享6 Z, Y6 e4 Q, b% C. d0 x, P; [3 z

本版积分规则

小黑屋|Archiver|蓝光电影资源网

GMT+8, 2021-12-4 16:10

Copyright © 2001-2022, Tencent Cloud.

快速回复 返回顶部 返回列表