BluRayCD Forum

 找回密码
 立即注册【分享大片】
查看: 234|回复: 14
收起左侧

[4K极清电影] 黑寡妇 [4K REMUX无损版] Black Widow 2021 2160p BluRaycd REMUX HEVC DTS-HD MA TrueHD 7.1 Atmos-FGT 55.88GB

[复制链接]

5550

主题

5899

帖子

6万

积分

Forum Moderator

金币
4409 枚
体力
25796 点

卓越贡献勋章VIP蓝光勋章

迅雷电影 发表于 2021-9-10 08:30:17 | 显示全部楼层 |阅读模式
A film about Natasha Romanoff in her quests between the films Civil War and Infinity War.
) K5 u9 r6 S: W4 V2 V# N# a, B  d" O! O2 y; F' Y8 K7 s
01.jpg
0 W0 s: x# R% D% p# i8 y$ i( v3 s+ W$ R7 u1 H+ i4 d
◎译  名 黑寡妇* u  l. C4 S5 P4 C3 ?7 J
◎片  名 Black Widow / The Black Widow
$ Q" A: S8 O) o' k. Y2 t( F2 ^◎年  代 20214 H( P3 K7 a; A2 ^
◎产  地 美国
! _5 C! _& w- C5 {◎类  别 动作/科幻/冒险
4 @1 c1 E/ l" I& I4 q$ O◎语  言 英语/俄语/挪威语/匈牙利语/马其顿语/芬兰语3 s3 a3 `9 E0 s7 y' v" W
◎上映日期 2021(中国大陆)/2021-07-07(中国香港)/2021-07-09(美国/美国网络)+ a4 m3 h/ x; W, z: V" p# J/ ~
◎IMDb评分  6.8/10 from 207,625 users  h' R% f, @8 _0 k; O/ `, F8 r
◎IMDb链接  https://www.imdb.com/title/tt3480822/* y1 ]$ B. A8 I& C( o1 K' M
◎豆瓣评分 6.3/10 from 115,446 users6 G4 |" I" _% I  Y; M2 {
◎豆瓣链接 https://movie.douban.com/subject/25828589/
3 ?/ S' r' Z# V$ [( `) l◎文件格式 x265 + DTS + TrueHD
; f/ r" Q# z. ^# y7 G◎视频尺寸 3840 x 2160
1 u  v+ Q( Y, {4 i) t9 [! a$ t, I◎文件大小 1DVD 55.88 GiB
9 v# w% ^1 y8 }: I; f! d  R& A◎片  长 2 h 13 min
4 `9 b4 O. v$ D5 G4 Z◎导  演 凯特·绍特兰 Cate Shortland
+ O. R: w' S1 Z' x9 b% l% [, f) X1 x◎编  剧 雅克·舍费尔 Jac Schaeffer
% J0 k: J$ F  s) L& [       内德·本森 Ned Benson
5 _2 @$ r5 u! _+ j       埃里克·皮尔森 Eric Pearson7 r, |  `4 L+ _/ R  }: ~  ]. `& V
       斯坦·李 Stan Lee
  d# J; q6 C6 h       唐·赫克 Don Heck
" ]8 m7 v5 ]  v) F       唐·里科 Don Rico
$ C* W9 Y4 u* c8 @; i◎主  演 斯嘉丽·约翰逊 Scarlett Johansson6 q% `# }- d( G; {- i! _
       弗洛伦丝·皮尤 Florence Pugh  w; M' e/ @/ o4 }* @
       蕾切尔·薇兹 Rachel Weisz
! D1 u0 X& ^& |* [- o; B0 W# p       大卫·哈伯 David Harbour4 R6 W. j1 T  D% T" _
       威廉·赫特 William Hurt
% ^% V& E6 y; r% ]% Z  e4 i0 D       雷·温斯顿 Ray Winstone& e  H1 S. k% c
       奥利维尔·里希特斯 Olivier Richters
* {) b  d2 ~2 `% k# g       O·T·法格本 O.T. Fagbenle
- e" g1 V, V# R! s0 t       艾尔·安德森 Ever Anderson, g0 c- f, ^; Q7 J. w
       米歇尔·李 Michelle Lee
% V( Y  o* k$ P  G) m       拉娜·布隆代尔 Nanna Blondell$ T6 a3 T1 l! Q$ L: `
       维奥莱特·麦格劳 Violet McGraw
; h7 g7 K- h: \+ [       赖恩·基拉·阿姆斯特朗 Ryan Kiera Armstrong
; E7 @% C  k) r. J       约恩·巴特勒 Ione Butler
" \% b7 {' X1 Z" b- j4 u7 z       乔治亚·柯蒂斯 Georgia Curtis2 E' j/ K- ^1 C) p4 m
       泰·赫尔利 Ty Hurley
& [- Z) r4 `% k& g       安得烈·拜伦 Andrew Byron) F' x% C: S# m
       乔基姆·斯卡利 Joakim Skarli% y+ i7 ?# R0 W" E( ~# m9 W
       史蒂芬·萨姆森 Stephen Samson7 U$ d, _4 X4 o/ X' N
       亚当·普里克特 Adam Prickett
5 s* R# W! O3 w8 i* f; S1 p( o) N       马里安·洛伦西克 Marian Lorencik/ f2 D/ |5 Z% P+ J" \! n
       利亚尼·塞缪尔 Liani Samuel
" q6 L/ C$ ^7 V       西蒙娜·齐夫科夫斯卡 Simona Zivkovska+ o! I$ V: }3 Q% g
       刘易斯·扬 Lewis Young/ ?9 y/ G( o' w# w3 ?
" }/ X8 V, b1 [7 T5 b
◎标  签 漫威 | 斯嘉丽·约翰逊 | 黑寡妇 | 超级英雄 | 美国 | 科幻 | 动作 | 2021
) A2 M- D; Z9 G1 B; O% X$ ~: ]# L
* _; d' s, K6 {( A◎简  介   ; u- i! {$ c4 V1 g/ U6 ^

9 W7 B* G9 U$ y# Z9 p6 t+ r  一部充满动作戏的间谍惊悚片。娜塔莎·罗曼诺夫/黑寡妇遭遇与她的过去相关的一场危险阴谋,将直面自己那些更为黑暗的经历。一股不惜一切要击倒她的力量袭来,娜塔莎必须面对自己在成为复仇者的很久之前那作为间谍的过往,和曾远离的破碎关系。: j8 k/ m; j( B: s

+ |; s9 @0 T+ y6 f4 C' E  B  Natasha Romanoff aka Black Widow confronts the darker parts of her ledger when a dangerous conspiracy with ties to her past arises. Pursued by a force that will stop at nothing to bring her down, Natasha must deal with her history as a spy and the broken relationships left in her wake long before she became an Avenger.
! Y$ N& @- E! u1 `4 K1 ]( ~) A# E1 r7 @( f9 a
◎获奖情况+ U4 b# ?% \4 ?) P

: M. D8 C) H0 f3 d6 M  第7届豆瓣电影年度榜单 (2020)8 T8 v0 y/ e0 Y7 o9 _' Y0 p. p$ r
  最值得期待的外语电影$ ]* X8 ]3 u; \+ l: L3 X( P
  : K7 u8 Z$ F5 K
  第6届豆瓣电影年度榜单 (2019)
& ^0 p: A- j+ k  最值得期待的外语电影
4 w" D( s% B3 [3 K. t  o
Video
5 G) E+ }9 H4 D% r, L) a6 ?0 vID                                       : 1
7 v2 H7 b  z2 B  C. vID in the original source medium         : 4113 (0x1011)" ?0 r( W, q* L1 L% A$ m
Format                                   : HEVC
3 g! h* d0 M2 g+ B- HFormat/Info                              : High Efficiency Video Coding
4 m8 U# L: [# w7 B' UFormat profile                           : Main [email protected]@High
7 A# I# r3 Z' {8 xHDR format                               : SMPTE ST 2086, HDR10 compatible
. w- S7 I, G4 x& ?# WCodec ID                                 : V_MPEGH/ISO/HEVC9 s0 F: Y+ L5 r$ C: A! [
Duration                                 : 2 h 13 min; k  D8 e' E9 w) X
Bit rate                                 : 46.2 Mb/s4 \3 S. a9 W8 ?2 v  K% u3 S
Width                                    : 3 840 pixels, e* \( \. ]5 s/ w0 @
Height                                   : 2 160 pixels
+ w* `  ~; ]( i, v9 tDisplay aspect ratio                     : 16:9
/ U9 g$ ^: C* o/ I. t% n/ YFrame rate mode                          : Constant
( i) U4 J5 s) [& iFrame rate                               : 23.976 (24000/1001/189150) FPS
; ~$ _6 t( N5 Z. FColor space                              : YUV
4 S4 J( e# C$ `2 Q; N9 B3 h' wChroma subsampling                       : 4:2:0 (Type 2)% c  ~2 p1 h) v! f* L
Bit depth                                : 10 bits* c% I+ P% _" q4 y+ h1 j) _8 F
Bits/(Pixel*Frame)                       : 0.232
9 h1 V/ e2 v% W% RStream size                              : 43.2 GiB (77%)- Z; S, X2 b( i0 D3 O$ R
Writing library                          : ATEME Titan File 3.9.6 (4.9.6.2)     2 D8 K& j8 o! p8 n  _
Title                                    : Black.Widow.2021.2160p.BluRayCD.REMUX.HEVC.DTS-HD.MA.TrueHD.7.1.Atmos-FGT   
) n* b& c6 i, w8 R" A6 H" O2 ULanguage                                 : English( m0 ~. e# C: B* j0 r5 w, I
Default                                  : No
" b+ D  `3 K, W" |9 [Forced                                   : No% t3 J' Q& u. U4 P; U; Z4 w& i: h
Color range                              : Limited
* n9 K5 Y% @. `2 QColor primaries                          : BT.2020  Z8 n! @! I6 ]5 \7 P( @  A
Transfer characteristics                 : PQ+ T6 p' z1 ]2 b1 }0 Y
Matrix coefficients                      : BT.2020 non-constant
  U( l, c" k. w4 yMastering display color primaries        : Display P3& l% Q" Z9 p3 i5 \5 m+ _* G: X0 g
Mastering display luminance              : min: 0.0050 cd/m2, max: 1000 cd/m2
) X. H  g/ C' v" g  Z3 ROriginal source medium                   : Blu-ray6 @5 T7 ?& s2 a$ o; J
: }! q) T1 p' _3 T- Y2 T
Audio #1# G( F  f2 G4 `. @2 U
ID                                       : 2
% Z/ [) `0 w( [3 W1 SID in the original source medium         : 4352 (0x1100)
/ g0 `9 M$ _- SFormat                                   : MLP FBA 16-ch
7 L( M; L4 z$ X1 `Format/Info                              : Meridian Lossless Packing FBA with 16-channel presentation9 A3 ^% o2 h, s5 D0 ?
Commercial name                          : Dolby TrueHD with Dolby Atmos% D: }" y$ e* {3 `
Codec ID                                 : A_TRUEHD
5 d3 S& ]. A9 Y. NDuration                                 : 2 h 13 min
4 U- g- s( D* J  Z# @Bit rate mode                            : Variable; c% E; F* U2 a8 y4 M; n* |
Bit rate                                 : 4 284 kb/s8 {# ], L" h. Q1 R) u
Maximum bit rate                         : 7 737 kb/s
& m8 l' e: a2 q4 W  N+ s# i; G! [Channel(s)                               : 8 channels
$ k, H5 Q2 d4 O& r3 v, PChannel layout                           : L R C LFE Ls Rs Lb Rb# ^& G0 k5 k( p1 R- M4 q* v  @
Sampling rate                            : 48.0 kHz
. q8 U( x, B# g( }( a1 e5 aFrame rate                               : 1 200.000 FPS (40 SPF)
/ F6 v) X( @( G3 W, P1 }% y$ I* }: EBit depth                                : 24 bits4 i8 o7 M' ~- |: Z; U: W; U, X
Compression mode                         : Lossless
/ }9 u% q( z& V! dStream size                              : 4.00 GiB (7%)" m2 Z4 R; {5 V2 E
Title                                    : Black.Widow.2021.2160p.BluRaycd.REMUX.HEVC.DTS-HD.MA.TrueHD.7.1.Atmos-FGT# S( T" v- W, m: `3 f
Language                                 : English; g2 Q- E/ u2 V/ r
Default                                  : Yes
5 j1 U. [2 F; t; Z/ x" p* ~Forced                                   : No+ g1 d$ F. l$ d# `$ t
Original source medium                   : Blu-ray7 v; H5 C  w& Y
Number of dynamic objects                : 13  K$ P$ v% A1 z- F4 ]! b
Bed channel count                        : 1 channel& t# B5 E5 e; F! y
Bed channel configuration                : LFE9 E$ t$ @* I6 A1 N* R2 a/ C
& C  u9 r# M* ?/ e- ]
Audio #2
& k  \* ^4 A  B' ^3 d% \  F' @6 QID                                       : 34 ^# @6 B- g8 |2 `1 O* U% M1 k
Format                                   : DTS XLL- z6 ~/ p0 J3 y9 A7 C5 u6 I" H3 q
Format/Info                              : Digital Theater Systems2 Q4 k  p/ r7 |$ u9 R4 K) \
Commercial name                          : DTS-HD Master Audio
6 [) ?) B* y/ M% f0 X6 C2 mCodec ID                                 : A_DTS
* z: {& k8 j& D2 V+ EDuration                                 : 2 h 13 min
7 {0 ~. v9 I" t+ V& N% Z+ rBit rate mode                            : Variable
" O4 e! G0 {) M' g2 p- ~* ]# ^Bit rate                                 : 4 412 kb/s/ C/ {3 Q& q( z7 }& |7 P" S: ~
Channel(s)                               : 8 channels) ~5 I3 ^7 J0 o* d! K; f# ?: S: n
Channel layout                           : C L R LFE Lb Rb Lss Rss' B* F/ ~8 j& I+ N4 d/ D
Sampling rate                            : 48.0 kHz$ [+ n. Y. A- J% l4 X
Frame rate                               : 93.750 FPS (512 SPF)4 w( L) D" z/ Z4 w/ Y
Bit depth                                : 24 bits
' ~; {- s% B" y0 d: \- D# t3 XCompression mode                         : Lossless7 l1 i1 C2 M/ B# j8 `; L
Stream size                              : 4.12 GiB (7%), U: e) {& x$ n  h
Title                                    : Black.Widow.2021.2160p.BluRaycd.REMUX.HEVC.DTS-HD.MA.TrueHD.7.1.Atmos-FGT. b5 [; f' W6 F% t3 R5 _
Language                                 : English- M0 \) o( m$ x
Default                                  : No2 [7 W+ }; c' A; }# q/ p
Forced                                   : No
+ q. D* X, a3 H# H: B
4 f. u4 S% |& t' aAudio #3! }) |: |. Q, y$ n% f! c! C
ID                                       : 4
% `  q& \: u8 z0 Y0 j& Q; vID in the original source medium         : 4352 (0x1100)" o2 e( ]& z, x0 D/ c/ o
Format                                   : AC-3
# |0 ~5 D1 {* k0 TFormat/Info                              : Audio Coding 3
5 ~8 O) V- p5 |Commercial name                          : Dolby Digital0 W8 _5 E. q1 a0 |
Codec ID                                 : A_AC3/ G' r5 V9 W8 F* Z3 \
Duration                                 : 2 h 13 min
; _& q$ K- Q5 j% _5 x2 {) p; lBit rate mode                            : Constant# W7 {9 u9 d) ~/ C
Bit rate                                 : 640 kb/s+ j0 I1 q$ g) ]- W0 g5 ~- f
Channel(s)                               : 6 channels5 P7 }- D+ K/ U) N2 m' x
Channel layout                           : L R C LFE Ls Rs
) k; t. D5 y; ^3 Y5 G0 cSampling rate                            : 48.0 kHz* o3 o. \% L2 T6 i! F9 q7 z+ m9 p3 E
Frame rate                               : 31.250 FPS (1536 SPF)
. c( }8 `+ {/ k, p7 h% K8 l1 lCompression mode                         : Lossy) m' l/ t4 C/ ~# a5 q/ u# t" \# p
Stream size                              : 612 MiB (1%)# ]' Y. B3 d' o# T/ k6 n
Title                                    : Black.Widow.2021.2160p.BluRaycd.REMUX.HEVC.DTS-HD.MA.TrueHD.7.1.Atmos-FGT
) u# H& r( E1 o/ l. o; lLanguage                                 : English
; K" `7 ~: t8 N  ^$ }Service kind                             : Complete Main
4 X3 L" _# m& ?' z, P* dDefault                                  : No
, K% P. m" |' V5 IForced                                   : No2 J0 S# ^  u+ }, \5 `  \; }
Original source medium                   : Blu-ray
% C) f$ R9 ~+ r4 `" B
0 {0 }- d( f4 E% \Audio #4
! b  x+ y9 F$ W9 h6 a4 i; JID                                       : 54 C" G+ j3 E8 Q. g4 a7 d
ID in the original source medium         : 4353 (0x1101)
/ m9 ]  u1 t( k. D1 S! e9 M, LFormat                                   : AC-3$ e; }  ^6 a5 f" t. J1 ]% r/ p
Format/Info                              : Audio Coding 3
5 F% k; K1 N! x8 [) u1 QCommercial name                          : Dolby Digital* F8 r1 Z5 @- ?9 f2 @
Codec ID                                 : A_AC36 q6 }; Q- k! W
Duration                                 : 2 h 13 min
" P9 h5 z; \) }8 S% s/ h+ B1 c9 n! x; kBit rate mode                            : Constant# i! m  k: g- A3 R) H* T
Bit rate                                 : 320 kb/s3 G/ y$ J! p! a' M8 u
Channel(s)                               : 2 channels
- F/ a/ [7 |! T0 tChannel layout                           : L R
1 `' T" Q8 l1 `" U6 nSampling rate                            : 48.0 kHz6 j3 j3 e2 ?* |& q
Frame rate                               : 31.250 FPS (1536 SPF). O# |- I9 X7 V( V2 S( s
Compression mode                         : Lossy
! h/ L; T8 t3 ~" VStream size                              : 306 MiB (1%)
  d+ D' B- }3 MTitle                                    : Black.Widow.2021.2160p.BluRaycd.REMUX.HEVC.DTS-HD.MA.TrueHD.7.1.Atmos-FGT  t! j$ ?# I1 z) G! T4 j& r
Language                                 : English
' D" s/ ?& e( `9 d% ZService kind                             : Complete Main
) L5 x! r/ U5 {3 m. e3 q1 T0 SDefault                                  : No' o+ e6 U6 }9 e
Forced                                   : No4 ]$ s5 `' M2 w) h
Original source medium                   : Blu-ray4 \# b4 D: V# ~
% K) F# D; b* g* z3 f
Audio #5
3 c; l8 ^" {/ U0 xID                                       : 6
6 n* k1 z1 f& r5 G: @& c. I- ~ID in the original source medium         : 4354 (0x1102)
* E( a4 R2 t9 _. R! m% n' H+ }Format                                   : AC-3
" g1 s9 ^& b# N- Y# l/ @Format/Info                              : Audio Coding 3
- i3 u5 d9 C! r. X. S5 iCommercial name                          : Dolby Digital& G; A5 `4 ]1 L- B) [
Codec ID                                 : A_AC30 I4 C# E7 A. ^& f+ p4 x
Duration                                 : 2 h 13 min3 G8 d3 o0 E9 ^; W, p) _! j
Bit rate mode                            : Constant% f3 |! I* K. L: C" ?* s
Bit rate                                 : 640 kb/s. f  h3 n/ T9 J! I/ b% j& v, M. Q
Channel(s)                               : 6 channels
4 e2 d& B4 @" c# qChannel layout                           : L R C LFE Ls Rs
% q- J' N( t0 a  A; n; s# KSampling rate                            : 48.0 kHz
, W7 J( i& n: R; o! h- nFrame rate                               : 31.250 FPS (1536 SPF)
3 ~. b* ]9 g% H! M. F0 n! g1 k% aCompression mode                         : Lossy  V! b4 j5 c, c8 p
Stream size                              : 612 MiB (1%)2 N* W: y! q* r+ h5 e% k5 `
Title                                    : Black.Widow.2021.2160p.BluRaycd.REMUX.HEVC.DTS-HD.MA.TrueHD.7.1.Atmos-FGT
+ w* M) G& j2 \8 d: h% Z& @Language                                 : French2 n, S4 T3 }  l9 P- ]* C% n$ u1 f
Service kind                             : Complete Main
6 H+ i* I' r; I' L8 RDefault                                  : No/ i2 ~5 w+ I! O1 Y1 A8 F
Forced                                   : No: i7 h9 Q2 E" A
Original source medium                   : Blu-ray5 J+ ^7 f+ A) R' q# I, o- I

* `3 d% f  i+ N$ L0 o: m1 ~$ nAudio #60 K  M" m6 R5 n* }
ID                                       : 7, e4 Z. z8 i$ j8 [9 F' z
Format                                   : E-AC-33 ?1 g$ L) V, [: C  D& ^
Format/Info                              : Enhanced AC-3
) G: w# m  y0 bCommercial name                          : Dolby Digital Plus
; R  z, R+ j2 f# K& W' J$ zFormat profile                           : Blu-ray Disc, _+ G) t) A0 L2 c' w" a
Codec ID                                 : A_EAC3
) T1 s4 l% j( a: eDuration                                 : 2 h 13 min
6 l# K( x4 X8 c( b8 H/ GBit rate mode                            : Constant
7 P$ K4 X  K: X* \Bit rate                                 : 1 024 kb/s
6 C. Z- d( ~# P4 c2 b6 d! SChannel(s)                               : 8 channels
6 t/ _2 `' R' v9 v$ S6 uChannel layout                           : L R C LFE Ls Rs Lb Rb
5 U4 z7 r* ]4 u# V5 g7 E/ qSampling rate                            : 48.0 kHz% [" h( W+ n# D( I6 m6 \' t
Frame rate                               : 31.250 FPS (1536 SPF)
, |# B( z! s8 I4 h  \. vCompression mode                         : Lossy
; r. l( I, u# j. {! [( J* x% oStream size                              : 980 MiB (2%)
* D. b( w4 ?0 o4 h/ U) N* zTitle                                    : Black.Widow.2021.2160p.BluRaycd.REMUX.HEVC.DTS-HD.MA.TrueHD.7.1.Atmos-FGT
# W( ]9 `1 N4 O+ k) Q) H; XLanguage                                 : Spanish: T$ f% w. ]9 m
Service kind                             : Complete Main3 h8 K* X: i. u2 @; r
Default                                  : No
8 p0 G4 D0 O2 |0 y: Y7 U; ]; QForced                                   : No1 ^6 }0 p: S% L

" K, @  a/ z+ _' z' [Audio #7
+ ~; D: a$ z5 |) v/ u" CID                                       : 8; P& N9 ]: T9 q" K5 M& w! B2 h
ID in the original source medium         : 4355 (0x1103)1 {( Q. i  R7 P$ u
Format                                   : AC-3% B4 z+ c9 x; v
Format/Info                              : Audio Coding 3  |, K, y& E6 y5 e# w- W# p/ ?
Commercial name                          : Dolby Digital
! M, Z. I4 w6 B$ x/ b/ |Codec ID                                 : A_AC3
4 y* q  U9 `9 g3 q3 k, [Duration                                 : 2 h 13 min$ p. r' O" {2 f0 v
Bit rate mode                            : Constant7 o" c4 A( f2 V1 X" v. z
Bit rate                                 : 576 kb/s' C! G+ w0 o5 D
Channel(s)                               : 6 channels
( X% j% {1 p& ~3 }Channel layout                           : L R C LFE Ls Rs
4 [9 A/ ?: ^+ k1 QSampling rate                            : 48.0 kHz
3 S4 q+ Q' V' @+ S5 U. ]( f' w: K/ aFrame rate                               : 31.250 FPS (1536 SPF)
7 X2 p( }# [: D0 y0 r9 DCompression mode                         : Lossy. @2 w* m) X& P9 O
Stream size                              : 551 MiB (1%)* _+ W* x; @# N
Title                                    : Black.Widow.2021.2160p.BluRaycd.REMUX.HEVC.DTS-HD.MA.TrueHD.7.1.Atmos-FGT( C6 r  _( x% y8 x) c/ r
Language                                 : Spanish7 j: ]- M0 L7 x
Service kind                             : Complete Main5 i6 p$ ]3 k9 B- x9 A5 K; I! A
Default                                  : No
* s& t+ I# W  cForced                                   : No. m6 Y& p# _2 V3 e5 ~. M$ m
Original source medium                   : Blu-ray- w( I4 ]) i8 F- H8 h0 s& b8 p8 z
3 x% d9 u2 L. P: I" c
Audio #8
1 v! `9 H" j8 w5 m, {4 x- YID                                       : 91 P$ t) z( p" L1 U& F
Format                                   : E-AC-3# s5 }* ^: O7 B2 g1 e/ k3 P8 U2 f  I
Format/Info                              : Enhanced AC-3
6 T9 W+ b# t" R' v- yCommercial name                          : Dolby Digital Plus/ N- a* Q8 i" g% W/ k6 Z) Y; A
Format profile                           : Blu-ray Disc
5 y, j0 \$ p+ [' LCodec ID                                 : A_EAC3
$ d& Z; h0 K8 ]4 u8 zDuration                                 : 2 h 13 min1 Q6 c0 U3 i$ G
Bit rate mode                            : Constant: b# m) w2 u  m% v; |/ U" E
Bit rate                                 : 1 024 kb/s1 s9 z6 Y/ M4 L$ j8 C4 V
Channel(s)                               : 8 channels
7 }% l" l, _# E' k9 lChannel layout                           : L R C LFE Ls Rs Lb Rb
$ I8 J6 V0 a1 |Sampling rate                            : 48.0 kHz
4 W. d7 P% y2 L# l5 V& iFrame rate                               : 31.250 FPS (1536 SPF)) b8 Z: c/ b+ F3 `" V1 A) K
Compression mode                         : Lossy
6 U" C4 W! f" l- {0 G% l& NStream size                              : 980 MiB (2%)- j; {4 x# B1 L) v: P7 k
Title                                    : Black.Widow.2021.2160p.BluRaycd.REMUX.HEVC.DTS-HD.MA.TrueHD.7.1.Atmos-FGT) \6 \1 S, V2 P0 F* C5 `
Language                                 : Japanese
$ W* A0 c8 @4 M  j0 L( tService kind                             : Complete Main. c: p$ a- N& c2 l
Default                                  : No
( `. H/ a3 u8 Y, B! M. SForced                                   : No
9 {- p0 i3 q4 Z3 P) r2 z- n- `  w) m8 r# A
Audio #9
4 D- Y3 Q/ V# m# ^- ]ID                                       : 10
- {! j( B2 ~  G: P4 NID in the original source medium         : 4356 (0x1104)+ o1 ]! g( N9 s" _% s
Format                                   : AC-3
$ \& H" B& W6 l6 HFormat/Info                              : Audio Coding 3
# _, L3 L) Z  VCommercial name                          : Dolby Digital
' w1 C& P! a5 U0 D* w& ACodec ID                                 : A_AC3
/ I9 T' s/ s- k2 l$ V7 q' K* xDuration                                 : 2 h 13 min
% \/ u9 A' m( [Bit rate mode                            : Constant
; c7 N1 i- A" Z$ t3 D* C# IBit rate                                 : 576 kb/s
& r; T" `$ t* H$ l. ^$ C; tChannel(s)                               : 6 channels
# a. X2 H/ ]% {- o" qChannel layout                           : L R C LFE Ls Rs4 G2 K3 P+ k& [5 U
Sampling rate                            : 48.0 kHz- s+ v* K# ]4 r5 I4 C; k
Frame rate                               : 31.250 FPS (1536 SPF)# Q$ W8 d% P6 M- L: K; U
Compression mode                         : Lossy# r( E- k: R4 j& U
Stream size                              : 551 MiB (1%)
5 U- v7 S  S: h; x* n) u( h0 uTitle                                    : Black.Widow.2021.2160p.BluRaycd.REMUX.HEVC.DTS-HD.MA.TrueHD.7.1.Atmos-FGT
; X3 P. a  @6 N) u6 xLanguage                                 : Japanese
* m" w5 S9 b- h1 E& rService kind                             : Complete Main! f- ~" Q) W/ m* l
Default                                  : No3 u% G+ F* B/ n7 F- E, L
Forced                                   : No3 E9 ?( s8 W# F' K4 V
Original source medium                   : Blu-ray6 c& U8 i8 E9 p* V+ Q1 h& H
6 b# U3 r$ }+ E# z$ M4 @4 K$ I
Text #1. g# n3 z. H) |
ID                                       : 11
$ m2 F# D3 `# a# [& zFormat                                   : UTF-8
* k) J6 w3 w% CCodec ID                                 : S_TEXT/UTF8  \0 ?3 H, ]) c: f+ W
Codec ID/Info                            : UTF-8 Plain Text
& Q9 u! h/ y4 O$ g+ P5 ?  h+ ^Duration                                 : 2 h 12 min
6 q1 x1 m4 W7 ^6 d! MBit rate                                 : 40 b/s
4 e& n; K" R" z9 K$ f8 [! oCount of elements                        : 13394 _3 V; X& z" q# \  ~9 `* x! v
Stream size                              : 39.7 KiB (0%)* D4 [4 i) S6 @
Title                                    : SRT2 c6 |$ [' A0 G9 K* V5 A
Language                                 : English
; |& T0 Y! ]+ j2 l/ Y- z* ]  ?Default                                  : Yes
  H5 R$ z3 t) g1 X; N; l) cForced                                   : No
% K, h9 e, C+ t; N* M, Q1 e7 O: Z
2 |3 x8 R" G9 {" W; z$ zText #2, q* c% ^4 }+ P- S
ID                                       : 12, o& }- J7 N" ]$ V. K
ID in the original source medium         : 4768 (0x12A0)
! D: S( ~; }$ yFormat                                   : PGS, e& \  w$ _" y. u# z7 p
Muxing mode                              : zlib
' X4 V4 _% S; {3 x/ {Codec ID                                 : S_HDMV/PGS& k8 V7 N0 p. R' ]4 E0 y' ~
Codec ID/Info                            : Picture based subtitle format used on BDs/HD-DVDs
+ a. O8 P1 J( U% w9 A8 H2 iDuration                                 : 2 h 13 min
# A: o7 e! g* x% J" P+ t: l  `Bit rate                                 : 32.2 kb/s: L/ V' x& [) V- {& g' Z
Count of elements                        : 3294
4 u! z  Z, X! B* M" P& wStream size                              : 30.7 MiB (0%)
# f0 T1 N0 u2 \0 f6 O* YLanguage                                 : English
! @& J  l/ n, `. N: D. T6 MDefault                                  : No. h/ X: F" r! ?) [  A" |0 m
Forced                                   : No
4 D/ f6 x1 z' i0 i  uOriginal source medium                   : Blu-ray: Y" z3 z0 d1 F5 a  S
. v8 o& E1 R" @# Y7 k
Text #3
9 P  J/ h6 k( B7 d8 j: ~8 DID                                       : 13
/ T* B+ p0 A: K2 @ID in the original source medium         : 4769 (0x12A1)4 |% G/ X; B6 E1 C2 Z* A
Format                                   : PGS
4 I0 i  v4 ]: g3 @( _" s) t2 X. mMuxing mode                              : zlib) z2 l& o1 l5 p4 V! r$ G
Codec ID                                 : S_HDMV/PGS! t2 s3 [* K  H; C5 }
Codec ID/Info                            : Picture based subtitle format used on BDs/HD-DVDs) u/ I; |/ c# c, M
Duration                                 : 2 h 12 min
' U: E, G6 a1 _* [. x( w3 NBit rate                                 : 26.7 kb/s
# i# V9 S5 }- b. q+ SCount of elements                        : 2638/ M. k3 ^- {9 J: o1 u3 Z
Stream size                              : 25.3 MiB (0%)
" J, w2 E( ~0 F' ]9 s4 qLanguage                                 : French
* ]% Q9 a8 r7 cDefault                                  : No- ~; d# m5 O9 W3 n* P- e7 F9 y
Forced                                   : No* |& e* |/ F- P! w' i1 M9 U, a
Original source medium                   : Blu-ray
' ^+ H+ A4 [  ^9 k/ a* L# X3 S8 N4 C5 S, I. `0 t
Text #4
3 a9 n( T+ l8 M. s+ E( \ID                                       : 14
" H" `& p! R2 B- ]/ Z$ OID in the original source medium         : 4770 (0x12A2)5 M9 M- }* Y; j2 L
Format                                   : PGS
+ e7 |5 b% u( {2 F3 c/ b$ B" `Muxing mode                              : zlib1 s1 c  h, C2 |+ F* }  t! r9 }
Codec ID                                 : S_HDMV/PGS) X; d5 l) }' p; S
Codec ID/Info                            : Picture based subtitle format used on BDs/HD-DVDs# g1 R# t0 H9 t4 x! F  o
Duration                                 : 2 h 12 min
2 z) X! K1 `: a: D6 n: DBit rate                                 : 25.6 kb/s
4 ?- p: @8 d1 D: c6 LCount of elements                        : 2604. R& A( D) \' d2 L. Q) U2 ~
Stream size                              : 24.3 MiB (0%)
9 z' z0 R6 h  g8 H, ]6 B+ _: L+ QLanguage                                 : Spanish
% \. g$ u# a  A6 d* J& @. p, A0 qDefault                                  : No
, D1 I% S& Z% h+ Y! [Forced                                   : No4 M' {; u& |- L* M, O9 n& ~
Original source medium                   : Blu-ray
- j6 H$ b! d9 c6 [
; B) [, [8 Q& U$ t. {Text #5
* Q; h& {$ l) H0 H% I3 Y) iID                                       : 152 L% t3 ]2 m" t0 F( j( K
ID in the original source medium         : 4771 (0x12A3)6 T% w3 w/ i% D5 r! S
Format                                   : PGS& b, V6 b" d8 c# f  P; D
Muxing mode                              : zlib
- V1 l7 @" h# b* j( N: @( F( qCodec ID                                 : S_HDMV/PGS
5 O7 I& u% Q& j* M6 G7 m% b7 ]( RCodec ID/Info                            : Picture based subtitle format used on BDs/HD-DVDs
, |! R- L) S0 p9 b9 ?/ q2 v. o5 N* @Duration                                 : 2 h 12 min1 r: l2 V8 C0 u, N) i
Bit rate                                 : 18.7 kb/s7 ^$ R1 y! I- u) }7 o0 b4 e
Count of elements                        : 2512
% Z, J& `( ^( A& _& `+ nStream size                              : 17.7 MiB (0%)
+ X0 n/ l3 i! z0 gLanguage                                 : Japanese  F% G& f+ z* r; p8 y* r5 F
Default                                  : No0 h$ V0 ~! S9 K5 x! d& c
Forced                                   : No
/ C' R  O* c+ t- ]/ ^: V% x. nOriginal source medium                   : Blu-ray
, u* |- S1 Z/ y0 u- F# H; m3 [: S  A: h4 b- s* P
Text #6
* o9 m; ?& O4 u, s4 E& sID                                       : 16. e1 f/ W5 g2 `
ID in the original source medium         : 4772 (0x12A4)
+ n; M1 Y: }! r9 L, n) w/ nFormat                                   : PGS
2 f: a* Y% W. v, G% sMuxing mode                              : zlib
" X9 w5 I2 a" S5 J5 e4 ~3 XCodec ID                                 : S_HDMV/PGS
4 ]; T( z% F7 F' `* zCodec ID/Info                            : Picture based subtitle format used on BDs/HD-DVDs
- i8 Z* c$ ^6 l: X3 y' \: iDuration                                 : 1 h 49 min
$ _: [# ?2 c: p3 D8 TBit rate                                 : 716 b/s
/ u3 Y, ?/ ?5 T  E0 `9 aCount of elements                        : 74
, E( n+ s3 f# l5 l7 HStream size                              : 574 KiB (0%)
/ ]$ Q$ K. O# F/ a" ITitle                                    : FORCED
) {& u# s) [& rLanguage                                 : English$ e. s) A3 C' }( }' K8 `6 e; B
Default                                  : No
; V% q' ^3 X" h* i( \Forced                                   : No) A1 r7 y( }2 O- {! K
Original source medium                   : Blu-ray
# d. i  b- c* s1 O& Q* L" M
6 c, x- s1 P. D: ^1 ^5 R  _) I' nText #7
" p* t, z7 z1 K4 qID                                       : 17! w" x6 q3 a- u# S$ O. [/ g
ID in the original source medium         : 4773 (0x12A5)
% q. ^, m8 \+ ~Format                                   : PGS: k7 Y% z/ U4 w" a% A7 k% Z$ N: {! D
Muxing mode                              : zlib
* I- k* X& y3 dCodec ID                                 : S_HDMV/PGS
/ ]+ F  t/ l  b! q: u0 v! rCodec ID/Info                            : Picture based subtitle format used on BDs/HD-DVDs
7 R3 M( C& a+ c% K( m  ?) H0 uDuration                                 : 1 h 51 min
9 M! Z0 p; ?; E, TBit rate                                 : 1 067 b/s
8 c/ Z+ ^/ b1 S/ ]: a' Z! U( kCount of elements                        : 134
$ f; r0 [2 P' r; s2 M0 T  LStream size                              : 870 KiB (0%)
5 R  p( ~/ `. p+ a' `Title                                    : FORCED
9 d4 g1 r4 p; x, R6 F- L2 cLanguage                                 : French
4 Q5 K% @7 ^4 b( mDefault                                  : No: v/ |& e  t$ T8 O  v
Forced                                   : No, z! m2 t8 ^4 }5 b& L4 h. H
Original source medium                   : Blu-ray" V% ]# M* ^6 V0 C

7 x% L. A; _7 O; w, U/ Y1 qText #8: i( t( r; a3 p5 M/ `; I
ID                                       : 18+ Y3 ~- ?- F* K0 A
ID in the original source medium         : 4774 (0x12A6)( n4 v, Q- L$ D" H1 C
Format                                   : PGS
/ n$ ^& _: H% _- B% CMuxing mode                              : zlib
1 Q8 o9 f; Q  j  ~9 Y# Y1 n+ ^$ HCodec ID                                 : S_HDMV/PGS
: g; S3 ~5 J6 F9 `2 o: P5 lCodec ID/Info                            : Picture based subtitle format used on BDs/HD-DVDs" q9 D0 W( X! f# _+ m- L; l
Duration                                 : 2 h 0 min
/ [) F* `& B: [* i# w5 }! c( XBit rate                                 : 1 072 b/s. y$ s0 X0 I; ]8 J& Y) Z; h1 W
Count of elements                        : 112
, ~9 [3 k" h  T! S8 g5 o9 KStream size                              : 948 KiB (0%)
# O! O6 x0 m, \& g$ QTitle                                    : FORCED
5 o  r$ ~# e/ [- [Language                                 : Spanish  l2 l& x; I* U, t
Default                                  : No
- [+ o# E$ U# O5 BForced                                   : No+ ^8 Y3 n  T+ P. B' E; w
Original source medium                   : Blu-ray
" L8 K3 p, q  s, E/ I. d3 h7 z
Text #9
( m3 h/ m" [9 K/ ]. \/ d# t0 fID                                       : 19
7 ]7 \2 g8 t, M' G$ bID in the original source medium         : 4775 (0x12A7)
* Q$ G  W5 n. g4 P" s* g! dFormat                                   : PGS
3 W0 L9 _8 ?! A8 J- `8 qMuxing mode                              : zlib
- R1 @4 D, A# t, ~% B9 ACodec ID                                 : S_HDMV/PGS
% A9 t) Z3 i$ ^: ]0 z" CCodec ID/Info                            : Picture based subtitle format used on BDs/HD-DVDs
0 R2 N) {; ^7 ZDuration                                 : 2 h 11 min
0 u/ C2 m8 B( G; }' ~. z2 RBit rate                                 : 1 233 b/s8 P5 ^5 Z: Y% `/ Z. k, j4 V
Count of elements                        : 1766 }/ l# Q3 K$ |  Q# z3 B
Stream size                              : 1.16 MiB (0%)& K% n+ I! @. _: k4 \6 _: w
Title                                    : FORCED  Y. \7 I& R0 z8 x) T( g! @+ U
Language                                 : Japanese5 k5 j. y7 ]2 _* T1 s7 r; @+ n
Default                                  : No
% y2 y* h5 z, X& P9 s3 _Forced                                   : No
3 n' I$ F/ q8 L/ w$ k) @2 kOriginal source medium                   : Blu-ray
5 b$ f' G6 O8 I/ c9 W, P- s/ m
1 f& b4 Q6 S2 _+ ZMenu3 R, Z; y3 Q6 R8 X
00:00:00.000                             : Chapter 01) g+ F9 F. G. E9 `/ L1 I& e8 a! m
00:04:55.169                             : Chapter 02' Q. q8 ]: Y8 O2 G  X
00:13:10.080                             : Chapter 03
9 ]( h% M  V% i/ [+ ~) a( y- N00:16:24.566                             : Chapter 04; `% C5 [4 O( E7 r5 x8 \7 h
00:18:41.870                             : Chapter 05! ]1 C/ M2 n2 N; P+ B; q* j
00:21:41.633                             : Chapter 06
% }+ Z: i5 O9 D& C+ a00:25:40.747                             : Chapter 07
. X; S; o( n8 Y: z00:30:06.346                             : Chapter 08" `4 V. X' y9 x5 B1 ~
00:39:05.301                             : Chapter 099 `3 v6 Z& U, i1 ~6 p+ X
00:44:46.058                             : Chapter 10
, }4 o) U- K1 i+ o00:53:25.994                             : Chapter 11+ ]6 S) M. V* k! n% G
01:01:38.152                             : Chapter 12) C; @$ E# P- B: Q5 z! ]7 q  j6 J
01:07:46.270                             : Chapter 13
  D" D7 ~; f5 L; A" K/ b7 I01:11:40.629                             : Chapter 14* r; V7 e! M$ a
01:17:48.747                             : Chapter 15
2 F4 N  [5 C) Q- @  t' D6 s. H# F01:27:19.192                             : Chapter 16
' W. `! m8 x2 O! N, `0 h01:33:33.441                             : Chapter 17! ~1 A/ \3 B2 Y
01:37:37.476                             : Chapter 18" C& R- |0 p$ `' j" ~& ^
01:41:18.655                             : Chapter 19+ S' r# p! L. w9 {' n8 y3 C
01:45:37.539                             : Chapter 20
$ S; G! e7 M( `; W: E' w0 s! w01:51:41.653                             : Chapter 21- v# x! T( m) {6 ?4 F7 T& Q
01:57:09.105                             : Chapter 229 C) ~* S' X5 b
02:01:59.562                             : Chapter 23
7 l# g) F' c2 i0 U( t2 R8 z& t02:04:25.458                             : Chapter 24
6 z# S" i8 N5 H: c8 E# C6 |
游客,查看本帖隐藏内容请回复 | 加入VIP贵宾可免积分免回复 了解详情 | 还不是会员:点击获取邀请码 Invitation Code

76

主题

3281

帖子

1万

积分

Sponsor

金币
1631 枚
体力
4666 点
lanpanshuma 发表于 2021-9-10 10:37:25 | 显示全部楼层
果断回帖,如果沉了就是我弄沉的感觉很有成就感!; e" |# H9 |& Q$ k5 U5 b
Bluraycd.com movie updates really fast, also did not release issued, whether you believe it or not, anyway, I believed!

0

主题

74

帖子

430

积分

Sponsor

金币
103 枚
体力
172 点
QQ
fangfang789 发表于 2021-9-11 08:48:28 | 显示全部楼层
啥也不说了,楼主就是给力!
7 _2 @" q% @& J, p要想蓝光电影论坛发展好,资源多,就靠你我他!To the development of Blu-ray movies forum, resources and more depend on you and me!
' k1 \. ?6 W  l; E/ V

0

主题

53

帖子

269

积分

Sponsor

金币
6 枚
体力
153 点
sj19920312 发表于 5 天前 | 显示全部楼层
啥也不说了,楼主就是给力!  J4 \4 t) f7 ?. ?. k# M
Bluraycd.com movie updates really fast, also did not release issued, whether you believe it or not, anyway, I believed!

31

主题

1718

帖子

9465

积分

Sponsor

金币
1335 枚
体力
4758 点
QQ
shiji1973 发表于 2021-9-10 13:19:17 | 显示全部楼层
感谢分享精彩电影

0

主题

275

帖子

1084

积分

Sponsor

金币
38 枚
体力
490 点
sebarstean 发表于 2021-9-10 19:52:01 | 显示全部楼层
Bluraycd又有新电影发布了,激动中……!+ p( ]9 o! H; v7 @+ u  J7 z2 R( `
Blu-ray movies Community: my favorite!+ o+ z9 X8 s$ M& C

0

主题

83

帖子

602

积分

Sponsor

金币
195 枚
体力
237 点
aacq 发表于 2021-9-10 22:26:22 | 显示全部楼层
谢谢楼主分享精彩片子

0

主题

49

帖子

624

积分

Sponsor

金币
29 枚
体力
496 点
xiaoyun1985 发表于 2021-9-10 23:56:44 | 显示全部楼层
肯定要看最好的版本

0

主题

74

帖子

430

积分

Sponsor

金币
103 枚
体力
172 点
QQ
fangfang789 发表于 2021-9-11 08:53:38 | 显示全部楼层
每天都来蓝光论坛看看,我爱蓝光电影。* B: K4 O  h! g, d  `! m
Your resources, well, I am very satisfied!5 Q# O0 @2 A8 I# \7 p

0

主题

41

帖子

204

积分

Sponsor

金币
48 枚
体力
76 点
QQ
hjl595663961 发表于 2021-9-11 13:57:08 | 显示全部楼层

4 u  w4 v. Z6 i& p感谢分享精彩电影

0

主题

147

帖子

767

积分

Sponsor

金币
16 枚
体力
450 点
kdavid 发表于 2021-9-12 19:20:03 | 显示全部楼层
果断回帖,如果沉了就是我弄沉的感觉很有成就感!
0 G5 G; M9 ?" c2 X3 IBlu-ray movies Community: my favorite!
% Z& d$ m3 c+ |( J3 x# O

本版积分规则

小黑屋|Archiver|蓝光电影资源网

GMT+8, 2021-9-25 23:33

Copyright © 2001-2022, Tencent Cloud.

快速回复 返回顶部 返回列表