BluRayCD Forum

 找回密码
 立即注册【分享大片】
查看: 10|回复: 0
收起左侧

[2160P极清] 黑寡妇 [4K SDR高码版] Black Widow 2021 2160p BluRaycd x265 10bit & 8bit SDR DTS-HD MA TrueHD 7.1 Atmos-SWTYBLZ 30.44GB & 31.91GB

[复制链接]

6220

主题

6394

帖子

7万

积分

Post Share

金币
14684 枚
体力
20682 点

卓越贡献勋章

黄金嫖客 发表于 2021-9-15 01:30:49 | 显示全部楼层 |阅读模式

' U% n  \1 Q% E+ m" V/ r* T( i" T5 f9 i1 F+ `" k
◎片  名 Black Widow / The Black Widow6 [" H8 m5 n" A; z, X
◎译  名 黑寡妇
3 d' m( |# }+ P! f/ }◎年  代 20218 _$ k/ B! @0 B. a  I' y9 b
◎产  地 美国
; C6 E3 o: q4 ?* y◎类  别 动作/科幻/冒险
4 x5 P* d/ \% u: n, k6 o◎语  言 英语/俄语/挪威语/匈牙利语/马其顿语/芬兰语
# h1 W- k1 y) I3 Y◎上映日期 2021(中国大陆)/2021-07-07(中国香港)/2021-07-09(美国/美国网络)- `$ v: T% ~2 ?5 W9 U3 r3 T
◎IMDb评分  6.8/10 from 212,064 users+ e, s+ T9 ^  u" [; z# g( ]* R" V2 r
◎IMDb链接  https://www.imdb.com/title/tt3480822/
5 G  Q! h1 I" J" J◎豆瓣评分 6.3/10 from 117,357 users
; z6 Z# O( K, }, V◎豆瓣链接 https://movie.douban.com/subject/25828589/
' I$ W) q+ w1 L5 C6 ~◎片  长 2 h 13 min
8 o# \& L; q6 T! Z◎导  演 凯特·绍特兰 Cate Shortland) i" U9 O8 b) H7 U0 n/ E
◎编  剧 雅克·舍费尔 Jac Schaeffer  @/ x2 z$ P* W, b1 j
       内德·本森 Ned Benson
+ f- k( Q0 G' T; K       埃里克·皮尔森 Eric Pearson
% h4 k6 K$ e2 N" [) U       斯坦·李 Stan Lee* B. V% ?4 `6 c
       唐·赫克 Don Heck
6 R6 A+ L$ Q' G       唐·里科 Don Rico9 s& s! O/ P3 N
◎主  演 斯嘉丽·约翰逊 Scarlett Johansson8 |' B* r1 L# T5 {4 K
       弗洛伦丝·皮尤 Florence Pugh
/ @; t9 V/ I$ I0 M3 _$ s& m       蕾切尔·薇兹 Rachel Weisz
2 R' F" Z3 t1 F7 Z- @       大卫·哈伯 David Harbour, X2 i- B) y2 U( x$ i. h; B- R
       威廉·赫特 William Hurt. @1 H. l/ M0 p" K- w
       雷·温斯顿 Ray Winstone' ]1 y% \& q! g* F# o6 |- Z* s
       奥利维尔·里希特斯 Olivier Richters
, F6 \+ A6 ^# s9 Z+ ?       O·T·法格本 O.T. Fagbenle3 {& ?# Z5 w0 ^: T- M2 N
       艾尔·安德森 Ever Anderson
' F- N8 N& T6 Y  k: C/ O* R7 @       米歇尔·李 Michelle Lee
2 g; j/ s1 P  L3 J7 I       拉娜·布隆代尔 Nanna Blondell7 c; Y% I4 E7 }, n
       维奥莱特·麦格劳 Violet McGraw
% t8 v* e# j! u8 b% V# y! I3 `  O$ |       赖恩·基拉·阿姆斯特朗 Ryan Kiera Armstrong
6 S# j- u9 Z  V4 e. G: j/ I       约恩·巴特勒 Ione Butler
# }, A  t2 K1 V8 a1 M1 J       乔治亚·柯蒂斯 Georgia Curtis' Y3 s* B7 ~  z
       泰·赫尔利 Ty Hurley: a" I/ c$ l# D  U# U
       安得烈·拜伦 Andrew Byron
* F+ }- m- I. p, |       乔基姆·斯卡利 Joakim Skarli" T: `$ d' @. q+ g' c5 b
       史蒂芬·萨姆森 Stephen Samson/ f' H; c% D5 m$ h8 p. b
       亚当·普里克特 Adam Prickett
  u5 O0 ]+ R: P' B7 X9 _       马里安·洛伦西克 Marian Lorencik
) w" T8 |( j: Q( X. B- V       利亚尼·塞缪尔 Liani Samuel! Q8 \' a( ]! [7 U
       西蒙娜·齐夫科夫斯卡 Simona Zivkovska
7 @/ r, V. Z$ z3 L8 z       刘易斯·扬 Lewis Young; K8 S( k3 z8 P6 S# b# V9 H/ A1 m
' H- z/ d* m+ F1 ^
◎标  签 漫威 | 斯嘉丽·约翰逊 | 黑寡妇 | 超级英雄 | 美国 | 科幻 | 动作 | 2021. u6 E2 r4 T' `" X2 n

; a7 v9 d' w  J, f, y4 q◎简  介   + l+ |" v" V$ [9 K9 w6 ]+ X* i
9 G) N" Z, Q. H. C& N' X6 n, D
  一部充满动作戏的间谍惊悚片。娜塔莎·罗曼诺夫/黑寡妇遭遇与她的过去相关的一场危险阴谋,将直面自己那些更为黑暗的经历。一股不惜一切要击倒她的力量袭来,娜塔莎必须面对自己在成为复仇者的很久之前那作为间谍的过往,和曾远离的破碎关系。
9 ?% P) r6 A& V8 z$ I, Y0 G: B( C; g% I* r6 u( L" i
  Natasha Romanoff aka Black Widow confronts the darker parts of her ledger when a dangerous conspiracy with ties to her past arises. Pursued by a force that will stop at nothing to bring her down, Natasha must deal with her history as a spy and the broken relationships left in her wake long before she became an Avenger.
6 Y+ O) n8 I! a0 B' i& T
: _; h$ ~; l% U0 y  \9 W* n◎获奖情况% K" Y0 x) l. S+ a% v' y
0 q; Y% Z& U$ Q0 _3 x1 J# s
  第7届豆瓣电影年度榜单 (2020)
( `; `$ I: |. Z8 ~% l# J  最值得期待的外语电影
4 `0 {1 i, `4 s; L+ ?) p9 Z  & {( w* z5 n1 m. @" m
  第6届豆瓣电影年度榜单 (2019)
$ T  _; t0 X$ W$ @  Z+ q2 X  最值得期待的外语电影  d+ i0 g, d/ n+ A8 V) c! D

0 K3 Z6 l( ?4 \) [4 s3 @
SWEATY BALLZ presents
. W1 r6 l# w, i
" A3 v9 F! F) m0 y/ ?Black.Widow.2021.2160p.BluRayCD.x265.10bit.SDR.DTS-HD.MA.TrueHD.7.1.Atmos-SWTYBLZ0 g$ S' \; b4 H0 E' W
Converted from 10 bit HDR to 10 bit SDR using tripple mixed Hable-Reinhard-JJ per scene+frame analysis algorithm/ E! W, V- r# U$ W: l. `4 ^4 J
Screenshots are 8bit SDR
4 I' }) d$ S" d5 u: N  U6 A
0 a( C. ~# b" ?+ }6 _7 ~Video0 ^4 A0 w+ J- Y/ h
ID                                       : 1
1 H" @( m" a& Q+ hFormat                                   : HEVC
- M- C3 q* i% j: f; b8 sFormat/Info                              : High Efficiency Video Coding
8 H9 @4 T$ T% {Format profile                           : Main [email protected]@High$ M3 p* `+ y* z) a9 }8 Z  f
Codec ID                                 : V_MPEGH/ISO/HEVC% P7 `: F- _# w8 F5 o
Duration                                 : 2 h 13 min, \' {: y# a2 M# m2 W" n" q; r
Bit rate                                 : 23.0 Mb/s, P' _2 n! ~& ?3 p: E8 l' d4 W
Width                                    : 3 840 pixels
( Y- @, W) Q' @' ~- \, C% d6 LHeight                                   : 1 608 pixels
" K  R1 z- T, K* F$ \+ w. jDisplay aspect ratio                     : 2.40:11 W. f$ _1 T  K+ q
Frame rate mode                          : Constant
3 a4 j* q& D4 H$ x& TFrame rate                               : 23.976 (24000/1001/189150) FPS
6 U7 N0 a8 t  dColor space                              : YUV
9 m9 Z/ E) R) UChroma subsampling                       : 4:2:0
: g6 @! d% u; p: a$ a0 rBit depth                                : 10 bits. i' ]0 i' h, }
Bits/(Pixel*Frame)                       : 0.155* G; N  F$ A" e  c1 ~
Stream size                              : 21.5 GiB (71%)4 Z/ `) Q5 [# G( h
Writing library                          : x265 3.0ed72af837053:[Windows][GCC 8.2.0][64 bit] 10bit& W& _/ T# }: }1 m% V9 v
Encoding settings                        : cpuid=1111039 / frame-threads=6 / numa-pools=40 / wpp / no-pmode / no-pme / no-psnr / no-ssim / log-level=2 / input-csp=1 / input-res=3840x1608 / interlace=0 / total-frames=192450 / level-idc=51 / high-tier=1 / uhd-bd=0 / ref=3 / no-allow-non-conformance / repeat-headers / annexb / aud / hrd / info / hash=0 / no-temporal-layers / no-open-gop / min-keyint=1 / keyint=24 / gop-lookahead=0 / bframes=4 / b-adapt=2 / b-pyramid / bframe-bias=0 / rc-lookahead=25 / lookahead-slices=4 / scenecut=40 / radl=0 / no-splice / no-intra-refresh / ctu=64 / min-cu-size=8 / no-rect / no-amp / max-tu-size=32 / tu-inter-depth=1 / tu-intra-depth=1 / limit-tu=0 / rdoq-level=0 / dynamic-rd=0.00 / no-ssim-rd / signhide / no-tskip / nr-intra=0 / nr-inter=0 / no-constrained-intra / strong-intra-smoothing / max-merge=2 / limit-refs=3 / no-limit-modes / me=1 / subme=2 / merange=57 / temporal-mvp / weightp / no-weightb / no-analyze-src-pics / deblock=0:0 / no-sao / no-sao-non-deblock / rd=3 / no-early-skip / rskip / no-fast-intra / no-tskip-fast / no-cu-lossless / no-b-intra / no-splitrd-skip / rdpenalty=0 / psy-rd=2.00 / psy-rdoq=0.00 / no-rd-refine / no-lossless / cbqpoffs=0 / crqpoffs=0 / rc=crf / crf=16.0 / qcomp=0.60 / qpstep=4 / stats-write=0 / stats-read=0 / vbv-maxrate=160000 / vbv-bufsize=160000 / vbv-init=0.9 / crf-max=0.0 / crf-min=0.0 / ipratio=1.40 / pbratio=1.30 / aq-mode=1 / aq-strength=1.00 / cutree / zone-count=0 / no-strict-cbr / qg-size=32 / no-rc-grain / qpmax=69 / qpmin=0 / no-const-vbv / sar=1 / overscan=0 / videoformat=5 / range=0 / colorprim=2 / transfer=2 / colormatrix=2 / chromaloc=0 / display-window=0 / max-cll=0,0 / min-luma=0 / max-luma=1023 / log2-max-poc-lsb=8 / vui-timing-info / vui-hrd-info / slices=1 / opt-qp-pps / opt-ref-list-length-pps / no-multi-pass-opt-rps / scenecut-bias=0.05 / no-opt-cu-delta-qp / no-aq-motion / no-hdr / no-hdr-opt / no-dhdr10-opt / no-idr-recovery-sei / analysis-reuse-level=5 / scale-factor=0 / refine-intra=0 / refine-inter=0 / refine-mv=0 / refine-ctu-distortion=0 / no-limit-sao / ctu-info=0 / no-lowpass-dct / refine-analysis-type=0 / copy-pic=1 / max-ausize-factor=1.0 / no-dynamic-refine / no-single-sei / no-hevc-aq / qp-adaptation-range=1.00
: c7 V; g4 \- WDefault                                  : Yes- `# C# T2 }. _/ M0 D$ V2 B
Forced                                   : No
" ?% \! k2 N; z$ f" g: `; W" t; f: a8 d+ x/ V: v, E0 g
Audio #1" W$ j& l& Y6 F& C% J; q+ r
ID                                       : 2
# Z/ o: D% |" V: ^ID in the original source medium         : 4352 (0x1100)
8 p0 A/ [+ u  x, M% YFormat                                   : MLP FBA 16-ch
' K2 G7 W4 t! F) X3 U6 d' L3 N  RFormat/Info                              : Meridian Lossless Packing FBA with 16-channel presentation
" F5 e6 R+ n1 O7 |4 c4 w! nCommercial name                          : Dolby TrueHD with Dolby Atmos
. `& x' l! \% u/ K3 u) ~0 g0 iCodec ID                                 : A_TRUEHD
5 a  J; e$ G3 M3 |' tDuration                                 : 2 h 13 min
- k! B5 \4 u6 u5 O8 yBit rate mode                            : Variable9 v( R" Q* N; w0 r
Bit rate                                 : 4 284 kb/s
4 q. R3 x0 @, [% Z) w6 WMaximum bit rate                         : 7 737 kb/s
, l7 R( e2 ^5 Z3 bChannel(s)                               : 8 channels
+ r4 u+ c# R5 {( J2 tChannel layout                           : L R C LFE Ls Rs Lb Rb! L$ q0 `" i! E7 {1 `7 ]
Sampling rate                            : 48.0 kHz
; W* K( G) ^. o: a* K, g8 }Frame rate                               : 1 200.000 FPS (40 SPF)
& A5 |3 v" Y; V- v. HBit depth                                : 24 bits7 A6 i; ]* d+ I5 Q! {: D) f4 ?
Compression mode                         : Lossless* h- Z) ]  A2 Z7 p
Stream size                              : 4.00 GiB (13%)
, f. c, M; y  z. C# m& [% s3 }Title                                    : Black.Widow.2021.2160p.BluRaycd.x265.10bit.SDR.DTS-HD.MA.TrueHD.7.1.Atmos-SWTYBLZ* g* o% Z$ s8 B: p$ a* U" M! a
Language                                 : English
( e$ A! K3 I7 ODefault                                  : Yes& t3 k5 S/ v& L0 ?
Forced                                   : No
$ u/ n7 q  I. q9 c  ?$ M) hOriginal source medium                   : Blu-ray
% U% m8 z; q" S! J5 H% W# VNumber of dynamic objects                : 13
& J& q: Y1 m3 l9 Z5 V5 nBed channel count                        : 1 channel
. }; `: s5 y. c6 x! e( y# TBed channel configuration                : LFE
' E; q, t/ T3 K' i; i/ d9 r- m6 O4 U( p: j9 C7 o
Audio #27 p3 I# z3 A* B3 n' Z
ID                                       : 30 ]" O3 H- G' n. i, D) E4 @
Format                                   : DTS XLL
  G& |6 ]2 Y5 T7 ^" g8 P4 DFormat/Info                              : Digital Theater Systems8 r: y% l3 i, v: ?' |$ E: Y
Commercial name                          : DTS-HD Master Audio0 B* m3 O5 O3 i9 N
Codec ID                                 : A_DTS2 A9 v. c% I, \) @. o* n
Duration                                 : 2 h 13 min& ], C7 |. U2 ^5 S6 e1 c# [
Bit rate mode                            : Variable% L: [) O! C" \7 S7 j
Bit rate                                 : 4 412 kb/s5 G1 _4 Y& z% f) o
Channel(s)                               : 8 channels% A2 T- I  o0 M3 u4 U2 J8 M
Channel layout                           : C L R LFE Lb Rb Lss Rss
9 G# x; y. O+ o/ BSampling rate                            : 48.0 kHz
- r7 g' k, [1 H1 \0 E- LFrame rate                               : 93.750 FPS (512 SPF): w7 c+ f& ~0 \
Bit depth                                : 24 bits: r! I$ W; w; Q
Compression mode                         : Lossless% @) r! R) C1 D" s
Stream size                              : 4.12 GiB (14%)
2 |! F, T3 \) D: y( _' XTitle                                    : Black.Widow.2021.2160p.BluRaycd.x265.10bit.SDR.DTS-HD.MA.TrueHD.7.1.Atmos-SWTYBLZ( @* |8 D. @: S' p) F+ D) K" P
Language                                 : English4 j( ]$ i1 c* K4 T2 {
Default                                  : No
) v& J6 n5 ^' j" v# dForced                                   : No( t' ]* p0 u, k" O- O4 I- V8 Q2 C
/ C2 F3 [1 K- r% S* `) O
Audio #3, |+ i+ v0 m! V/ U# ?8 |, c1 W
ID                                       : 4
3 F7 t9 O7 v9 m( ~' y. M2 t2 P5 ZID in the original source medium         : 4352 (0x1100)% ~) p: D1 O, W4 c, q- i7 c
Format                                   : AC-33 i& M6 }5 Z" J1 g' v
Format/Info                              : Audio Coding 3  [4 p3 g% ]! q! y: U/ u  A8 S8 q
Commercial name                          : Dolby Digital6 f8 Q" R/ K4 b  m5 P( A6 L, O
Codec ID                                 : A_AC31 P: Y  F8 ?! R' |" {& C9 {
Duration                                 : 2 h 13 min
; _5 |$ V: Y$ [Bit rate mode                            : Constant# F& Y3 S/ D( A
Bit rate                                 : 640 kb/s
* x/ Z, J; N4 ^. ]1 B! cChannel(s)                               : 6 channels
& z3 v$ S0 f# J/ tChannel layout                           : L R C LFE Ls Rs
# w, V7 D) T- C, I5 V& DSampling rate                            : 48.0 kHz
( Q6 ~0 @0 v- U2 P% i" K0 KFrame rate                               : 31.250 FPS (1536 SPF)% I1 [; P$ C' u7 V9 z6 z
Compression mode                         : Lossy
; C6 k# z9 R% L; o5 \0 ^Stream size                              : 612 MiB (2%)
' {) }. Q9 ?7 Q. d- b" \Title                                    : Black.Widow.2021.2160p.BluRaycd.x265.10bit.SDR.DTS-HD.MA.TrueHD.7.1.Atmos-SWTYBLZ
# J; f; G2 J' C* x& i% ~$ u1 oLanguage                                 : English. n4 u" A% x& \
Service kind                             : Complete Main; s0 ]! Z0 Z+ o- L; K' b5 G/ _
Default                                  : No
' Y5 d: k1 c/ t- ]9 EForced                                   : No
6 I' g9 @; W& cOriginal source medium                   : Blu-ray
( G: J7 ^- R3 `5 ^: t3 b9 x% \( t6 j+ e2 y3 E
Text #1
4 ^! J& v: M: k! T% A" X8 N9 VID                                       : 52 n& D/ R% o/ y" \; d8 P% l6 w
Format                                   : UTF-8" K) }+ R- ~9 k
Codec ID                                 : S_TEXT/UTF8. q+ N  k7 i' S0 j3 |3 v& R
Codec ID/Info                            : UTF-8 Plain Text
5 u4 V, E: Q5 m  iDuration                                 : 2 h 12 min; J+ _2 N" _0 g1 N- D
Bit rate                                 : 40 b/s
5 y& j( v& s& V) m% W% q5 Z8 @Count of elements                        : 1339
  F4 w7 ]* d0 Z3 p+ e& [- {) JStream size                              : 39.7 KiB (0%)% Z, s0 [; m, J3 e) ]
Title                                    : SRT) F( J* Z: `% H9 s! ~7 S! u2 o% G
Language                                 : English8 h6 P1 M+ ?0 c: ?& W6 h
Default                                  : Yes3 I9 o. ?' j% ?* G
Forced                                   : No
; }; R3 ~' l" E( m) N. f; h4 ~
9 k+ T. ]) |3 H4 P+ O9 q4 xText #2
3 Q, z0 Y1 ]- Z/ }+ d$ yID                                       : 69 J8 C! m& H- `  G
ID in the original source medium         : 4768 (0x12A0)
0 G; m8 E* b  Y0 D4 M. m6 KFormat                                   : PGS
+ I: O7 K$ T' Y- ]9 lMuxing mode                              : zlib3 |& j1 V4 m  {! r3 f' v
Codec ID                                 : S_HDMV/PGS2 C: @' ~' s  M- p
Codec ID/Info                            : Picture based subtitle format used on BDs/HD-DVDs; ]; a' T, g$ w( `2 ?6 s! ~0 a4 B
Duration                                 : 2 h 13 min9 P6 j2 V0 p$ {5 h0 E; r* \0 D( U
Bit rate                                 : 32.2 kb/s
$ _( K6 v9 a  h1 XCount of elements                        : 3294
! I3 u5 G+ `4 W) O  B$ }  g2 RStream size                              : 30.7 MiB (0%)
# ~3 L; D6 z5 W( T# v- }- h7 }Language                                 : English5 ^* ?+ z9 E) \% N2 N' a' K
Default                                  : No
5 J* b4 e0 F; y" i4 Q- XForced                                   : No
5 D2 G& E1 |* Y7 Y2 |Original source medium                   : Blu-ray
) ^' ?  M' _) {" q  a( k+ j3 y  W( d! u
Text #3
# Y5 w& {. t1 j; N4 aID                                       : 7. v9 r, v  V; ?% E( }
ID in the original source medium         : 4769 (0x12A1), e1 h& r* F# I" i) L- s1 B9 g  @
Format                                   : PGS2 m. \, f) I$ a9 P7 q. L4 W
Muxing mode                              : zlib
8 L. J5 I4 e* e4 q' Z# _8 V8 @4 @Codec ID                                 : S_HDMV/PGS+ q6 U8 q& [) W
Codec ID/Info                            : Picture based subtitle format used on BDs/HD-DVDs/ |6 n2 e: _0 x. F
Duration                                 : 2 h 12 min
7 {& b8 M! i8 D7 CBit rate                                 : 26.7 kb/s
; u; f) u+ `. K: u+ K9 ECount of elements                        : 2638! G2 v0 A+ O! W* V8 Q9 e( f
Stream size                              : 25.3 MiB (0%)" A! {& I, n6 M; \7 y; a# w! K
Language                                 : French1 K, I# p7 b& a, W4 b' c& n
Default                                  : No
/ N! Y% q2 a! Z  z1 S4 iForced                                   : No
1 g. |! B* ^0 J5 qOriginal source medium                   : Blu-ray( o( Y0 i+ y' Q' x

3 S8 o6 _: J- h0 e% \, j% FText #46 {, m: _1 U) v; o1 {0 i
ID                                       : 8! P( V3 g# t, ~, m
ID in the original source medium         : 4770 (0x12A2)
1 N/ V4 z" r- x* q- ZFormat                                   : PGS$ E# Q3 |& k7 a) _
Muxing mode                              : zlib
9 |6 n4 P) p, rCodec ID                                 : S_HDMV/PGS# f" o$ c; ]; Q& m9 W
Codec ID/Info                            : Picture based subtitle format used on BDs/HD-DVDs# ]" p) y2 k% p; n! e( w
Duration                                 : 2 h 12 min
) Q5 O, W" F/ \Bit rate                                 : 25.6 kb/s
( z( [- l2 b# }4 dCount of elements                        : 26046 a" J. g2 Z8 v8 Z. S% c8 W. O
Stream size                              : 24.3 MiB (0%): C) t) ?! u/ S0 a& d
Language                                 : Spanish
8 q) V) n7 ]0 yDefault                                  : No
7 i" A% u$ m& u% E$ jForced                                   : No
% s& `/ v% w4 l5 M3 x. GOriginal source medium                   : Blu-ray, t, j1 k: G9 |4 l

- z$ j; ?/ ~% X# _. WText #5% l3 H* S( C8 N$ c4 v
ID                                       : 9# e/ s7 y9 u' l+ h6 s9 M2 E) ^  H
ID in the original source medium         : 4771 (0x12A3)/ y# x- q$ y6 @3 H& R5 q) h) S: \5 l
Format                                   : PGS; Q& U' I/ l9 B3 G0 c% C
Muxing mode                              : zlib
" r, p3 m" i) D/ nCodec ID                                 : S_HDMV/PGS
% w& b; A0 T; HCodec ID/Info                            : Picture based subtitle format used on BDs/HD-DVDs1 b2 @5 |" T# H$ S. k
Duration                                 : 2 h 12 min+ h! z5 \2 A. i  V# W' w" K
Bit rate                                 : 18.7 kb/s* Q/ K/ w) E2 ~, ~8 H7 v4 K4 o& U
Count of elements                        : 2512
' ~4 K0 @9 E/ QStream size                              : 17.7 MiB (0%)( T  z, j( ^1 L* [+ j
Language                                 : Japanese6 M8 ~9 c5 U# G$ ]
Default                                  : No7 }) h7 O+ C2 ]4 F" S4 @0 n6 o
Forced                                   : No# B7 Q- L, z% V# b. p, P4 s$ z; b* |
Original source medium                   : Blu-ray
1 M8 p7 L' z) F+ b) L* T! ~' @4 B) X0 f1 J- L5 d' Z% ^
Menu
* U* m$ t! `! I0 {5 l% T- _00:00:00.000                             : Chapter 018 N+ I+ f" Q1 }
00:04:55.169                             : Chapter 025 c7 q8 B" c4 i8 n4 |( M
00:13:10.080                             : Chapter 03* J& u5 p0 H! T) F% f
00:16:24.566                             : Chapter 047 ]) O8 H* n" \9 M0 g  ^) v
00:18:41.870                             : Chapter 05# Q/ }9 }8 O! A3 F5 m
00:21:41.633                             : Chapter 06( S) m- y4 ]. s5 G
00:25:40.747                             : Chapter 07$ T! ~8 f( N7 u4 Q- ]! L! Z0 {
00:30:06.346                             : Chapter 087 M6 |$ F% V2 m5 T$ h: H- t
00:39:05.301                             : Chapter 09
) \% q* R" j- i& m) H& f0 R1 f/ {00:44:46.058                             : Chapter 10
. i$ b- B1 J5 b$ i1 F$ H00:53:25.994                             : Chapter 11" J! Z! R6 F/ N' A( N2 c. b
01:01:38.152                             : Chapter 12: w- v4 J% Q8 K& N4 z
01:07:46.270                             : Chapter 13
4 }/ X7 c! R$ g5 c2 A4 @01:11:40.629                             : Chapter 146 ~2 p  `& c) [6 H
01:17:48.747                             : Chapter 15: B) k$ I3 f0 b: H2 P
01:27:19.192                             : Chapter 16
, N0 H7 l% K: l/ l1 g& D01:33:33.441                             : Chapter 17
) {5 S& i9 }( ~8 d01:37:37.476                             : Chapter 18% B& W5 X3 h* z& @* h
01:41:18.655                             : Chapter 193 ]+ y; ~+ |1 w5 Z& D. _
01:45:37.539                             : Chapter 20
0 R8 F- g1 a* s01:51:41.653                             : Chapter 21
, U  U9 c& N  g/ J01:57:09.105                             : Chapter 22
8 E2 Q; m% P+ B; G4 ?) M1 }02:01:59.562                             : Chapter 238 p  _. M2 R4 A7 l8 m2 e
02:04:25.458                             : Chapter 24
SWEATY BALLZ presents; q- I3 F! s  N# G5 a/ \, K& A# v

: X0 N# o( `7 k1 g# L0 a. CBlack.Widow.2021.2160p.BluRaycd.x264.8bit.SDR.DTS-HD.MA.TrueHD.7.1.Atmos-SWTYBLZ
3 z* B+ k1 g& N; |( s- TConverted from 10 bit HDR to 8 bit SDR using tripple mixed Hable-Reinhard-JJ per scene+frame analysis algorithm8 d# X; v' R9 p+ M' m
' ]9 V/ h% O5 w% S
Video
7 Q7 \, p6 S, ~  AID                                       : 1( D9 K/ h$ n& F; \/ k% b
Format                                   : AVC* @( P0 B1 U6 P( K
Format/Info                              : Advanced Video Codec) _' y8 ?# s) ^3 Q
Format profile                           : [email protected]3 X. L. r4 _! u! v; `
Format settings                          : CABAC / 5 Ref Frames
9 T: Y% O; j) w& K: ]) z- Q; p0 {Format settings, CABAC                   : Yes
4 ~$ l4 r& E/ x# \* pFormat settings, Reference frames        : 5 frames/ ~* P' @+ G, j5 i& J
Codec ID                                 : V_MPEG4/ISO/AVC
: \* i$ H8 |3 V' y. iDuration                                 : 2 h 13 min5 O) E7 @2 z; \/ q/ l9 [
Bit rate                                 : 24.6 Mb/s! V- g& ^# u2 m  V+ Z4 ?
Width                                    : 3 840 pixels
6 k" l3 S+ P9 v: p1 sHeight                                   : 1 608 pixels, h+ {6 n* C6 _
Display aspect ratio                     : 2.40:1
9 }; i6 j$ a( g2 E9 ~. iFrame rate mode                          : Constant5 N- _3 o1 m# u6 z% {2 W
Frame rate                               : 23.976 (24000/1001/189150) FPS
3 b* q' T3 f9 S4 J# W  eColor space                              : YUV, S( P; |: l; \8 }( Y, i) [
Chroma subsampling                       : 4:2:09 I0 q2 V. [  C- k1 |- F3 X
Bit depth                                : 8 bits$ a* a  [) K* ^% m
Scan type                                : Progressive
0 W, R( t3 O9 s; @Bits/(Pixel*Frame)                       : 0.166
6 q$ |4 Q3 u2 n0 n5 bStream size                              : 23.0 GiB (72%)( H/ y* S4 C9 p) ~" @, T, Q
Writing library                          : x264 core 157 r2935 545de2f
1 [2 l2 \4 j) ?5 bEncoding settings                        : cabac=1 / ref=5 / deblock=1:-1:-1 / analyse=0x3:0x113 / me=umh / subme=10 / psy=1 / psy_rd=1.00:0.15 / mixed_ref=1 / me_range=48 / chroma_me=1 / trellis=2 / 8x8dct=1 / cqm=0 / deadzone=21,11 / fast_pskip=1 / chroma_qp_offset=-3 / threads=48 / lookahead_threads=4 / sliced_threads=0 / nr=0 / decimate=0 / interlaced=0 / bluray_compat=0 / constrained_intra=0 / bframes=3 / b_pyramid=2 / b_adapt=2 / b_bias=0 / direct=3 / weightb=1 / open_gop=0 / weightp=2 / keyint=250 / keyint_min=23 / scenecut=40 / intra_refresh=0 / rc_lookahead=50 / rc=crf / mbtree=1 / crf=18.0 / qcomp=0.60 / qpmin=0 / qpmax=69 / qpstep=4 / ip_ratio=1.40 / aq=1:1.002 {) B( F1 P: ]- L, @
Default                                  : Yes& J& D" p. u6 L0 x9 m/ ^4 @- ]
Forced                                   : No
/ v9 U6 S4 C2 K& j( |% @; z
6 z2 \$ n) Q  k* Y1 [3 z/ hAudio #1% p5 n/ E7 N. X& E$ X
ID                                       : 2
! d, U0 z; g7 w. f. OID in the original source medium         : 4352 (0x1100)
/ b# ~, @& T+ _0 {Format                                   : MLP FBA 16-ch# s* j  P2 d8 M! U
Format/Info                              : Meridian Lossless Packing FBA with 16-channel presentation! c6 j' M, R8 N  E
Commercial name                          : Dolby TrueHD with Dolby Atmos
" E) i. L, m/ j- I$ OCodec ID                                 : A_TRUEHD6 @; Z6 q, \# K8 m$ M' `
Duration                                 : 2 h 13 min
# v5 n6 s* I7 e3 e5 J% o' XBit rate mode                            : Variable
$ C2 V7 o7 }6 a! u7 ]9 w! g: W0 V5 cBit rate                                 : 4 284 kb/s. H: y) ?5 s* F. F9 |# U8 F
Maximum bit rate                         : 7 737 kb/s' L0 S9 C: q% P7 j4 B& F( f5 U
Channel(s)                               : 8 channels
5 t0 F1 ^& R  {3 v: ]. H$ GChannel layout                           : L R C LFE Ls Rs Lb Rb/ ?4 l0 H4 b( D
Sampling rate                            : 48.0 kHz# X/ Z" E) X9 |& Z3 n5 l$ M8 e
Frame rate                               : 1 200.000 FPS (40 SPF)
9 ~( \5 M$ o' O) q0 R. ^Bit depth                                : 24 bits( c/ l6 X! k. m. `# m2 k1 b) B
Compression mode                         : Lossless
/ T% C+ H. g3 v; U, i/ E, k4 T) _Stream size                              : 4.00 GiB (13%)
0 A' L. ^  ^2 R3 ETitle                                    : Black.Widow.2021.2160p.BluRaycd.x264.8bit.SDR.DTS-HD.MA.TrueHD.7.1.Atmos-SWTYBLZ( p4 r& R' |% H5 y! V
Language                                 : English
4 Y3 G/ n3 i' S: g9 d- y! q# uDefault                                  : Yes
& d4 ?7 z: j/ |1 ?' S$ E' [Forced                                   : No5 f  |) A9 b7 r  {2 a" X4 @& t3 e9 S0 g
Original source medium                   : Blu-ray7 C5 t: r4 T8 \7 m, y/ U
Number of dynamic objects                : 130 G5 X6 c& U* I0 L" G3 Z- _
Bed channel count                        : 1 channel- T$ P: F- ?; G% N6 X+ _: m% V6 I
Bed channel configuration                : LFE1 e9 S4 t/ y6 J  ^6 ]6 W- `

- F( A- y. b; R. e0 J/ P/ kAudio #2
) t* b2 D3 r: G0 g+ _. X7 L! SID                                       : 38 \1 N! N% w% B7 B# u( O* }2 @
Format                                   : DTS XLL; y: Q- @# C$ O( J
Format/Info                              : Digital Theater Systems1 e% L, D5 ?5 ^4 F  f8 B. @
Commercial name                          : DTS-HD Master Audio
5 U- m* d3 g) [; f5 @/ m) cCodec ID                                 : A_DTS
* Q4 D. f7 M- T7 I# xDuration                                 : 2 h 13 min! N" n3 t4 N8 d
Bit rate mode                            : Variable$ N/ t) _  V/ Y% d; J' p  u3 N+ U9 e
Bit rate                                 : 4 412 kb/s! J5 h  A' G9 e4 m1 n
Channel(s)                               : 8 channels
4 I, H8 ?: n+ u4 rChannel layout                           : C L R LFE Lb Rb Lss Rss, W* e: p3 w6 N  H
Sampling rate                            : 48.0 kHz/ n: J* P, S' i! p9 x
Frame rate                               : 93.750 FPS (512 SPF)
  }+ l/ n" k+ I6 p/ [8 N5 LBit depth                                : 24 bits
3 n; Q* B! `% @# fCompression mode                         : Lossless# F1 n* c) I4 K; {1 O2 |
Stream size                              : 4.12 GiB (13%)
( f# h' S. e8 d0 d* \; hTitle                                    : Black.Widow.2021.2160p.BluRaycd.x264.8bit.SDR.DTS-HD.MA.TrueHD.7.1.Atmos-SWTYBLZ0 x: `/ a  `; ?$ o
Language                                 : English
, G/ b5 P( Z# O9 Y5 X/ _6 ODefault                                  : No
, x1 Z3 B2 l& k; oForced                                   : No
. W9 E, }& k9 p/ o  _5 Q
/ j8 [6 I# ^$ s( G7 a; {: {Audio #3
3 ]& s( l! k# W+ z. M% R. wID                                       : 4  H  p  p4 n% Z! Q
ID in the original source medium         : 4352 (0x1100)" t8 X9 A* f0 L( \5 z, m# |5 i
Format                                   : AC-32 @% h$ F3 @% I" D; F7 X
Format/Info                              : Audio Coding 3; k* ]- U$ r; s- {  C
Commercial name                          : Dolby Digital
' [. ?( Q3 @7 F6 }8 N1 Y$ lCodec ID                                 : A_AC3! ]7 u) J8 V$ w7 z; [* D6 l' M
Duration                                 : 2 h 13 min. d/ t  T. `* b
Bit rate mode                            : Constant
# C9 u8 t! Q* }! V( S# |# A2 n6 ~Bit rate                                 : 640 kb/s% E  y" C: F7 o( q" t& {0 }
Channel(s)                               : 6 channels
+ Y& Y/ h" x5 uChannel layout                           : L R C LFE Ls Rs! j, N! b2 i. k5 }5 z9 x% O
Sampling rate                            : 48.0 kHz. ?! B( l, }) D6 h8 m7 h
Frame rate                               : 31.250 FPS (1536 SPF)
6 R* j4 c8 Z% F  j8 T* i( U0 eCompression mode                         : Lossy
% `) I8 k: W0 uStream size                              : 612 MiB (2%)  T* O* R8 c/ ]6 Z
Title                                    : Black.Widow.2021.2160p.BluRaycd.x264.8bit.SDR.DTS-HD.MA.TrueHD.7.1.Atmos-SWTYBLZ
$ n+ p7 M: Y+ M7 d1 K5 ^5 D3 YLanguage                                 : English# V7 a6 P/ _# h- u$ o7 q' N
Service kind                             : Complete Main
, @/ m. L) M. a" f& ODefault                                  : No0 D% M# T0 c; L+ ^4 d
Forced                                   : No
2 o& O0 p& N$ l6 P7 n/ a, IOriginal source medium                   : Blu-ray
; E& Y( o: ^" X5 ^0 @  M; `1 e
( L( ^; G5 Y2 }Text #1
7 |' [* m5 E$ l/ C$ hID                                       : 5" ^3 A( M8 l, P  V7 r: ?5 Z
Format                                   : UTF-8
/ \8 p" d, f1 v& b1 f. j3 y% HCodec ID                                 : S_TEXT/UTF8
7 c0 P7 g3 F' v+ P1 yCodec ID/Info                            : UTF-8 Plain Text; `$ j$ `! Y- N
Duration                                 : 2 h 12 min# X2 T0 p7 |$ p  d" Z- }
Bit rate                                 : 40 b/s
* p* k2 a/ Z. Y1 n  b0 HCount of elements                        : 1339, N* O+ _1 ]8 z3 s: P: D9 z- d
Stream size                              : 39.7 KiB (0%)1 [0 A7 @1 G4 O) @; ]0 g' J
Title                                    : SRT4 z5 d$ b7 K& q! {
Language                                 : English
! a9 H9 {6 c, I( \) MDefault                                  : Yes; G3 r4 h( p5 N0 Y, l
Forced                                   : No* @5 n8 u& i0 t; P" e0 G3 ]

, B6 H  V9 C# j4 EText #21 T+ c; k9 x. X7 u- I
ID                                       : 6
' ^1 Y! i9 T. ^+ M7 l3 EID in the original source medium         : 4768 (0x12A0)
2 c5 m) t9 P. Z- v3 u4 @" EFormat                                   : PGS
! R" L1 _) W( X# R3 u) M0 UMuxing mode                              : zlib
. J5 n; b! C$ ?Codec ID                                 : S_HDMV/PGS3 S# i; L/ ]$ C" D& K. @8 Q: Z' R
Codec ID/Info                            : Picture based subtitle format used on BDs/HD-DVDs
9 }2 A& k# o7 m- M9 hDuration                                 : 2 h 13 min
0 Z7 k) P2 V" c0 y9 d& GBit rate                                 : 32.2 kb/s
6 [# A! R+ e2 S' u, ^# w. ICount of elements                        : 3294% }* A  ]6 {1 C6 S. n: G. G5 G
Stream size                              : 30.7 MiB (0%)
+ e- f, Q) D+ ILanguage                                 : English
0 \0 C0 S! y; i3 `Default                                  : No
8 `1 n5 E. U8 O. \6 U; sForced                                   : No0 W( z( k3 p  W) G% z! {2 y3 L. q! D
Original source medium                   : Blu-ray0 O, r# G! x: B3 s" F4 E

. y8 W5 {. x$ W, E( ZText #3
0 j# r- ?- j$ ?# jID                                       : 7; e) u) I0 A! \$ ~
ID in the original source medium         : 4769 (0x12A1)
/ m' m3 M( @( K3 u! rFormat                                   : PGS
; D1 V) z, a/ c0 DMuxing mode                              : zlib9 f  q4 `6 P. O% m, t0 i" }5 t
Codec ID                                 : S_HDMV/PGS
- p+ U" d3 n& S0 R: t; v' FCodec ID/Info                            : Picture based subtitle format used on BDs/HD-DVDs
0 {3 z3 ^0 y% M  D9 gDuration                                 : 2 h 12 min0 }% `1 I% [* ?0 M( y" T
Bit rate                                 : 26.7 kb/s5 d- J% y1 ]& G! H9 o
Count of elements                        : 2638
6 S# E9 Q5 v' s8 Z" KStream size                              : 25.3 MiB (0%)- M$ t6 O" v; N- C8 @: }+ ]
Language                                 : French
, ~; I) Q4 m% i5 {( r2 I, kDefault                                  : No& r: ^% B; [2 E) L0 z* w
Forced                                   : No- @2 i3 C7 u; g5 s' |
Original source medium                   : Blu-ray$ S& u( |6 [$ q8 p

0 z& d" s. q4 _4 |Text #4$ R4 u5 t; |; p  ^+ ~, n
ID                                       : 8
( C% F+ T3 r; k$ _, E. ~; p& xID in the original source medium         : 4770 (0x12A2)) P: V+ u6 U( d/ m( k( o$ {% B
Format                                   : PGS1 p7 v2 n3 u1 @" p, Y) v$ z
Muxing mode                              : zlib  X% b8 o. ^7 i' l2 \
Codec ID                                 : S_HDMV/PGS$ G. J4 h5 \+ W& i7 K/ ?$ `- q
Codec ID/Info                            : Picture based subtitle format used on BDs/HD-DVDs' ~, n+ d: ?6 X3 G. @& W
Duration                                 : 2 h 12 min) W3 |, w' C) b0 Y- _# j; J; u8 k# t
Bit rate                                 : 25.6 kb/s
. k$ R: M; Q7 {9 S) U4 ?! QCount of elements                        : 26047 }  D4 _6 a+ O+ Q# o& {
Stream size                              : 24.3 MiB (0%): I; {% c3 w! E2 d
Language                                 : Spanish* T. d) a$ y: \: b5 |
Default                                  : No2 P% W. m+ t% o) S+ R$ e
Forced                                   : No
7 |, F/ C+ h: _) s% }6 ROriginal source medium                   : Blu-ray
& |1 s) S. o' v- A1 `' @! ~
2 s" q0 D& D8 ~8 o& m: ~Text #5
5 V5 v, a& n- i1 b% K; C+ i% l" tID                                       : 94 `6 U- S5 ?! w% z! Z* Q+ M
ID in the original source medium         : 4771 (0x12A3)5 |0 b  v8 O$ k- F( z2 V: C5 A
Format                                   : PGS- N6 @) N1 x" Q% ^0 [) \) X
Muxing mode                              : zlib+ h1 B, Q. f4 d0 ]$ ]1 C6 n5 G1 N
Codec ID                                 : S_HDMV/PGS" A# L! Q" X  L' y5 g2 j5 h' E
Codec ID/Info                            : Picture based subtitle format used on BDs/HD-DVDs0 H) i; j, p) `" w: R
Duration                                 : 2 h 12 min
: N8 \7 S. b9 b- P* P' W9 FBit rate                                 : 18.7 kb/s
8 s9 q( ]9 c; \7 q# }% B: j, K0 Q+ dCount of elements                        : 2512/ S( y5 w: U6 A6 j
Stream size                              : 17.7 MiB (0%)
9 l' ~8 [5 F* Z% Z7 L6 gLanguage                                 : Japanese; z% n8 p# [+ X, q6 O
Default                                  : No
) ?# s! C; \1 e2 S: U* rForced                                   : No+ B3 g* H! a  Z- `' ?8 |* Y. @4 N
Original source medium                   : Blu-ray8 N" f6 \. A3 P4 y; G7 E$ r( ^

+ b: G* z" p* y- iMenu1 n* C( t. Z& ~7 U, S$ ?, o
00:00:00.000                             : Chapter 01
* r0 D7 G+ k4 c1 v3 Q, h, f, q" ^+ y1 |00:04:55.169                             : Chapter 02* A* g( `4 M; U# k
00:13:10.080                             : Chapter 03" Y" V5 v0 o( [; C2 }, T/ g/ v
00:16:24.566                             : Chapter 04- ^) L  p- U6 E5 j
00:18:41.870                             : Chapter 051 C+ x( @- R3 d* P+ Z4 c
00:21:41.633                             : Chapter 06  m/ t3 R5 }& o) z- Y
00:25:40.747                             : Chapter 07* Z# D. g+ b9 N4 d) R
00:30:06.346                             : Chapter 08* |% g; t0 J) O9 c( a& B5 v" i# F0 U3 q
00:39:05.301                             : Chapter 09
1 N: F7 j- F5 L7 T" Y& l/ A6 a00:44:46.058                             : Chapter 10" O' U6 K+ G" A8 ~1 A
00:53:25.994                             : Chapter 112 I5 s* W# ~9 `8 x7 O
01:01:38.152                             : Chapter 12/ a! p! S  k( ]1 f7 A7 ^6 t1 w
01:07:46.270                             : Chapter 13
+ \/ j/ {, |" ?4 X) _01:11:40.629                             : Chapter 14- M" v" f" D0 C8 h0 _* `
01:17:48.747                             : Chapter 15
- U8 L& q% s& B; W6 ^/ ]5 C01:27:19.192                             : Chapter 16% D" x. D! O0 s7 k
01:33:33.441                             : Chapter 17, J3 J: \6 @4 t
01:37:37.476                             : Chapter 18
  f; u4 R' |0 Y8 W+ f0 ^4 F01:41:18.655                             : Chapter 19
6 n4 z; _8 _+ w6 x01:45:37.539                             : Chapter 20: p" R0 @! l& I+ S0 t3 H
01:51:41.653                             : Chapter 21( U+ s+ D/ K) g0 \# ?$ `/ p. T
01:57:09.105                             : Chapter 22' M2 T* O3 G# r2 I
02:01:59.562                             : Chapter 23; g+ Y3 ]6 k6 a8 g& J
02:04:25.458                             : Chapter 24
% V4 ~' \0 u5 t6 o, n# c
游客,查看本帖隐藏内容请回复 | 加入VIP贵宾可免积分免回复 了解详情 | 还不是会员:点击获取邀请码 Invitation Code

本版积分规则

小黑屋|Archiver|蓝光电影资源网

GMT+8, 2021-10-25 18:05

Copyright © 2001-2022, Tencent Cloud.

快速回复 返回顶部 返回列表